osu file format v12

[General]
AudioFilename: sandoval.mp3
AudioLeadIn: 0
PreviewTime: 56400
Countdown: 0
SampleSet: Soft
StackLeniency: 0.7
Mode: 0
LetterboxInBreaks: 0

[Editor]
Bookmarks: 20733,21399,31399,32066,42732,85397
DistanceSpacing: 1
BeatDivisor: 4
GridSize: 4

[Metadata]
Title:A Quien Tu Decidiste Amar
TitleUnicode:A Quien Tu Decidiste Amar
Artist:Sandoval
ArtistUnicode:Sandoval
Creator:Gero
Version:eLtXXx's Insane
Source:
Tags:XinCrin eLtigreXXx DakeDekaane Taiko
BeatmapID:192968
BeatmapSetID:66063

[Difficulty]
HPDrainRate:7
CircleSize:4
OverallDifficulty:7
ApproachRate:8
SliderMultiplier:1.8
SliderTickRate:2

[Events]
//Background and Video events
0,0,"BG.jpg",0,0
//Break Periods
//Storyboard Layer 0 (Background)
Sprite,Background,Centre,"BG.jpg",320,240 F,0,0,,0 S,0,0,,0.625
Sprite,Background,Centre,"SB\Blacklove.jpg",320,240 S,0,0,,0.8 F,0,0,8733,0,1 F,0,8733,20066,1 F,0,20066,20733,1,0
Sprite,Background,Centre,"SB\Sad Girl.JPG",320,240 F,0,20733,21400,0,1 M,0,20733,42733,329,242,284,231 S,0,20733,42733,0.827109,0.9454028 F,0,42066,42733,1,0
Sprite,Background,Centre,"SB\Sad.jpg",320,240 F,0,42733,43400,0,1 S,0,42733,55733,1.00019,0.8 F,0,43400,55066,1,0.9775112 F,0,55066,55733,0.9775112,0
Sprite,Background,Centre,"SB\Sad Alone LOve.jpg",320,240 M,0,55733,,320,240 S,0,55733,,0.7998104 F,0,55733,56400,0,1 F,0,56400,84066,1 F,0,84066,85066,1,0
//Storyboard Layer 1 (Fail)
//Storyboard Layer 2 (Pass)
//Storyboard Layer 3 (Foreground)
Sprite,Foreground,Centre,"SB\Light alone.jpg",320,240 L,0,15 F,0,56733,57400,1,0
Sprite,Foreground,Centre,"SB\love.jpg",320,240 L,0,2 F,0,10067,10400,1,0 L,0,7 F,0,11400,12067,1,0.03003001 S,0,11400,12733,1
Sprite,Foreground,Centre,"SB\Flash.png",320,240 F,0,10733,11567,0.2583886,0.006 F,0,32066,32900,0.444929,0 F,0,56066,56733,0.6951659,0
Sprite,Foreground,Centre,"SB\Lyrics.png",320,240 V,0,0,,1.700663,0.9181044 F,0,0,2067,0,1 M,0,0,84733,681,341,-36,344
Sprite,Foreground,Centre,"SB\Beatmap of.png",308,389 F,0,2067,2733,0,1 F,0,2733,4733,1,0.9984985 F,0,4733,5400,0.9984985,0
Sprite,Foreground,Centre,"SB\Storyboard by.png",308,389 F,0,7067,7733,0,1 F,0,7733,8400,1 F,0,8400,9067,1,0
Sprite,Foreground,Centre,"SB\Gero.png",496,412 S,0,4733,,1.218389 F,0,4733,5400,0,1 F,0,5400,6400,1,0.994003 F,0,6400,7067,0.994003,0
Sprite,Foreground,Centre,"SB\Xin.png",496,412 F,0,8400,9067,0,1 F,0,9067,9733,1 F,0,9733,10233,1,0
Sprite,Foreground,Centre,"SB\Lyrics\1.png",320,240 S,0,21066,,0.9090048 F,0,21066,21733,0,1 M,0,21733,,273,385 F,0,21733,24733,1,0.9877346 F,0,24733,25400,0.9877346,0
Sprite,Foreground,Centre,"SB\Lyrics\2.png",320,240 M,0,23066,,422,426 F,0,23066,23733,0,1 F,0,23733,25400,1 F,0,25400,26066,1,0
Sprite,Foreground,Centre,"SB\Lyrics\3.png",320,240 S,0,25400,,0.9090048 F,0,25400,26067,0,1 M,0,26067,,273,385 F,0,26067,29067,1,0.9877346 F,0,29067,29734,0.9877346,0
Sprite,Foreground,Centre,"SB\Lyrics\4.png",320,240 M,0,28066,,422,426 F,0,28066,28733,0,1 F,0,28733,30400,1 F,0,30400,31066,1,0
Sprite,Foreground,Centre,"SB\Lyrics\5.png",320,240 S,0,31733,,0.9090048 F,0,31733,32400,0,1 M,0,32400,,273,385 F,0,32400,35400,1,0.9877346 F,0,35400,36067,0.9877346,0
Sprite,Foreground,Centre,"SB\Lyrics\6.png",320,240 M,0,36066,,422,426 F,0,36066,36733,0,1 F,0,36733,38400,1 F,0,38400,39066,1,0
Sprite,Foreground,Centre,"SB\Lyrics\7.png",320,240 M,0,38733,,308,385 S,0,38733,,0.9090048 F,0,38733,39400,0,1 F,0,39400,41400,1 F,0,41400,42066,1,0 S,0,41400,42066,0.9090048,1.154692
Sprite,Foreground,Centre,"SB\Lyrics\8.png",320,240 M,0,42066,,221,379 S,0,42066,,1 F,0,42066,42733,0,1 F,0,42733,44066,1,0.9970022 F,0,44066,44733,0.9970022,0
Sprite,Foreground,Centre,"SB\Lyrics\9.png",320,240 M,0,44066,,400,431 S,0,44066,,0.8817065 F,0,44066,44733,0,1 F,0,44733,47400,1 F,0,47400,48066,1,0
Sprite,Foreground,Centre,"SB\Lyrics\10.png",320,240 M,0,47400,,221,379 S,0,47400,,1 F,0,47400,48067,0,1 F,0,48067,49400,1,0.9970022 F,0,49400,50067,0.9970022,0
Sprite,Foreground,Centre,"SB\Lyrics\11.png",320,240 M,0,48733,,422,426 F,0,48733,49400,0,1 F,0,49400,51733,1 F,0,51733,52400,1,0.01651651 S,0,51733,52400,1,1.127393
Sprite,Foreground,Centre,"SB\Lyrics\12.png",320,240 M,0,53400,,320,235 F,0,53400,53733,0,1 S,0,53400,56066,0.4267299,2.119242 F,0,53733,55400,1 F,0,55400,56066,1,0
Sprite,Foreground,Centre,"SB\Lyrics\13.png",320,240 M,0,56066,,212,380 F,0,56066,56733,0,1 F,0,56733,58400,1 F,0,58400,59066,1,0
Sprite,Foreground,Centre,"SB\Lyrics\14.png",320,240 M,0,58400,,422,426 F,0,58400,59067,0,1 F,0,59067,60734,1 F,0,60734,61400,1,0
Sprite,Foreground,Centre,"SB\Lyrics\15.png",320,240 M,0,61066,,308,385 S,0,61066,,0.9090048 F,0,61066,61733,0,1 F,0,61733,63733,1 F,0,63733,64399,1,0 S,0,63733,64399,0.9090048,1.154692
Sprite,Foreground,Centre,"SB\Lyrics\16.png",320,240 M,0,63400,,400,431 S,0,63400,,0.8817065 F,0,63400,64067,0,1 F,0,64067,66734,1 F,0,66734,67400,1,0
Sprite,Foreground,Centre,"SB\Lyrics\17.png",320,240 M,0,66400,,212,380 F,0,66400,67067,0,1 F,0,67067,68734,1 F,0,68734,69400,1,0
Sprite,Foreground,Centre,"SB\Lyrics\18.png",320,240 M,0,69066,,400,431 S,0,69066,,0.8817065 F,0,69066,69733,0,1 F,0,69733,72400,1 F,0,72400,73066,1,0
Sprite,Foreground,Centre,"SB\Lyrics\19.png",320,240 M,0,71733,,311,378 S,0,71733,,1 F,0,71733,72400,0,1 F,0,72400,73733,1,0.9970022 F,0,73733,74400,0.9970022,0
Sprite,Foreground,Centre,"SB\Lyrics\20.png",320,240 M,0,73733,,422,426 F,0,73733,74400,0,1 F,0,74400,75400,1 F,0,75400,76067,1,0
Sprite,Foreground,Centre,"SB\Lyrics\21.png",320,240 M,0,75066,,212,380 F,0,75066,75733,0,1 F,0,75733,77400,1 F,0,77400,78066,1,0
Sprite,Foreground,Centre,"SB\Lyrics\22.png",320,240 M,0,77733,,422,426 F,0,77733,78400,0,1 F,0,78400,79400,1 F,0,79400,80066,1,0 S,0,79400,80066,1,1.172891
Sprite,Foreground,Centre,"SB\Lyrics\23.png",320,240 M,0,80066,,320,235 F,0,80066,80399,0,1 S,0,80066,82732,0.4267299,2.119242 F,0,80399,82066,1 F,0,82066,82732,1,0
Sprite,Foreground,Centre,"SB\Flash.png",320,240 F,0,83400,84733,0,1 F,0,84733,85733,1,0
//Storyboard Sound Samples
//Background Colour Transformations
3,100,163,162,255

[TimingPoints]
8066,666.666666666667,4,2,1,45,1,0
8066,-50,4,2,1,45,0,0
21066,-50,4,2,1,20,0,0
21399,-50,4,2,1,30,0,0
21732,-50,4,2,1,30,0,0
25066,-76.9230769230769,4,2,1,30,0,0
25732,-50,4,2,1,30,0,0
31732,-50,4,2,1,20,0,0
32066,-50,4,2,1,30,0,0
43066,-50,4,2,1,20,0,0
43399,-50,4,2,1,30,0,0
56066,-50,4,2,1,30,0,1
66399,-50,4,1,1,30,0,0
66732,-50,4,2,1,30,0,1
80066,-50,4,1,1,30,0,0
80399,-50,4,2,1,25,0,0
85232,-50,4,2,1,15,0,0

[Colours]
Combo1 : 255,166,210
Combo2 : 255,128,128
Combo3 : 102,179,255
SliderBorder : 255,255,255

[HitObjects]
416,116,10066,1,0,0:0:0:0:
256,32,10399,1,0,0:0:0:0:
96,116,10732,5,4,0:0:0:0:
144,284,11065,1,0,0:0:0:0:
168,196,11232,1,2,0:0:0:0:
256,196,11399,2,0,B|312:268|312:268|363:264|396:296,1,180,0|0,0:0|0:0,0:0:0:0:
484,120,12065,1,0,0:0:0:0:
432,36,12232,2,0,B|381:43|343:19|343:19|306:42|256:28,1,180,2|0,0:0|0:0,0:0:0:0:
160,52,12732,2,0,B|104:64|80:100|80:100|80:144|48:180,1,180,2|2,0:0|0:0,0:0:0:0:
308,144,13399,6,0,P|384:196|400:280,1,180,2|0,0:0|0:0,0:0:0:0:
448,352,13899,1,2,0:0:0:0:
360,352,14065,1,0,0:0:0:0:
216,240,14399,1,0,0:0:0:0:
208,144,14565,2,0,P|132:200|128:280,1,180,2|2,0:0|0:0,0:0:0:0:
304,252,15232,1,0,0:0:0:0:
304,252,15399,2,2,B|404:244|404:244|421:203|464:188,1,180,0|2,0:0|0:0,0:0:0:0:
304,96,16065,6,0,B|259:77|246:41|246:41|146:33,1,180,2|0,0:0|0:0,0:0:0:0:
132,124,16565,2,0,L|40:124,1,90,2|0,0:0|0:0,0:0:0:0:
308,188,17065,2,0,L|400:188,1,90,0|2,0:0|0:0,0:0:0:0:
460,252,17399,5,0,0:0:0:0:
256,316,17732,1,0,0:0:0:0:
64,256,18065,1,0,0:0:0:0:
256,44,18399,1,0,0:0:0:0:
256,44,18732,6,0,B|322:76|322:76|368:102|428:83,1,180,2|0,0:0|0:0,0:0:0:0:
392,168,19232,2,0,L|484:168,1,90,2|0,0:0|0:0,0:0:0:0:
216,256,19732,2,0,L|120:256,1,90,2|0,0:0|0:0,0:0:0:0:
172,152,20066,2,0,L|262:152,1,90,2|0,0:0|0:0,0:0:0:0:
416,56,20566,1,0,0:0:0:0:
316,56,20732,1,2,0:0:0:0:
420,240,21066,2,0,P|396:324|304:356,1,180,4|4,0:0|0:0,0:0:0:0:
200,220,21732,5,0,0:0:0:0:
112,216,21899,1,0,0:0:0:0:
60,152,22066,2,0,P|84:68|176:36,1,180,8|0,0:1|0:0,0:0:0:0:
228,112,22566,1,0,0:0:0:0:
292,36,22732,2,0,B|393:61|393:61|423:36|464:44,1,180,2|0,0:0|0:0,0:0:0:0:
452,136,23232,2,0,L|452:232,1,90,0|8,0:0|0:1,0:0:0:0:
348,348,23732,1,0,0:0:0:0:
260,360,23899,1,0,0:0:0:0:
172,348,24066,1,2,0:0:0:0:
296,220,24399,2,0,B|264:147|327:125|296:44,1,180,0|8,0:0|0:1,0:0:0:0:
180,24,25066,6,0,P|136:136|172:240,1,233.999989288331
368,224,26066,5,8,0:0:0:0:
368,72,26232,1,0,0:0:0:0:
240,152,26399,1,0,0:0:0:0:
240,152,26732,1,2,0:0:0:0:
240,152,27066,2,0,B|194:163|158:132|158:132|116:162|68:148,2,180,0|8|0,0:0|0:1|0:0,0:0:0:0:
404,64,28066,1,2,0:0:0:0:
240,152,28399,1,0,0:0:0:0:
72,168,28732,5,8,0:1:0:0:
204,240,28899,1,0,0:0:0:0:
96,312,29066,2,0,P|144:372|240:360,1,180,0|2,0:0|0:0,0:0:0:0:
340,212,29732,1,0,0:0:0:0:
116,96,30066,1,8,0:1:0:0:
360,32,30399,2,0,P|280:60|256:148,1,180
152,352,31066,2,0,P|232:324|256:236,1,180,0|0,0:0|0:0,0:0:0:0:
352,80,31732,1,2,0:0:0:0:
172,80,32066,5,4,0:0:0:0:
244,244,32399,1,0,0:0:0:0:
172,300,32566,1,0,0:0:0:0:
256,328,32732,2,0,P|348:316|376:240,1,180,8|0,0:0|0:0,0:0:0:0:
452,192,33232,1,0,0:0:0:0:
376,144,33399,2,0,P|348:72|256:48,1,180,2|0,0:0|0:0,0:0:0:0:
248,140,33899,1,0,0:0:0:0:
244,228,34066,2,0,P|152:204|124:132,1,180,8|0,0:0|0:0,0:0:0:0:
160,48,34566,1,0,0:0:0:0:
248,48,34732,6,0,P|336:60|428:48,1,180,2|0,0:0|0:0,0:0:0:0:
368,220,35399,1,8,0:0:0:0:
204,144,35732,2,0,P|124:108|44:144,2,180,0|2|0,0:0|0:0|0:0,0:0:0:0:
196,300,36732,5,8,0:0:0:0:
301,205,36899,1,0,0:0:0:0:
292,340,37066,2,0,P|380:372|460:340,1,180,0|4,0:0|0:0,0:0:0:0:
461,77,37732,2,0,P|384:48|296:80,1,180,0|8,0:0|0:0,0:0:0:0:
200,232,38399,2,0,P|68:192|196:164,1,360
320,284,39399,5,8,0:0:0:0:
440,220,39566,1,0,0:0:0:0:
432,84,39732,1,0,0:0:0:0:
256,52,40065,1,4,0:0:0:0:
88,116,40399,2,0,P|52:192|84:280,1,180,0|8,0:0|0:0,0:0:0:0:
256,332,41065,1,0,0:0:0:0:
256,192,41399,1,2,0:0:0:0:
416,272,41732,2,0,P|456:192|416:116,2,180,8|0|0,0:3|0:0|0:0,0:0:0:0:
256,192,42732,6,0,P|168:212|80:192,1,180,4|0,0:0|0:0,0:0:0:0:
300,64,43399,2,0,P|384:40|472:64,1,180,8|0,0:0|0:0,0:0:0:0:
160,64,44065,2,0,B|104:76|80:112|80:112|80:156|48:192,1,180,2|0,0:0|0:0,0:0:0:0:
256,192,44732,2,0,B|285:225|285:269|285:269|309:305|365:317,1,180,10|0,0:0|0:0,0:0:0:0:
140,336,45399,5,2,0:0:0:0:
60,148,45732,1,0,0:0:0:0:
260,40,46065,1,8,0:0:0:0:
450,141,46399,1,0,0:0:0:0:
365,331,46732,1,2,0:0:0:0:
256,192,47065,1,0,0:0:0:0:
256,192,47399,2,0,B|208:216|184:252|184:252|164:276|112:296,1,180,8|0,0:0|0:0,0:0:0:0:
304,112,48065,6,0,P|380:84|476:112,1,180,4|0,0:0|0:0,0:0:0:0:
476,288,48732,1,8,0:0:0:0:
304,336,49065,1,0,0:0:0:0:
208,112,49399,2,0,P|132:84|36:112,1,180,2|0,0:0|0:0,0:0:0:0:
36,288,50065,1,8,0:0:0:0:
208,336,50399,1,0,0:0:0:0:
256,160,50732,5,4,0:0:0:0:
380,32,51065,2,0,P|456:72|468:160,2,180,0|8|4,0:0|0:0|0:0,0:0:0:0:
141,29,52065,2,0,P|65:69|53:157,2,180,0|8|4,0:0|0:0|0:0,0:0:0:0:
256,264,53065,1,0,0:0:0:0:
256,64,53399,1,2,0:0:0:0:
156,164,53732,5,0,0:0:0:0:
352,164,54065,1,8,0:0:0:0:
176,244,54399,1,0,0:0:0:0:
352,164,54732,1,0,0:0:0:0:
176,84,55065,2,0,B|132:70|95:100|95:100|23:29,2,180,8|0|0,0:3|0:0|0:0,0:0:0:0:
352,164,56065,5,4,1:0:0:0:
80,156,56399,1,0,0:0:0:0:
92,256,56565,1,0,0:0:0:0:
188,284,56732,2,0,B|236:276|273:285|273:285|308:284|364:252,1,180,8|0,0:0|0:0,0:0:0:0:
352,164,57232,1,0,0:0:0:0:
352,72,57399,2,0,B|304:64|266:73|266:73|232:72|176:52,1,180,2|0,0:0|0:0,0:0:0:0:
76,184,58065,2,0,P|64:268|136:324,1,180,8|0,0:0|0:0,0:0:0:0:
256,192,58732,1,2,0:0:0:0:
356,56,59065,6,0,P|440:92|464:176,2,180,0|8|0,0:0|0:0|0:0,0:0:0:0:
256,192,60065,1,2,0:0:0:0:
420,300,60399,1,0,0:0:0:0:
256,192,60732,1,8,0:0:0:0:
31,171,61065,2,0,P|56:92|140:56,1,180,0|2,0:0|0:0,0:0:0:0:
197,230,61732,6,0,P|321:165|198:152,1,360
56,40,62732,1,2,0:0:0:0:
236,40,63065,2,0,B|286:47|324:24|324:24|362:48|412:40,1,180,0|8,0:0|0:0,0:0:0:0:
288,173,63732,1,0,0:0:0:0:
448,260,64065,5,2,0:0:0:0:
440,48,64399,1,0,0:0:0:0:
88,296,64732,1,8,0:0:0:0:
88,92,65065,1,0,0:0:0:0:
256,192,65399,2,0,P|340:212|432:192,2,180,2|0|8,0:0|0:0|0:0,0:0:0:0:
368,48,66399,2,0,P|280:24|196:48,1,180,0|4,0:0|0:0,0:0:0:0:
28,112,67065,5,0,0:0:0:0:
32,204,67232,1,0,0:0:0:0:
124,228,67399,2,0,B|172:252|208:216|208:216|296:228,1,180,8|0,0:0|0:0,0:0:0:0:
376,196,67899,1,0,0:0:0:0:
416,116,68065,2,0,B|371:90|324:118|324:118|241:106,1,180,2|0,0:0|0:0,0:0:0:0:
256,296,68732,2,0,B|214:333|169:312|169:312|92:356,1,180,8|0,0:0|0:0,0:0:0:0:
24,188,69399,1,2,0:0:0:0:
176,72,69732,6,0,P|256:40|340:72,2,180,0|8|0,0:0|0:0|0:0,0:0:0:0:
256,240,70732,1,2,0:0:0:0:
92,272,71065,1,0,0:0:0:0:
256,352,71399,1,8,0:0:0:0:
420,272,71732,1,0,0:0:0:0:
256,136,72065,1,2,0:0:0:0:
88,197,72399,6,0,P|48:333|164:253,2,360
256,40,74065,1,8,0:0:0:0:
256,228,74399,5,0,0:0:0:0:
336,272,74565,1,0,0:0:0:0:
179,274,74732,1,4,0:0:0:0:
256,132,74899,1,0,0:0:0:0:
176,64,75065,2,0,P|256:32|340:68,1,180,0|8,0:0|0:0,0:0:0:0:
468,192,75732,5,0,0:0:0:0:
328,180,75899,1,0,0:0:0:0:
356,332,76065,1,2,0:0:0:0:
256,224,76232,1,0,0:0:0:0:
256,320,76399,2,0,B|209:305|168:336|168:336|76:332,1,180,0|8,0:0|0:0,0:0:0:0:
256,124,77065,2,0,B|299:141|336:103|336:103|432:88,2,180,0|4|0,0:0|0:0|0:0,0:0:0:0:
88,184,78065,6,0,B|114:220|163:203|163:203|256:256,1,180,8|4,0:0|0:0,0:0:0:0:
400,356,78732,1,0,0:0:0:0:
468,188,79066,1,8,0:3:0:0:
380,28,79399,1,8,0:3:0:0:
36,192,80066,6,0,P|52:284|128:312,1,180
256,192,80732,12,0,85399,0:0:0:0:
