osu file format v12

[General]
AudioFilename: sandoval.mp3
AudioLeadIn: 0
PreviewTime: 56400
Countdown: 0
SampleSet: Normal
StackLeniency: 0.7
Mode: 0
LetterboxInBreaks: 0

[Editor]
DistanceSpacing: 1
BeatDivisor: 4
GridSize: 4

[Metadata]
Title:A Quien Tu Decidiste Amar
TitleUnicode:A Quien Tu Decidiste Amar
Artist:Sandoval
ArtistUnicode:Sandoval
Creator:Gero
Version:Xin's Hard
Source:
Tags:XinCrin eLtigreXXx DakeDekaane Taiko
BeatmapID:192947
BeatmapSetID:66063

[Difficulty]
HPDrainRate:6
CircleSize:4
OverallDifficulty:6
ApproachRate:7
SliderMultiplier:1.6
SliderTickRate:2

[Events]
//Background and Video events
0,0,"BG.jpg",0,0
//Break Periods
//Storyboard Layer 0 (Background)
Sprite,Background,Centre,"BG.jpg",320,240 F,0,0,,0 S,0,0,,0.625
Sprite,Background,Centre,"SB\Blacklove.jpg",320,240 S,0,0,,0.8 F,0,0,8733,0,1 F,0,8733,20066,1 F,0,20066,20733,1,0
Sprite,Background,Centre,"SB\Sad Girl.JPG",320,240 F,0,20733,21400,0,1 M,0,20733,42733,329,242,284,231 S,0,20733,42733,0.827109,0.9454028 F,0,42066,42733,1,0
Sprite,Background,Centre,"SB\Sad.jpg",320,240 F,0,42733,43400,0,1 S,0,42733,55733,1.00019,0.8 F,0,43400,55066,1,0.9775112 F,0,55066,55733,0.9775112,0
Sprite,Background,Centre,"SB\Sad Alone LOve.jpg",320,240 M,0,55733,,320,240 S,0,55733,,0.7998104 F,0,55733,56400,0,1 F,0,56400,84066,1 F,0,84066,85066,1,0
//Storyboard Layer 1 (Fail)
//Storyboard Layer 2 (Pass)
//Storyboard Layer 3 (Foreground)
Sprite,Foreground,Centre,"SB\Light alone.jpg",320,240 L,0,15 F,0,56733,57400,1,0
Sprite,Foreground,Centre,"SB\love.jpg",320,240 L,0,2 F,0,10067,10400,1,0 L,0,7 F,0,11400,12067,1,0.03003001 S,0,11400,12733,1
Sprite,Foreground,Centre,"SB\Flash.png",320,240 F,0,10733,11567,0.2583886,0.006 F,0,32066,32900,0.444929,0 F,0,56066,56733,0.6951659,0
Sprite,Foreground,Centre,"SB\Lyrics.png",320,240 V,0,0,,1.700663,0.9181044 F,0,0,2067,0,1 M,0,0,84733,681,341,-36,344
Sprite,Foreground,Centre,"SB\Beatmap of.png",308,389 F,0,2067,2733,0,1 F,0,2733,4733,1,0.9984985 F,0,4733,5400,0.9984985,0
Sprite,Foreground,Centre,"SB\Storyboard by.png",308,389 F,0,7067,7733,0,1 F,0,7733,8400,1 F,0,8400,9067,1,0
Sprite,Foreground,Centre,"SB\Gero.png",496,412 S,0,4733,,1.218389 F,0,4733,5400,0,1 F,0,5400,6400,1,0.994003 F,0,6400,7067,0.994003,0
Sprite,Foreground,Centre,"SB\Xin.png",496,412 F,0,8400,9067,0,1 F,0,9067,9733,1 F,0,9733,10233,1,0
Sprite,Foreground,Centre,"SB\Lyrics\1.png",320,240 S,0,21066,,0.9090048 F,0,21066,21733,0,1 M,0,21733,,273,385 F,0,21733,24733,1,0.9877346 F,0,24733,25400,0.9877346,0
Sprite,Foreground,Centre,"SB\Lyrics\2.png",320,240 M,0,23066,,422,426 F,0,23066,23733,0,1 F,0,23733,25400,1 F,0,25400,26066,1,0
Sprite,Foreground,Centre,"SB\Lyrics\3.png",320,240 S,0,25400,,0.9090048 F,0,25400,26067,0,1 M,0,26067,,273,385 F,0,26067,29067,1,0.9877346 F,0,29067,29734,0.9877346,0
Sprite,Foreground,Centre,"SB\Lyrics\4.png",320,240 M,0,28066,,422,426 F,0,28066,28733,0,1 F,0,28733,30400,1 F,0,30400,31066,1,0
Sprite,Foreground,Centre,"SB\Lyrics\5.png",320,240 S,0,31733,,0.9090048 F,0,31733,32400,0,1 M,0,32400,,273,385 F,0,32400,35400,1,0.9877346 F,0,35400,36067,0.9877346,0
Sprite,Foreground,Centre,"SB\Lyrics\6.png",320,240 M,0,36066,,422,426 F,0,36066,36733,0,1 F,0,36733,38400,1 F,0,38400,39066,1,0
Sprite,Foreground,Centre,"SB\Lyrics\7.png",320,240 M,0,38733,,308,385 S,0,38733,,0.9090048 F,0,38733,39400,0,1 F,0,39400,41400,1 F,0,41400,42066,1,0 S,0,41400,42066,0.9090048,1.154692
Sprite,Foreground,Centre,"SB\Lyrics\8.png",320,240 M,0,42066,,221,379 S,0,42066,,1 F,0,42066,42733,0,1 F,0,42733,44066,1,0.9970022 F,0,44066,44733,0.9970022,0
Sprite,Foreground,Centre,"SB\Lyrics\9.png",320,240 M,0,44066,,400,431 S,0,44066,,0.8817065 F,0,44066,44733,0,1 F,0,44733,47400,1 F,0,47400,48066,1,0
Sprite,Foreground,Centre,"SB\Lyrics\10.png",320,240 M,0,47400,,221,379 S,0,47400,,1 F,0,47400,48067,0,1 F,0,48067,49400,1,0.9970022 F,0,49400,50067,0.9970022,0
Sprite,Foreground,Centre,"SB\Lyrics\11.png",320,240 M,0,48733,,422,426 F,0,48733,49400,0,1 F,0,49400,51733,1 F,0,51733,52400,1,0.01651651 S,0,51733,52400,1,1.127393
Sprite,Foreground,Centre,"SB\Lyrics\12.png",320,240 M,0,53400,,320,235 F,0,53400,53733,0,1 S,0,53400,56066,0.4267299,2.119242 F,0,53733,55400,1 F,0,55400,56066,1,0
Sprite,Foreground,Centre,"SB\Lyrics\13.png",320,240 M,0,56066,,212,380 F,0,56066,56733,0,1 F,0,56733,58400,1 F,0,58400,59066,1,0
Sprite,Foreground,Centre,"SB\Lyrics\14.png",320,240 M,0,58400,,422,426 F,0,58400,59067,0,1 F,0,59067,60734,1 F,0,60734,61400,1,0
Sprite,Foreground,Centre,"SB\Lyrics\15.png",320,240 M,0,61066,,308,385 S,0,61066,,0.9090048 F,0,61066,61733,0,1 F,0,61733,63733,1 F,0,63733,64399,1,0 S,0,63733,64399,0.9090048,1.154692
Sprite,Foreground,Centre,"SB\Lyrics\16.png",320,240 M,0,63400,,400,431 S,0,63400,,0.8817065 F,0,63400,64067,0,1 F,0,64067,66734,1 F,0,66734,67400,1,0
Sprite,Foreground,Centre,"SB\Lyrics\17.png",320,240 M,0,66400,,212,380 F,0,66400,67067,0,1 F,0,67067,68734,1 F,0,68734,69400,1,0
Sprite,Foreground,Centre,"SB\Lyrics\18.png",320,240 M,0,69066,,400,431 S,0,69066,,0.8817065 F,0,69066,69733,0,1 F,0,69733,72400,1 F,0,72400,73066,1,0
Sprite,Foreground,Centre,"SB\Lyrics\19.png",320,240 M,0,71733,,311,378 S,0,71733,,1 F,0,71733,72400,0,1 F,0,72400,73733,1,0.9970022 F,0,73733,74400,0.9970022,0
Sprite,Foreground,Centre,"SB\Lyrics\20.png",320,240 M,0,73733,,422,426 F,0,73733,74400,0,1 F,0,74400,75400,1 F,0,75400,76067,1,0
Sprite,Foreground,Centre,"SB\Lyrics\21.png",320,240 M,0,75066,,212,380 F,0,75066,75733,0,1 F,0,75733,77400,1 F,0,77400,78066,1,0
Sprite,Foreground,Centre,"SB\Lyrics\22.png",320,240 M,0,77733,,422,426 F,0,77733,78400,0,1 F,0,78400,79400,1 F,0,79400,80066,1,0 S,0,79400,80066,1,1.172891
Sprite,Foreground,Centre,"SB\Lyrics\23.png",320,240 M,0,80066,,320,235 F,0,80066,80399,0,1 S,0,80066,82732,0.4267299,2.119242 F,0,80399,82066,1 F,0,82066,82732,1,0
Sprite,Foreground,Centre,"SB\Flash.png",320,240 F,0,83400,84733,0,1 F,0,84733,85733,1,0
//Storyboard Sound Samples
//Background Colour Transformations
3,100,163,162,255

[TimingPoints]
8066,666.666666666667,4,1,1,30,1,0
8066,-50,4,1,1,30,0,0
10899,-50,4,1,1,30,0,0
20732,-50,4,1,1,30,0,0
42732,-62.5,4,1,1,30,0,0
56066,-50,4,1,1,30,0,1
66399,-50,4,1,1,30,0,0
66732,-50,4,1,1,30,0,1
80066,-50,4,2,1,30,0,0
85232,-50,4,2,1,30,0,0

[Colours]
Combo1 : 255,166,210
Combo2 : 255,128,128
Combo3 : 102,179,255
SliderBorder : 255,255,255

[HitObjects]
256,356,10066,1,0,0:0:0:0:
256,356,10399,1,0,0:0:0:0:
188,212,10732,6,0,P|256:176|324:212,1,160,4|0,0:0|0:0,0:0:0:0:
384,264,11232,1,0,0:0:0:0:
428,196,11399,2,0,P|384:140|308:92,1,160,8|0,0:0|0:0,0:0:0:0:
256,32,11899,1,0,0:0:0:0:
202,92,12065,2,0,P|128:140|84:196,1,160,0|0,0:0|0:0,0:0:0:0:
40,264,12565,1,0,0:0:0:0:
108,304,12732,6,0,B|156:335|205:306|205:306|267:306,1,160,8|0,0:0|0:0,0:0:0:0:
336,268,13232,1,0,0:0:0:0:
385,206,13399,2,0,B|337:175|288:204|288:204|226:204,2,160,0|0|8,0:0|0:0|0:0,0:0:0:0:
336,52,14399,5,0,0:0:0:0:
488,100,14732,1,0,0:0:0:0:
476,260,15065,1,0,0:0:0:0:
436,328,15232,2,0,L|360:356,1,80,0|8,0:0|0:0,0:0:0:0:
200,360,15732,1,0,0:0:0:0:
64,276,16065,6,0,B|108:258|144:276|144:276|208:228,1,160
256,164,16565,1,0,0:0:0:0:
306,229,16732,2,0,B|368:276|368:276|404:258|448:276,1,160,8|0,0:0|0:0,0:0:0:0:
464,196,17232,1,0,0:0:0:0:
456,116,17399,2,0,B|432:76|400:64|400:64|316:64,1,160
194,64,18065,2,0,B|112:64|112:64|80:76|56:116,2,160,8|0|0,0:0|0:0|0:0,0:0:0:0:
256,212,19066,5,0,0:0:0:0:
324,256,19232,2,0,P|256:292|188:256,1,160
188,168,19732,2,0,P|256:132|324:168,2,160
256,24,20732,1,8,0:0:0:0:
188,168,21066,1,0,0:0:0:0:
48,92,21399,1,4,0:0:0:0:
60,252,21732,6,0,L|36:328,1,80
60,252,22066,2,0,B|140:256|140:256|160:292|216:300,1,160,8|0,0:0|0:0,0:0:0:0:
256,236,22566,1,0,0:0:0:0:
307,298,22732,2,0,B|352:292|372:256|372:256|452:252,1,160,0|0,0:0|0:0,0:0:0:0:
456,172,23232,1,0,0:0:0:0:
452,92,23399,6,0,B|376:92|376:92|332:92|320:68|336:36,1,160,8|0,0:0|0:0,0:0:0:0:
256,16,23899,1,0,0:0:0:0:
178,40,24066,2,0,B|192:68|180:92|136:92|136:92|60:92,1,160
180,196,24732,2,0,L|340:196,2,160,8|0|0,0:0|0:0|0:0,0:0:0:0:
256,336,25732,1,0,0:0:0:0:
116,256,26066,5,8,0:0:0:0:
68,192,26232,1,0,0:0:0:0:
120,132,26399,1,0,0:0:0:0:
256,48,26732,2,0,B|319:72|319:72|416:72,1,160,4|0,0:0|0:0,0:0:0:0:
492,212,27399,2,0,B|399:212|399:212|336:236,1,160,8|0,0:0|0:0,0:0:0:0:
176,236,28066,2,0,B|126:173|126:173|174:110,1,160,0|0,0:0|0:0,0:0:0:0:
319,43,28732,5,8,0:0:0:0:
347,117,28899,1,0,0:0:0:0:
424,138,29066,1,0,0:0:0:0:
436,296,29399,2,0,B|398:274|356:302|356:302|346:343|306:356,1,160
203,355,30066,2,0,B|166:343|156:302|156:302|114:274|76:296,1,160,8|0,0:0|0:0,0:0:0:0:
256,192,30732,12,4,32066,0:0:0:0:
120,296,32399,6,0,L|124:216,1,80
64,156,32732,2,0,B|116:124|168:148|168:148|208:112,1,160,8|0,0:0|0:0,0:0:0:0:
256,52,33232,1,0,0:0:0:0:
306,113,33399,2,0,B|344:148|344:148|396:124|448:156,1,160
388,212,33899,1,0,0:0:0:0:
450,253,34066,2,0,P|372:284|319:239,1,160,8|0,0:0|0:0,0:0:0:0:
256,192,34566,5,0,0:0:0:0:
192,240,34732,2,0,P|139:283|60:252,2,160,0|0|8,0:0|0:0|0:0,0:0:0:0:
256,92,35732,1,0,0:0:0:0:
256,92,36066,2,0,P|203:49|124:80,1,160
68,229,36732,6,0,B|109:234|109:234|129:247|137:267,1,80,8|0,0:0|0:0,0:0:0:0:
184,196,37066,2,0,P|208:232|232:344,1,160,0|4,0:0|0:0,0:0:0:0:
392,352,37732,1,0,0:0:0:0:
472,212,38066,1,8,0:0:0:0:
380,80,38399,1,0,0:0:0:0:
224,108,38732,1,0,0:0:0:0:
212,268,39066,1,0,0:0:0:0:
368,308,39399,6,0,L|352:228,1,80,8|0,0:0|0:0,0:0:0:0:
308,164,39732,2,0,B|232:184|232:184|191:171|149:203,1,160
112,376,40399,2,0,B|188:356|188:356|229:369|271:337,1,160,0|8,0:0|0:0,0:0:0:0:
308,164,41065,1,0,0:0:0:0:
176,76,41399,1,4,0:0:0:0:
44,164,41732,1,8,3:0:0:0:
176,76,42065,1,8,0:0:0:0:
396,208,42732,6,0,P|376:268|316:292,1,128,4|0,0:0|0:0,0:0:0:0:
192,268,43399,2,0,P|212:208|268:183,1,128,8|0,0:0|0:0,0:0:0:0:
252,312,44065,1,0,0:0:0:0:
132,356,44399,1,0,0:0:0:0:
84,236,44732,5,8,0:0:0:0:
200,184,45065,1,0,0:0:0:0:
328,164,45399,2,0,B|364:160|364:160|420:168|420:168|456:164,1,128
384,56,46065,2,0,B|348:52|348:52|292:60|292:60|257:56,1,128,8|0,0:0|0:0,0:0:0:0:
128,64,46732,2,0,B|124:100|124:100|132:156|132:156|128:191,2,128,0|0|8,0:0|0:0|0:0,0:0:0:0:
16,128,47732,1,0,0:0:0:0:
52,252,48065,6,0,P|100:316|152:328,1,128,4|0,0:0|0:0,0:0:0:0:
193,210,48732,1,8,0:0:0:0:
320,210,49065,1,0,0:0:0:0:
368,328,49399,2,0,P|412:316|460:252,2,128,4|0|8,0:0|0:0|0:0,0:0:0:0:
256,268,50399,1,0,0:0:0:0:
192,156,50732,6,0,L|320:156,2,128,4|0|8,0:0|0:0|0:0,0:0:0:0:
64,156,51732,1,4,0:0:0:0:
64,156,52399,1,0,0:0:0:0:
168,80,52732,2,0,L|300:80,1,128,8|0,0:0|0:0,0:0:0:0:
256,192,53399,12,4,56065,0:0:0:0:
256,372,56399,6,0,L|256:292,1,80
188,248,56732,2,0,P|252:212|324:248,1,160,8|0,0:0|0:0,0:0:0:0:
372,312,57232,1,0,0:0:0:0:
436,264,57399,2,0,P|416:184|424:104,2,160,0|0|8,0:0|0:0|0:0,0:0:0:0:
256,212,58399,1,0,0:0:0:0:
76,264,58732,6,0,P|96:184|88:107,2,160,0|0|8,0:0|0:0|0:0,0:0:0:0:
220,336,59732,1,0,0:0:0:0:
320,208,60065,1,0,0:0:0:0:
180,128,60399,1,0,0:0:0:0:
336,88,60732,2,0,L|496:88,2,160,8|0|0,0:0|0:0|0:0,0:0:0:0:
180,128,61732,6,0,P|100:252|204:360,2,320
264,264,63399,2,0,P|196:280|189:208,2,160,8|0|0,0:0|0:0|0:0,0:0:0:0:
348,128,64399,1,0,0:0:0:0:
452,252,64732,1,8,0:0:0:0:
348,128,65065,1,0,0:0:0:0:
164,128,65399,5,0,0:0:0:0:
196,284,65732,2,0,P|256:324|324:280,2,160,0|8|0,0:0|0:0|0:0,0:0:0:0:
256,136,66732,1,4,0:0:0:0:
100,168,67065,6,0,P|104:116|124:92,1,80
192,56,67399,2,0,B|272:60|272:60|304:68|336:108,1,160,8|0,0:0|0:0,0:0:0:0:
380,172,67899,1,0,0:0:0:0:
344,244,68065,2,0,B|312:282|280:290|280:290|200:294,1,160,0|0,0:0|0:0,0:0:0:0:
344,244,68732,2,0,B|375:282|407:290|407:290|487:294,2,160,8|0|0,0:0|0:0|0:0,0:0:0:0:
256,108,69732,5,0,0:0:0:0:
100,72,70065,1,8,0:0:0:0:
256,108,70399,1,0,0:0:0:0:
132,208,70732,1,0,0:0:0:0:
256,108,71065,1,0,0:0:0:0:
256,108,71399,2,0,L|416:108,1,160,8|0,0:0|0:0,0:0:0:0:
468,260,72065,1,4,0:0:0:0:
336,348,72399,6,0,B|280:316|180:352|180:352|108:376|24:348,2,320
256,212,74065,1,8,0:0:0:0:
124,120,74399,6,0,L|84:192,1,80
144,244,74732,2,0,L|220:100,1,160,4|0,0:0|0:0,0:0:0:0:
368,244,75399,2,0,L|293:102,2,160,8|0|0,0:0|0:0|0:0,0:0:0:0:
256,360,76399,1,0,0:0:0:0:
256,360,76732,1,8,0:0:0:0:
256,360,77065,1,0,0:0:0:0:
181,218,77399,6,0,P|256:243|330:218,2,160,4|0|8,0:0|0:0|0:0,0:0:0:0:
181,57,78399,2,0,P|258:32|338:63,2,160,4|0|8,0:0|0:0|3:0,0:0:0:0:
256,192,79399,1,4,3:0:0:0:
256,192,80066,12,0,85232,0:0:0:0:
