osu file format v12

[General]
AudioFilename: sandoval.mp3
AudioLeadIn: 0
PreviewTime: 56400
Countdown: 0
SampleSet: Soft
StackLeniency: 0.7
Mode: 0
LetterboxInBreaks: 0

[Editor]
DistanceSpacing: 1
BeatDivisor: 4
GridSize: 4

[Metadata]
Title:A Quien Tu Decidiste Amar
TitleUnicode:A Quien Tu Decidiste Amar
Artist:Sandoval
ArtistUnicode:Sandoval
Creator:Gero
Version:Normal
Source:
Tags:XinCrin eLtigreXXx DakeDekaane Taiko
BeatmapID:198462
BeatmapSetID:66063

[Difficulty]
HPDrainRate:4
CircleSize:3
OverallDifficulty:4
ApproachRate:4
SliderMultiplier:0.9
SliderTickRate:2

[Events]
//Background and Video events
0,0,"BG.jpg",0,0
//Break Periods
//Storyboard Layer 0 (Background)
Sprite,Background,Centre,"BG.jpg",320,240 F,0,0,,0 S,0,0,,0.625
Sprite,Background,Centre,"SB\Blacklove.jpg",320,240 S,0,0,,0.8 F,0,0,8733,0,1 F,0,8733,20066,1 F,0,20066,20733,1,0
Sprite,Background,Centre,"SB\Sad Girl.JPG",320,240 F,0,20733,21400,0,1 M,0,20733,42733,329,242,284,231 S,0,20733,42733,0.827109,0.9454028 F,0,42066,42733,1,0
Sprite,Background,Centre,"SB\Sad.jpg",320,240 F,0,42733,43400,0,1 S,0,42733,55733,1.00019,0.8 F,0,43400,55066,1,0.9775112 F,0,55066,55733,0.9775112,0
Sprite,Background,Centre,"SB\Sad Alone LOve.jpg",320,240 M,0,55733,,320,240 S,0,55733,,0.7998104 F,0,55733,56400,0,1 F,0,56400,84066,1 F,0,84066,85066,1,0
//Storyboard Layer 1 (Fail)
//Storyboard Layer 2 (Pass)
//Storyboard Layer 3 (Foreground)
Sprite,Foreground,Centre,"SB\Light alone.jpg",320,240 L,0,15 F,0,56733,57400,1,0
Sprite,Foreground,Centre,"SB\love.jpg",320,240 L,0,2 F,0,10067,10400,1,0 L,0,7 F,0,11400,12067,1,0.03003001 S,0,11400,12733,1
Sprite,Foreground,Centre,"SB\Flash.png",320,240 F,0,10733,11567,0.2583886,0.006 F,0,32066,32900,0.444929,0 F,0,56066,56733,0.6951659,0
Sprite,Foreground,Centre,"SB\Lyrics.png",320,240 V,0,0,,1.700663,0.9181044 F,0,0,2067,0,1 M,0,0,84733,681,341,-36,344
Sprite,Foreground,Centre,"SB\Beatmap of.png",308,389 F,0,2067,2733,0,1 F,0,2733,4733,1,0.9984985 F,0,4733,5400,0.9984985,0
Sprite,Foreground,Centre,"SB\Storyboard by.png",308,389 F,0,7067,7733,0,1 F,0,7733,8400,1 F,0,8400,9067,1,0
Sprite,Foreground,Centre,"SB\Gero.png",496,412 S,0,4733,,1.218389 F,0,4733,5400,0,1 F,0,5400,6400,1,0.994003 F,0,6400,7067,0.994003,0
Sprite,Foreground,Centre,"SB\Xin.png",496,412 F,0,8400,9067,0,1 F,0,9067,9733,1 F,0,9733,10233,1,0
Sprite,Foreground,Centre,"SB\Lyrics\1.png",320,240 S,0,21066,,0.9090048 F,0,21066,21733,0,1 M,0,21733,,273,385 F,0,21733,24733,1,0.9877346 F,0,24733,25400,0.9877346,0
Sprite,Foreground,Centre,"SB\Lyrics\2.png",320,240 M,0,23066,,422,426 F,0,23066,23733,0,1 F,0,23733,25400,1 F,0,25400,26066,1,0
Sprite,Foreground,Centre,"SB\Lyrics\3.png",320,240 S,0,25400,,0.9090048 F,0,25400,26067,0,1 M,0,26067,,273,385 F,0,26067,29067,1,0.9877346 F,0,29067,29734,0.9877346,0
Sprite,Foreground,Centre,"SB\Lyrics\4.png",320,240 M,0,28066,,422,426 F,0,28066,28733,0,1 F,0,28733,30400,1 F,0,30400,31066,1,0
Sprite,Foreground,Centre,"SB\Lyrics\5.png",320,240 S,0,31733,,0.9090048 F,0,31733,32400,0,1 M,0,32400,,273,385 F,0,32400,35400,1,0.9877346 F,0,35400,36067,0.9877346,0
Sprite,Foreground,Centre,"SB\Lyrics\6.png",320,240 M,0,36066,,422,426 F,0,36066,36733,0,1 F,0,36733,38400,1 F,0,38400,39066,1,0
Sprite,Foreground,Centre,"SB\Lyrics\7.png",320,240 M,0,38733,,308,385 S,0,38733,,0.9090048 F,0,38733,39400,0,1 F,0,39400,41400,1 F,0,41400,42066,1,0 S,0,41400,42066,0.9090048,1.154692
Sprite,Foreground,Centre,"SB\Lyrics\8.png",320,240 M,0,42066,,221,379 S,0,42066,,1 F,0,42066,42733,0,1 F,0,42733,44066,1,0.9970022 F,0,44066,44733,0.9970022,0
Sprite,Foreground,Centre,"SB\Lyrics\9.png",320,240 M,0,44066,,400,431 S,0,44066,,0.8817065 F,0,44066,44733,0,1 F,0,44733,47400,1 F,0,47400,48066,1,0
Sprite,Foreground,Centre,"SB\Lyrics\10.png",320,240 M,0,47400,,221,379 S,0,47400,,1 F,0,47400,48067,0,1 F,0,48067,49400,1,0.9970022 F,0,49400,50067,0.9970022,0
Sprite,Foreground,Centre,"SB\Lyrics\11.png",320,240 M,0,48733,,422,426 F,0,48733,49400,0,1 F,0,49400,51733,1 F,0,51733,52400,1,0.01651651 S,0,51733,52400,1,1.127393
Sprite,Foreground,Centre,"SB\Lyrics\12.png",320,240 M,0,53400,,320,235 F,0,53400,53733,0,1 S,0,53400,56066,0.4267299,2.119242 F,0,53733,55400,1 F,0,55400,56066,1,0
Sprite,Foreground,Centre,"SB\Lyrics\13.png",320,240 M,0,56066,,212,380 F,0,56066,56733,0,1 F,0,56733,58400,1 F,0,58400,59066,1,0
Sprite,Foreground,Centre,"SB\Lyrics\14.png",320,240 M,0,58400,,422,426 F,0,58400,59067,0,1 F,0,59067,60734,1 F,0,60734,61400,1,0
Sprite,Foreground,Centre,"SB\Lyrics\15.png",320,240 M,0,61066,,308,385 S,0,61066,,0.9090048 F,0,61066,61733,0,1 F,0,61733,63733,1 F,0,63733,64399,1,0 S,0,63733,64399,0.9090048,1.154692
Sprite,Foreground,Centre,"SB\Lyrics\16.png",320,240 M,0,63400,,400,431 S,0,63400,,0.8817065 F,0,63400,64067,0,1 F,0,64067,66734,1 F,0,66734,67400,1,0
Sprite,Foreground,Centre,"SB\Lyrics\17.png",320,240 M,0,66400,,212,380 F,0,66400,67067,0,1 F,0,67067,68734,1 F,0,68734,69400,1,0
Sprite,Foreground,Centre,"SB\Lyrics\18.png",320,240 M,0,69066,,400,431 S,0,69066,,0.8817065 F,0,69066,69733,0,1 F,0,69733,72400,1 F,0,72400,73066,1,0
Sprite,Foreground,Centre,"SB\Lyrics\19.png",320,240 M,0,71733,,311,378 S,0,71733,,1 F,0,71733,72400,0,1 F,0,72400,73733,1,0.9970022 F,0,73733,74400,0.9970022,0
Sprite,Foreground,Centre,"SB\Lyrics\20.png",320,240 M,0,73733,,422,426 F,0,73733,74400,0,1 F,0,74400,75400,1 F,0,75400,76067,1,0
Sprite,Foreground,Centre,"SB\Lyrics\21.png",320,240 M,0,75066,,212,380 F,0,75066,75733,0,1 F,0,75733,77400,1 F,0,77400,78066,1,0
Sprite,Foreground,Centre,"SB\Lyrics\22.png",320,240 M,0,77733,,422,426 F,0,77733,78400,0,1 F,0,78400,79400,1 F,0,79400,80066,1,0 S,0,79400,80066,1,1.172891
Sprite,Foreground,Centre,"SB\Lyrics\23.png",320,240 M,0,80066,,320,235 F,0,80066,80399,0,1 S,0,80066,82732,0.4267299,2.119242 F,0,80399,82066,1 F,0,82066,82732,1,0
Sprite,Foreground,Centre,"SB\Flash.png",320,240 F,0,83400,84733,0,1 F,0,84733,85733,1,0
//Storyboard Sound Samples
//Background Colour Transformations
3,100,163,162,255

[TimingPoints]
8066,666.666666666667,4,1,1,30,1,0
8066,-50,4,1,1,30,0,0
10732,-50,4,2,1,30,0,0
21066,-50,4,1,1,30,0,0
42732,-50,4,2,1,30,0,0
56066,-50,4,1,1,30,0,1
66399,-50,4,1,1,30,0,0
66732,-50,4,1,1,30,0,1
80066,-50,4,2,1,30,0,0
80232,-50,4,2,1,15,0,0

[Colours]
Combo1 : 255,166,210
Combo2 : 255,128,128
Combo3 : 102,179,255
SliderBorder : 255,255,255

[HitObjects]
272,336,10066,2,0,L|340:274,1,90,8|0,0:0|0:0,0:0:0:0:
404,216,10732,2,0,P|396:130|316:95,1,180,4|8,0:0|0:0,0:0:0:0:
256,160,11732,1,0,0:0:0:0:
192,96,12065,2,0,P|114:131|106:217,1,180,2|8,0:0|0:0,0:0:0:0:
156,292,13065,1,0,0:0:0:0:
208,364,13399,6,0,P|237:334|245:288,1,90,2|0,0:0|0:0,0:0:0:0:
240,196,14065,2,0,L|328:232,1,90,8|0,0:0|0:0,0:0:0:0:
364,312,14732,2,0,P|416:256|384:164,1,180,2|8,0:0|0:0,0:0:0:0:
348,84,15732,1,0,0:0:0:0:
301,161,16065,6,0,L|235:243,2,90,4|0|8,0:0|0:0|0:0,0:0:0:0:
265,78,17065,1,0,0:0:0:0:
207,147,17399,2,0,B|149:216|149:216|114:254|68:238,1,180,2|8,0:0|0:0,0:0:0:0:
16,163,18399,1,0,0:0:0:0:
83,103,18732,6,0,P|109:60|147:39,1,90,2|0,0:0|0:0,0:0:0:0:
195,111,19399,2,0,B|216:160|256:175|256:175|297:160|316:112,1,180,8|2,0:0|0:0,0:0:0:0:
372,44,20399,2,0,P|405:63|431:106,1,90,0|8,0:0|0:0,0:0:0:0:
316,248,21399,5,4,0:0:0:0:
268,324,21732,2,0,P|223:334|177:324,1,90,0|8,0:0|0:0,0:0:0:0:
104,376,22399,2,0,P|68:301|133:250,1,180
220,228,23399,2,0,L|320:207,1,90,8|0,0:0|0:0,0:0:0:0:
368,136,24066,2,0,B|412:164|404:216|404:216|382:310,1,180,0|8,0:0|0:0,0:0:0:0:
336,376,25066,2,0,B|284:361|285:297|285:297|200:284,1,180
124,256,26066,6,0,P|82:242|53:207,1,90,8|0,0:0|0:0,0:0:0:0:
36,120,26732,1,4,0:0:0:0:
104,64,27066,1,0,0:0:0:0:
172,124,27399,2,0,B|199:188|278:166|310:231,1,180,8|0,0:0|0:0,0:0:0:0:
476,164,28732,6,0,L|384:200,1,90,8|0,0:0|0:0,0:0:0:0:
310,231,29399,1,0,0:0:0:0:
228,196,29732,2,0,P|254:158|298:139,2,90,0|8|0,0:0|0:0|0:0,0:0:0:0:
310,231,30732,2,0,B|291:274|258:287|238:287|238:287|149:287,1,180,0|8,0:0|0:0,0:0:0:0:
72,128,32066,5,4,0:0:0:0:
153,167,32399,2,0,L|233:211,1,90,0|8,0:0|0:0,0:0:0:0:
310,253,33066,2,0,B|381:234|293:135|351:96,1,180
272,52,34066,2,0,P|247:97|247:141,1,90,8|0,0:0|0:0,0:0:0:0:
156,140,34732,2,0,P|165:182|202:213,2,90,0|0|8,0:0|0:0|0:0,0:0:0:0:
68,160,35732,2,0,P|102:242|177:296,1,180
264,284,36732,6,0,P|244:236|215:214,1,90,8|0,0:0|0:0,0:0:0:0:
252,132,37399,2,0,B|309:154|334:209|334:209|396:228,1,180,4|8,0:0|0:0,0:0:0:0:
256,340,38732,1,0,0:0:0:0:
112,232,39399,6,0,P|103:182|116:140,2,90,8|0|0,0:0|0:0|0:0,0:0:0:0:
192,188,40399,2,0,L|285:188,1,90,0|8,0:0|0:0,0:0:0:0:
336,116,41065,2,0,P|380:184|336:264,1,180,0|8,0:0|3:0,0:0:0:0:
268,324,42065,1,8,0:0:0:0:
112,236,42732,6,0,L|71:155,2,90,4|0|8,0:0|0:0|0:0,0:0:0:0:
176,172,43732,2,0,L|217:253,1,90,0|2,0:0|0:0,0:0:0:0:
311,249,44399,2,0,L|402:249,1,90,0|8,0:0|0:0,0:0:0:0:
480,292,45065,6,0,P|489:244|476:201,1,90,0|2,0:0|0:0,0:0:0:0:
440,124,45732,2,0,L|345:124,1,90,0|8,0:0|0:0,0:0:0:0:
316,40,46399,2,0,L|225:40,2,90,0|2|0,0:0|0:0|0:0,0:0:0:0:
350,124,47399,2,0,B|384:204|384:204|410:258|368:296,1,180,8|4,0:0|0:0,0:0:0:0:
316,360,48399,6,0,L|270:275,1,90,0|8,0:0|0:0,0:0:0:0:
232,200,49065,1,0,0:0:0:0:
184,124,49399,1,2,0:0:0:0:
244,56,49732,2,0,L|336:56,1,90,0|8,0:0|0:0,0:0:0:0:
396,120,50399,5,0,0:0:0:0:
400,208,50732,2,0,P|325:258|301:342,1,180,4|8,0:0|0:0,0:0:0:0:
210,340,51732,2,0,P|185:257|110:207,1,180,4|2,0:0|0:0,0:0:0:0:
88,120,52732,1,8,0:0:0:0:
256,184,53399,1,0,0:0:0:0:
320,248,53732,5,2,0:0:0:0:
288,332,54065,2,0,P|374:328|414:252,2,180,8|0|8,0:0|0:0|0:0,0:0:0:0:
296,152,56065,5,4,0:0:0:0:
216,112,56399,1,0,0:0:0:0:
144,56,56732,2,0,B|112:92|132:145|132:145|80:236,1,180,8|0,0:0|0:0,0:0:0:0:
56,300,57732,1,0,0:0:0:0:
56,300,58065,2,0,L|129:356,2,90,8|2|0,0:0|0:0|0:0,0:0:0:0:
119,236,59065,6,0,L|42:176,1,90,0|8,0:0|0:0,0:0:0:0:
64,92,59732,2,0,L|209:204,1,180
272,264,60732,2,0,L|201:335,2,90,8|2|0,0:0|0:0|0:0,0:0:0:0:
300,180,61732,2,0,B|357:200|361:260|361:260|418:319,2,180
272,264,63399,1,8,0:0:0:0:
92,284,64065,5,0,0:0:0:0:
40,208,64399,1,0,0:0:0:0:
103,144,64732,2,0,L|196:144,1,90,8|0,0:0|0:0,0:0:0:0:
246,216,65399,2,0,P|289:138|240:68,1,180,0|8,0:0|0:0,0:0:0:0:
68,28,66732,5,4,0:0:0:0:
120,100,67066,1,0,0:0:0:0:
200,144,67399,2,0,L|200:340,1,180,8|0,0:0|0:0,0:0:0:0:
292,324,68399,2,0,P|281:279|297:235,1,90,0|8,0:0|0:0,0:0:0:0:
352,168,69065,2,0,P|363:123|347:79,1,90,2|0,0:0|0:0,0:0:0:0:
269,125,69732,6,0,L|193:72,2,90,0|8|0,0:0|0:0|0:0,0:0:0:0:
352,168,70732,1,0,0:0:0:0:
277,217,71065,2,0,L|201:270,2,90,0|8|2,0:0|0:0|0:0,0:0:0:0:
352,168,72065,2,0,P|403:99|359:27,1,180,4|8,0:0|0:0,0:0:0:0:
248,169,73399,2,0,P|197:100|241:28,1,180,0|8,0:0|0:0,0:0:0:0:
296,99,74399,6,0,L|350:171,1,90,0|4,0:0|0:0,0:0:0:0:
404,243,75065,1,0,0:0:0:0:
340,306,75399,2,0,B|292:344|256:312|216:276|170:310,1,180,8|0,0:0|0:0,0:0:0:0:
81,285,76399,2,0,P|37:277|5:247,2,90,0|8|0,0:0|0:0|0:0,0:0:0:0:
144,220,77399,1,4,0:0:0:0:
220,176,77732,6,0,P|236:224|220:267,2,90,0|8|4,0:0|0:0|0:0,0:0:0:0:
176,96,78732,1,0,0:0:0:0:
100,144,79066,1,8,0:0:0:0:
16,108,79399,2,0,P|24:196|100:236,1,180,8|4,0:0|0:0,0:0:0:0:
256,192,80232,12,0,85232,0:0:0:0:
