osu file format v12

[General]
AudioFilename: sandoval.mp3
AudioLeadIn: 0
PreviewTime: 56400
Countdown: 0
SampleSet: Normal
StackLeniency: 0.7
Mode: 0
LetterboxInBreaks: 0

[Editor]
DistanceSpacing: 1.1
BeatDivisor: 4
GridSize: 4

[Metadata]
Title:A Quien Tu Decidiste Amar
TitleUnicode:A Quien Tu Decidiste Amar
Artist:Sandoval
ArtistUnicode:Sandoval
Creator:Gero
Version:Easy
Source:
Tags:XinCrin eLtigreXXx DakeDekaane Taiko
BeatmapID:215766
BeatmapSetID:66063

[Difficulty]
HPDrainRate:2
CircleSize:3
OverallDifficulty:2
ApproachRate:3
SliderMultiplier:0.8
SliderTickRate:2

[Events]
//Background and Video events
0,0,"BG.jpg",0,0
//Break Periods
//Storyboard Layer 0 (Background)
Sprite,Background,Centre,"BG.jpg",320,240 F,0,0,,0 S,0,0,,0.625
Sprite,Background,Centre,"SB\Blacklove.jpg",320,240 S,0,0,,0.8 F,0,0,8733,0,1 F,0,8733,20066,1 F,0,20066,20733,1,0
Sprite,Background,Centre,"SB\Sad Girl.JPG",320,240 F,0,20733,21400,0,1 M,0,20733,42733,329,242,284,231 S,0,20733,42733,0.827109,0.9454028 F,0,42066,42733,1,0
Sprite,Background,Centre,"SB\Sad.jpg",320,240 F,0,42733,43400,0,1 S,0,42733,55733,1.00019,0.8 F,0,43400,55066,1,0.9775112 F,0,55066,55733,0.9775112,0
Sprite,Background,Centre,"SB\Sad Alone LOve.jpg",320,240 M,0,55733,,320,240 S,0,55733,,0.7998104 F,0,55733,56400,0,1 F,0,56400,84066,1 F,0,84066,85066,1,0
//Storyboard Layer 1 (Fail)
//Storyboard Layer 2 (Pass)
//Storyboard Layer 3 (Foreground)
Sprite,Foreground,Centre,"SB\Light alone.jpg",320,240 L,0,15 F,0,56733,57400,1,0
Sprite,Foreground,Centre,"SB\love.jpg",320,240 L,0,2 F,0,10067,10400,1,0 L,0,7 F,0,11400,12067,1,0.03003001 S,0,11400,12733,1
Sprite,Foreground,Centre,"SB\Flash.png",320,240 F,0,10733,11567,0.2583886,0.006 F,0,32066,32900,0.444929,0 F,0,56066,56733,0.6951659,0
Sprite,Foreground,Centre,"SB\Lyrics.png",320,240 V,0,0,,1.700663,0.9181044 F,0,0,2067,0,1 M,0,0,84733,681,341,-36,344
Sprite,Foreground,Centre,"SB\Beatmap of.png",308,389 F,0,2067,2733,0,1 F,0,2733,4733,1,0.9984985 F,0,4733,5400,0.9984985,0
Sprite,Foreground,Centre,"SB\Storyboard by.png",308,389 F,0,7067,7733,0,1 F,0,7733,8400,1 F,0,8400,9067,1,0
Sprite,Foreground,Centre,"SB\Gero.png",496,412 S,0,4733,,1.218389 F,0,4733,5400,0,1 F,0,5400,6400,1,0.994003 F,0,6400,7067,0.994003,0
Sprite,Foreground,Centre,"SB\Xin.png",496,412 F,0,8400,9067,0,1 F,0,9067,9733,1 F,0,9733,10233,1,0
Sprite,Foreground,Centre,"SB\Lyrics\1.png",320,240 S,0,21066,,0.9090048 F,0,21066,21733,0,1 M,0,21733,,273,385 F,0,21733,24733,1,0.9877346 F,0,24733,25400,0.9877346,0
Sprite,Foreground,Centre,"SB\Lyrics\2.png",320,240 M,0,23066,,422,426 F,0,23066,23733,0,1 F,0,23733,25400,1 F,0,25400,26066,1,0
Sprite,Foreground,Centre,"SB\Lyrics\3.png",320,240 S,0,25400,,0.9090048 F,0,25400,26067,0,1 M,0,26067,,273,385 F,0,26067,29067,1,0.9877346 F,0,29067,29734,0.9877346,0
Sprite,Foreground,Centre,"SB\Lyrics\4.png",320,240 M,0,28066,,422,426 F,0,28066,28733,0,1 F,0,28733,30400,1 F,0,30400,31066,1,0
Sprite,Foreground,Centre,"SB\Lyrics\5.png",320,240 S,0,31733,,0.9090048 F,0,31733,32400,0,1 M,0,32400,,273,385 F,0,32400,35400,1,0.9877346 F,0,35400,36067,0.9877346,0
Sprite,Foreground,Centre,"SB\Lyrics\6.png",320,240 M,0,36066,,422,426 F,0,36066,36733,0,1 F,0,36733,38400,1 F,0,38400,39066,1,0
Sprite,Foreground,Centre,"SB\Lyrics\7.png",320,240 M,0,38733,,308,385 S,0,38733,,0.9090048 F,0,38733,39400,0,1 F,0,39400,41400,1 F,0,41400,42066,1,0 S,0,41400,42066,0.9090048,1.154692
Sprite,Foreground,Centre,"SB\Lyrics\8.png",320,240 M,0,42066,,221,379 S,0,42066,,1 F,0,42066,42733,0,1 F,0,42733,44066,1,0.9970022 F,0,44066,44733,0.9970022,0
Sprite,Foreground,Centre,"SB\Lyrics\9.png",320,240 M,0,44066,,400,431 S,0,44066,,0.8817065 F,0,44066,44733,0,1 F,0,44733,47400,1 F,0,47400,48066,1,0
Sprite,Foreground,Centre,"SB\Lyrics\10.png",320,240 M,0,47400,,221,379 S,0,47400,,1 F,0,47400,48067,0,1 F,0,48067,49400,1,0.9970022 F,0,49400,50067,0.9970022,0
Sprite,Foreground,Centre,"SB\Lyrics\11.png",320,240 M,0,48733,,422,426 F,0,48733,49400,0,1 F,0,49400,51733,1 F,0,51733,52400,1,0.01651651 S,0,51733,52400,1,1.127393
Sprite,Foreground,Centre,"SB\Lyrics\12.png",320,240 M,0,53400,,320,235 F,0,53400,53733,0,1 S,0,53400,56066,0.4267299,2.119242 F,0,53733,55400,1 F,0,55400,56066,1,0
Sprite,Foreground,Centre,"SB\Lyrics\13.png",320,240 M,0,56066,,212,380 F,0,56066,56733,0,1 F,0,56733,58400,1 F,0,58400,59066,1,0
Sprite,Foreground,Centre,"SB\Lyrics\14.png",320,240 M,0,58400,,422,426 F,0,58400,59067,0,1 F,0,59067,60734,1 F,0,60734,61400,1,0
Sprite,Foreground,Centre,"SB\Lyrics\15.png",320,240 M,0,61066,,308,385 S,0,61066,,0.9090048 F,0,61066,61733,0,1 F,0,61733,63733,1 F,0,63733,64399,1,0 S,0,63733,64399,0.9090048,1.154692
Sprite,Foreground,Centre,"SB\Lyrics\16.png",320,240 M,0,63400,,400,431 S,0,63400,,0.8817065 F,0,63400,64067,0,1 F,0,64067,66734,1 F,0,66734,67400,1,0
Sprite,Foreground,Centre,"SB\Lyrics\17.png",320,240 M,0,66400,,212,380 F,0,66400,67067,0,1 F,0,67067,68734,1 F,0,68734,69400,1,0
Sprite,Foreground,Centre,"SB\Lyrics\18.png",320,240 M,0,69066,,400,431 S,0,69066,,0.8817065 F,0,69066,69733,0,1 F,0,69733,72400,1 F,0,72400,73066,1,0
Sprite,Foreground,Centre,"SB\Lyrics\19.png",320,240 M,0,71733,,311,378 S,0,71733,,1 F,0,71733,72400,0,1 F,0,72400,73733,1,0.9970022 F,0,73733,74400,0.9970022,0
Sprite,Foreground,Centre,"SB\Lyrics\20.png",320,240 M,0,73733,,422,426 F,0,73733,74400,0,1 F,0,74400,75400,1 F,0,75400,76067,1,0
Sprite,Foreground,Centre,"SB\Lyrics\21.png",320,240 M,0,75066,,212,380 F,0,75066,75733,0,1 F,0,75733,77400,1 F,0,77400,78066,1,0
Sprite,Foreground,Centre,"SB\Lyrics\22.png",320,240 M,0,77733,,422,426 F,0,77733,78400,0,1 F,0,78400,79400,1 F,0,79400,80066,1,0 S,0,79400,80066,1,1.172891
Sprite,Foreground,Centre,"SB\Lyrics\23.png",320,240 M,0,80066,,320,235 F,0,80066,80399,0,1 S,0,80066,82732,0.4267299,2.119242 F,0,80399,82066,1 F,0,82066,82732,1,0
Sprite,Foreground,Centre,"SB\Flash.png",320,240 F,0,83400,84733,0,1 F,0,84733,85733,1,0
//Storyboard Sound Samples
//Background Colour Transformations
3,100,163,162,255

[TimingPoints]
8066,666.666666666667,4,1,1,30,1,0
8066,-50,4,1,1,30,0,0
10732,-50,4,2,1,30,0,0
21066,-50,4,1,1,30,0,0
42732,-50,4,2,1,30,0,0
56066,-50,4,1,1,30,0,1
66399,-50,4,1,1,30,0,0
66732,-50,4,1,1,30,0,1
80066,-50,4,2,1,30,0,0
80232,-50,4,2,1,15,0,0

[Colours]
Combo1 : 255,166,210
Combo2 : 255,128,128
Combo3 : 102,179,255
SliderBorder : 255,255,255

[HitObjects]
216,192,10066,2,0,L|312:192,1,80,8|0,0:0|0:0,0:0:0:0:
352,260,10732,2,0,P|383:192|339:118,1,160,4|8,0:0|0:0,0:0:0:0:
168,121,12065,2,0,P|130:191|161:259,1,160,2|8,0:0|0:0,0:0:0:0:
324,192,13399,6,0,B|344:240|387:240|387:240|472:240,2,160,2|8|2,0:0|0:0|0:0,0:0:0:0:
256,32,15399,1,8,0:0:0:0:
188,192,16065,2,0,B|168:240|124:240|124:240|49:240,2,160,4|8|2,0:0|0:0|0:0,0:0:0:0:
304,60,18065,2,0,L|362:118,1,80,8|0,0:0|0:0,0:0:0:0:
420,180,18732,6,0,P|428:262|366:299,2,160,2|8|2,0:0|0:0|0:0,0:0:0:0:
243,180,20732,1,8,0:0:0:0:
160,335,21399,5,4,0:0:0:0:
335,335,22066,2,0,B|411:335|411:335|479:282,1,160,8|0,0:0|0:0,0:0:0:0:
500,200,23066,1,0,0:0:0:0:
481,113,23399,2,0,B|414:61|414:61|338:61,1,160,8|0,0:0|0:0,0:0:0:0:
252,80,24399,2,0,L|206:157,1,80,0|8,0:0|0:0,0:0:0:0:
160,220,25066,2,0,P|148:296|220:328,1,160
300,329,26066,6,0,P|364:295|352:219,2,160,8|4|8,0:0|0:0|0:0,0:0:0:0:
256,160,28066,1,0,0:0:0:0:
120,48,28732,6,0,L|24:189,1,160,8|0,0:0|0:0,0:0:0:0:
92,242,29732,2,0,L|143:167,1,80,0|8,0:0|0:0,0:0:0:0:
196,112,30399,2,0,P|254:159|313:115,1,160
375,52,31399,2,0,L|421:118,1,80,8|0,0:0|0:0,0:0:0:0:
472,188,32066,5,4,0:0:0:0:
336,304,32732,2,0,B|291:312|258:297|258:297|218:314|176:303,1,160,8|0,0:0|0:0,0:0:0:0:
179,123,34066,2,0,B|217:112|257:129|257:129|290:114|335:122,2,160,8|0|8,0:0|0:0|0:0,0:0:0:0:
94,99,35732,2,0,B|78:148|112:184|112:184|73:257,1,160
156,287,36732,6,0,L|197:216,1,80,8|0,0:0|0:0,0:0:0:0:
248,148,37399,1,4,0:0:0:0:
298,220,37732,2,0,L|338:289,1,80,0|8,0:0|0:0,0:0:0:0:
367,372,38399,2,0,P|423:322|411:243,1,160
372,164,39399,6,0,P|316:112|332:32,2,160,8|0|8,0:0|0:0|0:0,0:0:0:0:
404,84,41065,2,0,L|239:139,1,160,0|8,0:0|3:0,0:0:0:0:
168,164,42065,1,8,0:0:0:0:
176,340,42732,6,0,B|254:320|254:320|336:341,1,160,4|8,0:0|0:0,0:0:0:0:
408,184,44065,2,0,P|338:149|346:75,1,160,2|8,0:0|0:0,0:0:0:0:
168,76,45399,2,0,P|174:148|104:183,1,160,2|8,0:0|0:0,0:0:0:0:
256,272,46732,2,0,B|324:272|324:272|376:272|418:253,1,160,2|8,0:0|0:0,0:0:0:0:
413,78,48065,6,0,B|375:60|323:60|323:60|255:60,1,160,4|8,0:0|0:0,0:0:0:0:
179,103,49065,2,0,P|167:65|182:18,2,80,0|2|0,0:0|0:0|0:0,0:0:0:0:
220,180,50065,2,0,P|232:218|217:265,1,80,8|0,0:0|0:0,0:0:0:0:
299,298,50732,6,0,P|319:223|300:144,1,160,4|8,0:0|0:0,0:0:0:0:
362,82,51732,2,0,P|396:152|404:232,1,160,4|2,0:0|0:0,0:0:0:0:
392,320,52732,1,8,0:0:0:0:
296,172,53399,1,0,0:0:0:0:
284,84,53732,5,2,0:0:0:0:
204,120,54065,2,0,L|68:220,1,160,8|0,0:0|0:0,0:0:0:0:
195,347,55399,2,0,L|323:252,1,160,8|4,0:0|0:0,0:0:0:0:
400,204,56399,6,0,L|400:112,1,80,0|8,0:0|0:0,0:0:0:0:
337,61,57065,2,0,P|298:53|256:61,1,80
170,59,57732,2,0,P|131:51|89:59,1,80,0|8,0:0|0:0,0:0:0:0:
40,128,58399,2,0,P|40:207|99:258,1,160,2|0,0:0|0:0,0:0:0:0:
185,257,59399,5,8,0:0:0:0:
260,212,59732,2,0,P|272:249|262:293,2,80
233,127,60732,2,0,P|221:90|231:46,1,80,8|2,0:0|0:0,0:0:0:0:
396,112,61732,6,0,B|419:189|419:189|400:271,2,160
356,36,63399,1,8,0:0:0:0:
198,113,64065,6,0,B|157:113|122:139|122:139|122:176|151:211,1,160,0|8,0:0|0:0,0:0:0:0:
311,284,65399,2,0,B|351:284|386:258|386:258|386:221|357:185,1,160,0|8,0:0|0:0,0:0:0:0:
256,40,66732,5,4,0:0:0:0:
104,128,67399,2,0,L|143:50,1,80,8|0,0:0|0:0,0:0:0:0:
201,118,68065,2,0,P|253:168|306:118,1,160,0|8,0:0|0:0,0:0:0:0:
368,55,69065,2,0,L|403:126,1,80,2|0,0:0|0:0,0:0:0:0:
403,214,69732,6,0,L|368:285,1,80,0|8,0:0|0:0,0:0:0:0:
296,340,70399,2,0,L|212:340,1,80
141,292,71065,1,0,0:0:0:0:
104,212,71399,2,0,L|74:128,1,80,8|2,0:0|0:0,0:0:0:0:
156,96,72065,6,0,B|236:96|236:96|258:57|306:47,1,160,4|8,0:0|0:0,0:0:0:0:
440,152,73399,2,0,B|360:152|360:152|338:191|298:199,1,160,0|8,0:0|0:0,0:0:0:0:
180,328,74732,6,0,B|100:328|100:328|45:269,1,160,4|8,0:0|0:0,0:0:0:0:
45,93,76065,2,0,B|99:34|99:34|179:34,1,160,0|8,0:0|0:0,0:0:0:0:
256,192,77399,1,4,0:0:0:0:
420,128,78065,6,0,P|452:197|421:276,1,160,8|0,0:0|0:0,0:0:0:0:
344,308,79066,1,8,0:0:0:0:
262,275,79399,2,0,P|234:199|266:130,1,160,8|4,0:0|0:0,0:0:0:0:
256,192,80232,12,0,85232,0:0:0:0:
