osu file format v12

[General]
AudioFilename: sandoval.mp3
AudioLeadIn: 0
PreviewTime: 56400
Countdown: 0
SampleSet: Normal
StackLeniency: 0.7
Mode: 1
LetterboxInBreaks: 0

[Editor]
DistanceSpacing: 0.1
BeatDivisor: 4
GridSize: 8

[Metadata]
Title:A Quien Tu Decidiste Amar
TitleUnicode:A Quien Tu Decidiste Amar
Artist:Sandoval
ArtistUnicode:Sandoval
Creator:Gero
Version:Dekaane's Muzukashii
Source:
Tags:XinCrin eLtigreXXx DakeDekaane Taiko
BeatmapID:225149
BeatmapSetID:66063

[Difficulty]
HPDrainRate:5
CircleSize:2
OverallDifficulty:5
ApproachRate:5
SliderMultiplier:1.6
SliderTickRate:1

[Events]
//Background and Video events
0,0,"BG.jpg",0,0
//Break Periods
//Storyboard Layer 0 (Background)
//Storyboard Layer 1 (Fail)
//Storyboard Layer 2 (Pass)
//Storyboard Layer 3 (Foreground)
//Storyboard Sound Samples
//Background Colour Transformations
3,100,163,162,255

[TimingPoints]
8066,666.666666666667,4,1,0,50,1,0
8066,-100,4,1,0,50,0,0
56066,-100,4,1,0,50,0,1
80066,-100,4,1,0,50,0,0

[Colours]
Combo1 : 102,179,255
Combo2 : 255,128,128

[HitObjects]
256,192,10066,1,0,0:0:0:0:
256,192,10399,1,0,0:0:0:0:
256,192,10732,1,4,0:0:0:0:
256,192,11399,5,2,0:0:0:0:
256,192,11732,1,2,0:0:0:0:
256,192,12065,5,0,0:0:0:0:
256,192,12399,1,0,0:0:0:0:
256,192,12732,5,2,0:0:0:0:
256,192,13065,1,2,0:0:0:0:
256,192,13399,5,4,0:0:0:0:
256,192,14065,5,2,0:0:0:0:
256,192,14399,1,2,0:0:0:0:
256,192,14732,5,0,0:0:0:0:
256,192,15065,1,0,0:0:0:0:
256,192,15399,5,2,0:0:0:0:
256,192,15732,1,2,0:0:0:0:
256,192,16065,5,4,0:0:0:0:
256,192,16732,5,2,0:0:0:0:
256,192,17065,1,2,0:0:0:0:
256,192,17399,5,0,0:0:0:0:
256,192,17732,1,0,0:0:0:0:
256,192,18065,5,2,0:0:0:0:
256,192,18399,1,2,0:0:0:0:
256,192,18732,5,4,0:0:0:0:
256,192,19399,5,2,0:0:0:0:
256,192,19732,1,2,0:0:0:0:
256,192,20066,5,0,0:0:0:0:
256,192,20399,1,0,0:0:0:0:
256,192,20732,5,2,0:0:0:0:
256,192,21066,1,2,0:0:0:0:
256,192,21399,5,4,0:0:0:0:
256,192,22066,5,2,0:0:0:0:
256,192,22399,5,0,0:0:0:0:
256,192,22732,1,0,0:0:0:0:
256,192,23399,5,2,0:0:0:0:
256,192,23732,1,2,0:0:0:0:
256,192,24066,5,0,0:0:0:0:
256,192,24399,1,0,0:0:0:0:
256,192,24732,5,2,0:0:0:0:
256,192,25399,5,0,0:0:0:0:
256,192,26066,5,2,0:0:0:0:
256,192,26399,1,2,0:0:0:0:
256,192,26732,5,4,0:0:0:0:
256,192,27399,5,2,0:0:0:0:
256,192,28066,5,0,0:0:0:0:
256,192,28399,1,0,0:0:0:0:
256,192,28732,5,2,0:0:0:0:
256,192,29399,5,4,0:0:0:0:
256,192,30066,5,2,0:0:0:0:
256,192,30732,5,0,0:0:0:0:
256,192,31066,1,0,0:0:0:0:
256,192,31399,5,2,0:0:0:0:
256,192,31732,1,2,0:0:0:0:
256,192,32066,5,4,0:0:0:0:
256,192,32732,5,2,0:0:0:0:
256,192,33066,5,0,0:0:0:0:
256,192,33399,1,0,0:0:0:0:
256,192,34066,5,2,0:0:0:0:
256,192,34399,5,0,0:0:0:0:
256,192,34732,1,0,0:0:0:0:
256,192,35399,5,2,0:0:0:0:
256,192,35732,5,0,0:0:0:0:
256,192,36066,5,2,0:0:0:0:
256,192,36399,5,0,0:0:0:0:
256,192,36732,5,2,0:0:0:0:
256,192,37399,5,4,0:0:0:0:
256,192,38066,5,2,0:0:0:0:
256,192,38399,5,0,0:0:0:0:
256,192,38732,1,0,0:0:0:0:
256,192,39399,5,2,0:0:0:0:
256,192,39732,5,0,0:0:0:0:
256,192,40065,5,2,0:0:0:0:
256,192,40399,5,0,0:0:0:0:
256,192,40732,5,2,0:0:0:0:
256,192,41399,5,0,0:0:0:0:
256,192,41732,1,0,0:0:0:0:
256,192,42065,1,4,0:0:0:0:
256,192,42732,5,6,0:0:0:0:
256,192,43399,5,0,0:0:0:0:
256,192,43732,1,0,0:0:0:0:
256,192,44065,5,2,0:0:0:0:
256,192,44732,5,0,0:0:0:0:
256,192,45065,1,0,0:0:0:0:
256,192,45399,5,2,0:0:0:0:
256,192,45732,5,0,0:0:0:0:
256,192,46065,5,2,0:0:0:0:
256,192,46399,5,0,0:0:0:0:
256,192,46732,5,2,0:0:0:0:
256,192,47399,5,0,0:0:0:0:
256,192,48065,5,2,0:0:0:0:
256,192,48399,5,0,0:0:0:0:
256,192,48732,1,0,0:0:0:0:
256,192,49065,1,0,0:0:0:0:
256,192,49399,5,2,0:0:0:0:
256,192,49732,5,0,0:0:0:0:
256,192,50065,5,2,0:0:0:0:
256,192,50399,5,0,0:0:0:0:
256,192,50732,5,2,0:0:0:0:
256,192,51399,5,0,0:0:0:0:
256,192,51732,5,2,0:0:0:0:
256,192,52399,1,2,0:0:0:0:
256,192,52732,5,0,0:0:0:0:
256,192,53065,1,0,0:0:0:0:
256,192,53399,1,0,0:0:0:0:
256,192,53732,1,0,0:0:0:0:
256,192,54065,5,2,0:0:0:0:
256,192,54399,5,0,0:0:0:0:
256,192,54732,5,2,0:0:0:0:
256,192,55065,5,0,0:0:0:0:
256,192,55399,5,2,0:0:0:0:
256,192,56065,5,4,0:0:0:0:
256,192,56399,1,0,0:0:0:0:
256,192,56732,5,2,0:0:0:0:
256,192,57065,5,0,0:0:0:0:
256,192,57399,1,0,0:0:0:0:
256,192,57732,1,0,0:0:0:0:
256,192,58065,5,2,0:0:0:0:
256,192,58399,1,2,0:0:0:0:
256,192,58732,5,4,0:0:0:0:
256,192,59399,1,0,0:0:0:0:
256,192,59732,1,0,0:0:0:0:
256,192,60065,5,2,0:0:0:0:
256,192,60399,5,0,0:0:0:0:
256,192,60732,5,2,0:0:0:0:
256,192,61065,1,2,0:0:0:0:
256,192,61399,5,4,0:0:0:0:
256,192,62065,5,2,0:0:0:0:
256,192,62399,5,0,0:0:0:0:
256,192,62732,1,0,0:0:0:0:
256,192,63065,1,0,0:0:0:0:
256,192,63399,5,2,0:0:0:0:
256,192,63732,5,0,0:0:0:0:
256,192,64065,1,4,0:0:0:0:
256,192,64732,1,0,0:0:0:0:
256,192,65399,1,0,0:0:0:0:
256,192,65732,1,0,0:0:0:0:
256,192,66065,5,2,0:0:0:0:
256,192,66399,1,2,0:0:0:0:
256,192,66732,5,4,0:0:0:0:
256,192,67399,5,0,0:0:0:0:
256,192,67732,1,0,0:0:0:0:
256,192,68065,5,2,0:0:0:0:
256,192,68399,5,0,0:0:0:0:
256,192,68732,5,2,0:0:0:0:
256,192,69065,1,2,0:0:0:0:
256,192,69399,5,4,0:0:0:0:
256,192,70065,1,0,0:0:0:0:
256,192,70399,1,0,0:0:0:0:
256,192,70732,5,2,0:0:0:0:
256,192,71065,5,0,0:0:0:0:
256,192,71399,5,2,0:0:0:0:
256,192,71732,1,2,0:0:0:0:
256,192,72065,5,4,0:0:0:0:
256,192,72732,5,2,0:0:0:0:
256,192,73065,5,0,0:0:0:0:
256,192,73399,1,0,0:0:0:0:
256,192,73732,1,0,0:0:0:0:
256,192,74065,5,2,0:0:0:0:
256,192,74399,5,0,0:0:0:0:
256,192,74732,1,4,0:0:0:0:
256,192,75399,5,2,0:0:0:0:
256,192,76065,5,0,0:0:0:0:
256,192,76399,5,0,0:0:0:0:
256,192,76732,5,2,0:0:0:0:
256,192,77065,1,2,0:0:0:0:
256,192,77399,1,4,0:0:0:0:
256,192,78065,1,0,0:0:0:0:
256,192,78399,1,4,0:0:0:0:
256,192,79066,5,2,0:0:0:0:
256,192,79399,1,6,0:0:0:0:
256,192,80066,5,4,0:0:0:0:
256,192,80399,1,0,0:0:0:0:
256,192,80732,12,0,85232,0:0:0:0:
