osu file format v13

[General]
AudioFilename: Terekakushi Shishunki.mp3
AudioLeadIn: 0
PreviewTime: 61069
Countdown: 0
SampleSet: Soft
StackLeniency: 0.6
Mode: 3
LetterboxInBreaks: 0
SpecialStyle: 0
WidescreenStoryboard: 1

[Editor]
DistanceSpacing: 0.9
BeatDivisor: 3
GridSize: 32
TimelineZoom: 2.1

[Metadata]
Title:Terekakushi Shishunki
TitleUnicode:テレカクシ思春期
Artist:Sana
ArtistUnicode:鎖那
Creator:Rumia-
Version:Normal
Source:
Tags:HoneyWorks nico_nico_douga shito hidden shy puberty [shi-ra] cover
BeatmapID:320812
BeatmapSetID:125877

[Difficulty]
HPDrainRate:7
CircleSize:7
OverallDifficulty:7
ApproachRate:5
SliderMultiplier:1.4
SliderTickRate:1

[Events]
//Background and Video events
0,0,"sanabg1.jpg",0,0
//Break Periods
//Storyboard Layer 0 (Background)
//Storyboard Layer 1 (Fail)
//Storyboard Layer 2 (Pass)
//Storyboard Layer 3 (Foreground)
//Storyboard Sound Samples

[TimingPoints]
390,352.941176470588,4,2,1,45,1,0
52625,352.941176470588,3,2,1,45,1,0
61095,352.941176470588,4,2,1,45,1,0
61095,-100,4,2,1,50,0,1
72389,-100,4,2,1,45,0,0
120389,352.941176470588,3,2,1,45,1,0
128860,352.941176470588,4,2,1,45,1,0
128860,-100,4,2,1,50,0,1
142977,-100,4,2,1,45,0,0
171212,-100,4,2,1,50,0,1
188154,-100,4,2,1,45,0,0

[HitObjects]
36,192,1742,5,0,0:0:0:0:
475,192,1742,1,0,0:0:0:0:
256,192,2331,1,0,0:0:0:0:
402,192,2684,1,0,0:0:0:0:
109,192,3213,1,0,0:0:0:0:
402,192,3742,1,0,0:0:0:0:
256,192,4095,1,0,0:0:0:0:
36,192,4625,1,0,0:0:0:0:
329,192,5154,1,0,0:0:0:0:
182,192,5507,1,0,0:0:0:0:
475,192,6037,1,0,0:0:0:0:
402,192,6566,1,0,0:0:0:0:
109,192,6919,1,0,0:0:0:0:
256,192,7272,1,0,0:0:0:0:
36,192,7448,1,0,0:0:0:0:
475,192,7448,1,0,0:0:0:0:
182,192,7978,1,0,0:0:0:0:
329,192,8331,1,0,0:0:0:0:
475,192,8684,1,0,0:0:0:0:
182,192,8860,1,0,0:0:0:0:
329,192,9389,1,0,0:0:0:0:
109,192,9742,1,0,0:0:0:0:
475,192,10095,1,0,0:0:0:0:
475,192,10272,1,0,0:0:0:0:
329,192,10801,1,0,0:0:0:0:
109,192,11154,1,0,0:0:0:0:
475,192,11507,1,0,0:0:0:0:
182,192,11684,1,0,0:0:0:0:
36,192,11684,1,0,0:0:0:0:
329,192,12389,1,0,0:0:0:0:
475,192,12389,1,0,0:0:0:0:
182,192,12919,1,0,0:0:0:0:
256,192,13007,1,0,0:0:0:0:
329,192,13095,1,0,0:0:0:0:
329,192,13625,1,0,0:0:0:0:
109,192,13978,1,0,0:0:0:0:
256,192,14331,1,0,0:0:0:0:
475,192,14507,1,0,0:0:0:0:
329,192,14507,1,0,0:0:0:0:
402,192,15037,1,0,0:0:0:0:
109,192,15389,1,0,0:0:0:0:
256,192,15742,1,0,0:0:0:0:
36,192,16272,1,0,0:0:0:0:
402,192,16537,1,0,0:0:0:0:
475,192,16625,1,0,0:0:0:0:
256,192,16801,1,0,0:0:0:0:
36,192,16978,1,0,0:0:0:0:
182,192,17331,1,0,0:0:0:0:
36,192,17684,1,0,0:0:0:0:
329,192,17860,1,0,0:0:0:0:
402,192,17948,1,0,0:0:0:0:
475,192,18037,1,0,0:0:0:0:
182,192,18213,1,0,0:0:0:0:
329,192,18389,1,0,0:0:0:0:
475,192,18742,1,4,0:0:0:0:
36,192,18742,1,0,0:0:0:0:
256,192,19095,1,0,0:0:0:0:
109,192,19448,1,2,0:0:0:0:
256,192,19625,1,0,0:0:0:0:
402,192,19801,1,0,0:0:0:0:
329,192,20154,1,2,0:0:0:0:
36,192,20154,1,2,0:0:0:0:
475,192,20507,1,0,0:0:0:0:
182,192,20860,1,2,0:0:0:0:
256,192,21037,1,0,0:0:0:0:
329,192,21213,1,0,0:0:0:0:
36,192,21566,1,2,0:0:0:0:
182,192,21566,1,2,0:0:0:0:
329,192,21919,1,0,0:0:0:0:
182,192,22272,1,2,0:0:0:0:
329,192,22448,1,0,0:0:0:0:
475,192,22625,1,0,0:0:0:0:
182,192,22801,1,0,0:0:0:0:
329,192,22978,1,2,0:0:0:0:
182,192,23331,1,0,0:0:0:0:
256,192,23684,1,2,0:0:0:0:
36,192,24037,1,0,0:0:0:0:
182,192,24213,1,0,0:0:0:0:
329,192,24389,1,2,0:0:0:0:
475,192,24389,1,2,0:0:0:0:
256,192,24742,1,0,0:0:0:0:
36,192,25095,1,2,0:0:0:0:
182,192,25448,1,2,0:0:0:0:
475,192,25801,1,2,0:0:0:0:
329,192,25801,1,0,0:0:0:0:
182,192,26154,1,0,0:0:0:0:
329,192,26507,1,2,0:0:0:0:
182,192,26684,1,0,0:0:0:0:
36,192,26684,1,0,0:0:0:0:
402,192,27037,1,0,0:0:0:0:
256,192,27213,1,2,0:0:0:0:
36,192,27213,1,2,0:0:0:0:
402,192,27566,1,0,0:0:0:0:
182,192,27919,1,2,0:0:0:0:
36,192,28272,1,0,0:0:0:0:
329,192,28272,1,0,0:0:0:0:
475,192,28625,1,2,0:0:0:0:
256,192,28625,1,2,0:0:0:0:
402,192,28978,1,2,0:0:0:0:
182,192,28978,1,2,0:0:0:0:
329,192,29331,1,2,0:0:0:0:
109,192,29331,1,2,0:0:0:0:
256,192,29684,1,2,0:0:0:0:
475,192,29684,128,0,30037:0:0:0:0:
36,192,30037,1,4,0:0:0:0:
182,192,30037,1,4,0:0:0:0:
329,192,30389,1,8,0:0:0:0:
182,192,30742,1,0,0:0:0:0:
329,192,30919,1,0,0:0:0:0:
182,192,31095,1,8,0:0:0:0:
475,192,31448,1,0,0:0:0:0:
109,192,31801,1,0,0:0:0:0:
329,192,32154,1,0,0:0:0:0:
182,192,32331,1,0,0:0:0:0:
402,192,32507,1,8,0:0:0:0:
109,192,32860,1,0,0:0:0:0:
256,192,33213,1,8,0:0:0:0:
182,192,33566,1,0,0:0:0:0:
36,192,33742,1,0,0:0:0:0:
329,192,33919,1,8,0:0:0:0:
402,192,34272,1,0,0:0:0:0:
256,192,34625,1,8,0:0:0:0:
36,192,34625,1,0,0:0:0:0:
182,192,34978,1,8,0:0:0:0:
256,192,35066,1,2,0:0:0:0:
329,192,35154,1,2,0:0:0:0:
475,192,35331,1,8,0:0:0:0:
109,192,35331,1,0,0:0:0:0:
256,192,35684,128,4,37095:0:0:0:0:
36,192,35684,1,0,0:0:0:0:
475,192,35684,1,0,0:0:0:0:
329,192,36037,1,8,0:0:0:0:
182,192,36389,1,2,0:0:0:0:
36,192,36566,1,0,0:0:0:0:
402,192,36742,1,8,0:0:0:0:
475,192,37095,128,0,38507:0:0:0:0:
109,192,37095,1,0,0:0:0:0:
36,192,37448,1,8,0:0:0:0:
329,192,37801,1,2,0:0:0:0:
109,192,37978,1,0,0:0:0:0:
402,192,38154,1,8,0:0:0:0:
182,192,38507,1,0,0:0:0:0:
329,192,38684,1,0,0:0:0:0:
475,192,38860,1,8,0:0:0:0:
36,192,39213,1,0,0:0:0:0:
182,192,39389,1,2,0:0:0:0:
329,192,39566,1,8,0:0:0:0:
109,192,39742,1,2,0:0:0:0:
256,192,39919,1,0,0:0:0:0:
329,192,40272,1,8,0:0:0:0:
109,192,40537,1,8,0:0:0:0:
182,192,40625,1,0,0:0:0:0:
402,192,40713,1,8,0:0:0:0:
329,192,40801,1,0,0:0:0:0:
182,192,40978,1,8,0:0:0:0:
109,192,41331,1,4,0:0:0:0:
475,192,41331,128,0,42742:0:0:0:0:
182,192,41684,1,8,0:0:0:0:
402,192,42037,1,0,0:0:0:0:
256,192,42213,1,0,0:0:0:0:
109,192,42389,1,8,0:0:0:0:
402,192,42742,1,0,0:0:0:0:
109,192,43095,1,8,0:0:0:0:
256,192,43095,1,0,0:0:0:0:
402,192,43272,1,0,0:0:0:0:
475,192,43448,1,0,0:0:0:0:
182,192,43801,1,8,0:0:0:0:
329,192,43801,1,8,0:0:0:0:
36,192,44154,1,0,0:0:0:0:
475,192,44154,1,0,0:0:0:0:
402,192,44507,1,8,0:0:0:0:
109,192,44507,1,0,0:0:0:0:
329,192,44860,1,0,0:0:0:0:
182,192,44860,1,0,0:0:0:0:
109,192,45213,1,8,0:0:0:0:
402,192,45213,1,8,0:0:0:0:
36,192,45566,1,8,0:0:0:0:
475,192,45566,1,8,0:0:0:0:
182,192,45919,1,8,0:0:0:0:
256,192,46272,1,8,0:0:0:0:
109,192,46625,1,4,0:0:0:0:
402,192,46625,1,4,0:0:0:0:
36,192,46978,128,4,48389:0:0:0:0:
256,192,46978,1,4,0:0:0:0:
182,192,47331,1,8,0:0:0:0:
329,192,47684,1,0,0:0:0:0:
256,192,48037,1,8,0:0:0:0:
475,192,48389,128,0,49801:0:0:0:0:
329,192,48389,1,0,0:0:0:0:
182,192,48742,1,8,0:0:0:0:
256,192,49095,1,0,0:0:0:0:
109,192,49448,1,8,0:0:0:0:
182,192,49801,1,0,0:0:0:0:
109,192,50154,1,0,0:0:0:0:
329,192,50154,1,8,0:0:0:0:
256,192,50507,1,0,0:0:0:0:
402,192,50860,1,8,0:0:0:0:
182,192,50860,1,0,0:0:0:0:
109,192,51213,1,0,0:0:0:0:
329,192,51213,1,0,0:0:0:0:
36,192,51566,1,8,0:0:0:0:
182,192,51654,1,8,0:0:0:0:
329,192,51742,1,8,0:0:0:0:
475,192,51831,1,0,0:0:0:0:
256,192,51919,1,0,0:0:0:0:
36,192,52154,1,0,0:0:0:0:
329,192,52389,1,8,0:0:0:0:
109,192,52625,1,8,0:0:0:0:
256,192,52977,1,0,0:0:0:0:
402,192,53330,1,8,0:0:0:0:
109,192,53683,1,0,0:0:0:0:
329,192,54036,1,8,0:0:0:0:
475,192,54389,1,8,0:0:0:0:
329,192,54742,1,8,0:0:0:0:
182,192,55095,1,8,0:0:0:0:
329,192,55448,1,8,0:0:0:0:
182,192,55801,1,8,0:0:0:0:
36,192,56154,1,0,0:0:0:0:
182,192,56330,1,0,0:0:0:0:
329,192,56507,1,8,0:0:0:0:
36,192,56860,1,4,0:0:0:0:
475,192,56860,1,4,0:0:0:0:
182,192,57213,1,0,0:0:0:0:
329,192,57566,1,0,0:0:0:0:
256,192,57919,1,8,0:0:0:0:
402,192,57919,1,8,0:0:0:0:
329,192,58625,1,0,0:0:0:0:
182,192,58977,1,4,0:0:0:0:
36,192,58977,1,4,0:0:0:0:
182,192,59330,1,0,0:0:0:0:
36,192,59330,1,0,0:0:0:0:
475,192,59683,1,0,0:0:0:0:
329,192,59683,1,0,0:0:0:0:
109,192,59860,1,8,0:0:0:0:
402,192,60036,1,8,0:0:0:0:
109,192,60213,1,8,0:0:0:0:
402,192,60389,1,8,0:0:0:0:
109,192,60566,1,8,0:0:0:0:
402,192,60742,1,8,0:0:0:0:
109,192,60919,1,8,0:0:0:0:
329,192,61095,1,4,0:0:0:0:
36,192,61095,1,0,0:0:0:0:
182,192,61271,1,2,0:0:0:0:
475,192,61447,1,8,0:0:0:0:
182,192,61800,1,0,0:0:0:0:
329,192,61977,1,2,0:0:0:0:
36,192,62153,1,8,0:0:0:0:
256,192,62330,1,0,0:0:0:0:
402,192,62506,1,0,0:0:0:0:
109,192,62683,1,2,0:0:0:0:
256,192,62859,1,8,0:0:0:0:
36,192,63036,1,0,0:0:0:0:
182,192,63389,1,0,0:0:0:0:
329,192,63565,1,8,0:0:0:0:
182,192,63918,1,0,0:0:0:0:
329,192,64095,1,8,0:0:0:0:
475,192,64271,1,8,0:0:0:0:
256,192,64447,1,8,0:0:0:0:
109,192,64800,1,8,0:0:0:0:
256,192,64977,1,8,0:0:0:0:
475,192,65153,1,8,0:0:0:0:
329,192,65330,1,8,0:0:0:0:
36,192,65506,128,0,65859:0:0:0:0:
182,192,65859,128,0,66212:0:0:0:0:
329,192,66212,1,8,0:0:0:0:
109,192,66389,1,4,0:0:0:0:
475,192,66389,1,0,0:0:0:0:
36,192,66742,1,4,0:0:0:0:
402,192,66742,1,4,0:0:0:0:
256,192,66918,1,2,0:0:0:0:
109,192,67095,1,8,0:0:0:0:
329,192,67624,1,2,0:0:0:0:
182,192,67800,1,8,0:0:0:0:
402,192,68153,1,0,0:0:0:0:
256,192,68330,1,0,0:0:0:0:
109,192,68506,1,8,0:0:0:0:
182,192,68683,1,0,0:0:0:0:
475,192,69036,1,0,0:0:0:0:
36,192,69212,1,8,0:0:0:0:
402,192,69389,1,8,0:0:0:0:
256,192,69565,1,8,0:0:0:0:
402,192,69918,1,8,0:0:0:0:
109,192,70095,1,8,0:0:0:0:
109,192,70359,128,0,70624:0:0:0:0:
329,192,70447,1,0,0:0:0:0:
36,192,70624,1,8,0:0:0:0:
182,192,70800,1,2,0:0:0:0:
329,192,70977,1,8,0:0:0:0:
475,192,71153,1,2,0:0:0:0:
256,192,71330,1,8,0:0:0:0:
402,192,71506,1,2,0:0:0:0:
256,192,71683,1,8,0:0:0:0:
109,192,71859,1,2,0:0:0:0:
256,192,72036,1,8,0:0:0:0:
402,192,72212,1,2,0:0:0:0:
36,192,72389,1,4,0:0:0:0:
475,192,72389,128,0,73800:0:0:0:0:
182,192,73800,1,0,0:0:0:0:
329,192,74153,1,0,0:0:0:0:
182,192,74506,1,0,0:0:0:0:
329,192,74859,1,0,0:0:0:0:
475,192,75212,1,4,0:0:0:0:
36,192,75212,1,0,0:0:0:0:
109,192,75565,1,8,0:0:0:0:
402,192,75565,1,8,0:0:0:0:
36,192,76094,1,0,0:0:0:0:
475,192,76271,1,8,0:0:0:0:
329,192,76447,1,8,0:0:0:0:
256,192,76536,1,8,0:0:0:0:
182,192,76624,1,0,0:0:0:0:
329,192,76977,1,8,0:0:0:0:
475,192,76977,1,0,0:0:0:0:
182,192,77153,1,2,0:0:0:0:
256,192,77506,1,2,0:0:0:0:
402,192,77859,1,8,0:0:0:0:
36,192,78036,1,0,0:0:0:0:
256,192,78389,1,8,0:0:0:0:
109,192,78565,1,0,0:0:0:0:
182,192,78918,1,0,0:0:0:0:
329,192,79271,1,8,0:0:0:0:
36,192,79447,1,0,0:0:0:0:
182,192,79624,1,0,0:0:0:0:
109,192,79800,1,8,0:0:0:0:
256,192,79977,1,0,0:0:0:0:
182,192,80153,1,0,0:0:0:0:
329,192,80330,1,0,0:0:0:0:
256,192,80506,1,8,0:0:0:0:
402,192,80683,1,0,0:0:0:0:
329,192,80859,1,0,0:0:0:0:
475,192,80859,1,4,0:0:0:0:
256,192,81212,1,8,0:0:0:0:
402,192,81212,1,8,0:0:0:0:
109,192,81389,1,2,0:0:0:0:
109,192,81742,1,2,0:0:0:0:
475,192,81918,1,8,0:0:0:0:
329,192,81918,1,8,0:0:0:0:
256,192,82094,1,8,0:0:0:0:
109,192,82271,1,0,0:0:0:0:
475,192,82624,1,8,0:0:0:0:
329,192,82800,1,0,0:0:0:0:
182,192,83153,1,0,0:0:0:0:
256,192,83506,1,0,0:0:0:0:
402,192,83683,1,0,0:0:0:0:
109,192,83859,1,8,0:0:0:0:
109,192,84036,1,8,0:0:0:0:
402,192,84300,1,0,0:0:0:0:
256,192,84389,1,8,0:0:0:0:
402,192,84565,1,0,0:0:0:0:
182,192,84742,1,8,0:0:0:0:
329,192,84918,1,8,0:0:0:0:
475,192,85094,1,0,0:0:0:0:
36,192,85271,1,0,0:0:0:0:
329,192,85447,1,8,0:0:0:0:
182,192,85624,1,8,0:0:0:0:
36,192,85800,1,8,0:0:0:0:
402,192,85977,1,8,0:0:0:0:
109,192,86153,1,8,0:0:0:0:
402,192,86330,1,8,0:0:0:0:
475,192,86506,1,4,0:0:0:0:
36,192,86506,1,0,0:0:0:0:
182,192,86859,1,8,0:0:0:0:
329,192,87036,1,0,0:0:0:0:
475,192,87212,1,2,0:0:0:0:
256,192,87389,1,0,0:0:0:0:
402,192,87565,1,8,0:0:0:0:
182,192,87742,1,2,0:0:0:0:
36,192,87918,128,0,89330:0:0:0:0:
256,192,88271,1,8,0:0:0:0:
182,192,88624,1,2,0:0:0:0:
329,192,88800,1,0,0:0:0:0:
475,192,88977,1,0,0:0:0:0:
402,192,89330,128,0,90742:0:0:0:0:
256,192,89683,1,8,0:0:0:0:
329,192,90036,1,2,0:0:0:0:
256,192,90212,1,0,0:0:0:0:
182,192,90389,1,0,0:0:0:0:
475,192,90742,128,0,92153:0:0:0:0:
36,192,90742,1,0,0:0:0:0:
256,192,91094,1,8,0:0:0:0:
329,192,91447,1,0,0:0:0:0:
182,192,91624,1,0,0:0:0:0:
182,192,91800,1,8,0:0:0:0:
256,192,92153,128,4,93565:0:0:0:0:
36,192,92153,1,0,0:0:0:0:
329,192,92506,1,8,0:0:0:0:
109,192,92683,1,0,0:0:0:0:
402,192,93036,1,0,0:0:0:0:
182,192,93212,1,8,0:0:0:0:
475,192,93565,128,0,94977:0:0:0:0:
402,192,93565,1,0,0:0:0:0:
256,192,93830,1,0,0:0:0:0:
109,192,93918,1,8,0:0:0:0:
256,192,94094,1,0,0:0:0:0:
256,192,94447,1,0,0:0:0:0:
109,192,94624,1,0,0:0:0:0:
329,192,94977,1,0,0:0:0:0:
329,192,95153,1,0,0:0:0:0:
182,192,95330,1,8,0:0:0:0:
36,192,95506,1,2,0:0:0:0:
329,192,95859,1,2,0:0:0:0:
475,192,96036,1,8,0:0:0:0:
36,192,96389,1,0,0:0:0:0:
182,192,96389,1,0,0:0:0:0:
109,192,96742,1,8,0:0:0:0:
256,192,96742,1,8,0:0:0:0:
475,192,97094,1,0,0:0:0:0:
329,192,97271,1,0,0:0:0:0:
182,192,97447,1,8,0:0:0:0:
329,192,97624,1,2,0:0:0:0:
475,192,97800,1,4,0:0:0:0:
36,192,97800,1,0,0:0:0:0:
182,192,97977,1,2,0:0:0:0:
329,192,98153,1,8,0:0:0:0:
402,192,98153,1,8,0:0:0:0:
36,192,98506,1,2,0:0:0:0:
182,192,98683,1,2,0:0:0:0:
329,192,98859,1,8,0:0:0:0:
402,192,98859,1,8,0:0:0:0:
36,192,99212,128,0,100624:0:0:0:0:
182,192,99212,1,0,0:0:0:0:
329,192,99389,1,0,0:0:0:0:
475,192,99565,1,8,0:0:0:0:
256,192,99742,1,0,0:0:0:0:
109,192,99918,1,2,0:0:0:0:
475,192,100094,1,0,0:0:0:0:
329,192,100271,1,8,0:0:0:0:
475,192,100624,1,0,0:0:0:0:
475,192,100889,1,0,0:0:0:0:
329,192,100977,1,8,0:0:0:0:
109,192,100977,1,0,0:0:0:0:
475,192,101153,1,0,0:0:0:0:
109,192,101683,1,8,0:0:0:0:
36,192,101683,1,0,0:0:0:0:
256,192,102036,1,0,0:0:0:0:
109,192,102212,1,0,0:0:0:0:
402,192,102389,1,8,0:0:0:0:
475,192,102389,1,8,0:0:0:0:
329,192,102742,1,0,0:0:0:0:
256,192,102830,1,0,0:0:0:0:
182,192,102918,1,0,0:0:0:0:
402,192,103094,1,8,0:0:0:0:
475,192,103094,1,8,0:0:0:0:
256,192,103447,1,4,0:0:0:0:
36,192,103447,1,0,0:0:0:0:
182,192,103800,1,8,0:0:0:0:
402,192,103800,1,0,0:0:0:0:
329,192,104153,1,2,0:0:0:0:
182,192,104506,1,8,0:0:0:0:
36,192,104506,1,0,0:0:0:0:
475,192,104859,128,0,106271:0:0:0:0:
329,192,104859,1,0,0:0:0:0:
402,192,105212,1,8,0:0:0:0:
256,192,105389,1,0,0:0:0:0:
109,192,105565,1,2,0:0:0:0:
256,192,105742,1,0,0:0:0:0:
402,192,105918,1,8,0:0:0:0:
329,192,106271,1,0,0:0:0:0:
329,192,106624,1,8,0:0:0:0:
109,192,106800,1,0,0:0:0:0:
402,192,106977,1,2,0:0:0:0:
402,192,107330,1,8,0:0:0:0:
36,192,107683,1,0,0:0:0:0:
256,192,107683,1,0,0:0:0:0:
109,192,108036,1,8,0:0:0:0:
329,192,108036,1,8,0:0:0:0:
182,192,108389,1,2,0:0:0:0:
402,192,108389,1,0,0:0:0:0:
256,192,108742,1,8,0:0:0:0:
475,192,108742,1,0,0:0:0:0:
402,192,109094,1,4,0:0:0:0:
109,192,109094,1,0,0:0:0:0:
182,192,109447,1,8,0:0:0:0:
475,192,109447,1,8,0:0:0:0:
329,192,109800,1,2,0:0:0:0:
402,192,110153,1,8,0:0:0:0:
109,192,110153,1,0,0:0:0:0:
256,192,110506,1,2,0:0:0:0:
36,192,110859,1,8,0:0:0:0:
475,192,110859,1,8,0:0:0:0:
182,192,111212,1,2,0:0:0:0:
329,192,111565,1,8,0:0:0:0:
475,192,111565,1,8,0:0:0:0:
36,192,111918,1,0,0:0:0:0:
182,192,111918,1,0,0:0:0:0:
329,192,112271,1,8,0:0:0:0:
475,192,112271,1,0,0:0:0:0:
109,192,112624,1,0,0:0:0:0:
182,192,112624,1,0,0:0:0:0:
402,192,112977,1,0,0:0:0:0:
329,192,112977,1,8,0:0:0:0:
182,192,113330,1,8,0:0:0:0:
475,192,113330,1,0,0:0:0:0:
36,192,113330,128,0,114389:0:0:0:0:
402,192,114036,1,0,0:0:0:0:
256,192,114212,1,0,0:0:0:0:
109,192,114389,1,4,0:0:0:0:
475,192,114389,1,4,0:0:0:0:
256,192,114742,128,8,116153:0:0:0:0:
109,192,115094,1,8,0:0:0:0:
402,192,115094,1,8,0:0:0:0:
182,192,115447,1,2,0:0:0:0:
329,192,115624,1,0,0:0:0:0:
109,192,115800,1,8,0:0:0:0:
402,192,115800,1,8,0:0:0:0:
36,192,116153,1,0,0:0:0:0:
475,192,116153,1,0,0:0:0:0:
182,192,116506,1,8,0:0:0:0:
329,192,116506,1,8,0:0:0:0:
109,192,116859,1,2,0:0:0:0:
402,192,117036,1,0,0:0:0:0:
329,192,117212,1,8,0:0:0:0:
182,192,117212,1,0,0:0:0:0:
36,192,117565,128,0,118977:0:0:0:0:
109,192,118271,128,2,118977:0:0:0:0:
182,192,118977,1,0,0:0:0:0:
475,192,118977,1,0,0:0:0:0:
329,192,119330,1,8,0:0:0:0:
109,192,119683,1,8,0:0:0:0:
475,192,119683,1,8,0:0:0:0:
109,192,119918,1,0,0:0:0:0:
475,192,119918,1,0,0:0:0:0:
109,192,120153,1,0,0:0:0:0:
475,192,120153,1,0,0:0:0:0:
402,192,120389,1,4,0:0:0:0:
36,192,120389,1,0,0:0:0:0:
109,192,120741,1,8,0:0:0:0:
256,192,121094,1,8,0:0:0:0:
402,192,121447,1,2,0:0:0:0:
256,192,121800,1,8,0:0:0:0:
182,192,122153,1,8,0:0:0:0:
36,192,122506,1,0,0:0:0:0:
475,192,122506,1,0,0:0:0:0:
182,192,122859,1,8,0:0:0:0:
329,192,123212,1,8,0:0:0:0:
182,192,123565,1,2,0:0:0:0:
475,192,123918,1,0,0:0:0:0:
329,192,124094,1,0,0:0:0:0:
182,192,124271,1,0,0:0:0:0:
36,192,124624,1,4,0:0:0:0:
475,192,124624,1,4,0:0:0:0:
329,192,124977,1,2,0:0:0:0:
109,192,125330,1,2,0:0:0:0:
402,192,125683,1,0,0:0:0:0:
256,192,126036,1,0,0:0:0:0:
182,192,126389,1,0,0:0:0:0:
109,192,126741,1,8,0:0:0:0:
402,192,126918,1,8,0:0:0:0:
36,192,127094,1,8,0:0:0:0:
475,192,127271,1,8,0:0:0:0:
329,192,127447,1,4,0:0:0:0:
182,192,127447,1,0,0:0:0:0:
109,192,127800,1,8,0:0:0:0:
402,192,127800,1,8,0:0:0:0:
182,192,128153,1,8,0:0:0:0:
329,192,128330,1,8,0:0:0:0:
182,192,128506,1,8,0:0:0:0:
329,192,128683,1,8,0:0:0:0:
36,192,128860,1,4,0:0:0:0:
475,192,128860,1,0,0:0:0:0:
329,192,129036,1,0,0:0:0:0:
109,192,129212,128,8,129565:0:0:0:0:
475,192,129212,1,8,0:0:0:0:
256,192,129389,1,0,0:0:0:0:
182,192,129742,1,0,0:0:0:0:
475,192,129918,1,8,0:0:0:0:
109,192,130095,1,2,0:0:0:0:
402,192,130271,1,0,0:0:0:0:
256,192,130271,128,0,130624:0:0:0:0:
475,192,130624,1,8,0:0:0:0:
109,192,130801,128,0,131330:0:0:0:0:
402,192,130977,1,2,0:0:0:0:
475,192,131330,1,8,0:0:0:0:
182,192,131683,1,0,0:0:0:0:
329,192,131860,1,0,0:0:0:0:
475,192,132036,1,8,0:0:0:0:
256,192,132212,128,0,132742:0:0:0:0:
36,192,132565,1,0,0:0:0:0:
475,192,132742,1,8,0:0:0:0:
109,192,132918,1,8,0:0:0:0:
256,192,133007,1,8,0:0:0:0:
109,192,133095,1,0,0:0:0:0:
402,192,133271,128,0,133624:0:0:0:0:
256,192,133448,1,8,0:0:0:0:
109,192,133624,128,0,133977:0:0:0:0:
256,192,133977,1,8,0:0:0:0:
402,192,134154,1,12,0:0:0:0:
36,192,134154,1,0,0:0:0:0:
182,192,134507,1,4,0:0:0:0:
475,192,134507,1,4,0:0:0:0:
36,192,134683,1,8,0:0:0:0:
256,192,134860,1,8,0:0:0:0:
402,192,135036,128,0,135389:0:0:0:0:
109,192,135389,1,0,0:0:0:0:
256,192,135565,128,8,135918:0:0:0:0:
329,192,135918,1,0,0:0:0:0:
182,192,136095,1,2,0:0:0:0:
36,192,136271,1,8,0:0:0:0:
402,192,136448,128,0,136801:0:0:0:0:
109,192,136801,1,0,0:0:0:0:
182,192,136977,1,8,0:0:0:0:
109,192,137154,1,8,0:0:0:0:
475,192,137330,1,0,0:0:0:0:
256,192,137330,128,0,137683:0:0:0:0:
36,192,137507,1,8,0:0:0:0:
402,192,137683,1,8,0:0:0:0:
36,192,137860,1,8,0:0:0:0:
182,192,138036,1,0,0:0:0:0:
329,192,138212,1,0,0:0:0:0:
402,192,138389,1,8,0:0:0:0:
109,192,138389,1,0,0:0:0:0:
256,192,138565,1,2,0:0:0:0:
36,192,138742,1,0,0:0:0:0:
475,192,138918,1,0,0:0:0:0:
329,192,139095,1,8,0:0:0:0:
36,192,139271,1,8,0:0:0:0:
182,192,139448,1,0,0:0:0:0:
329,192,139624,1,0,0:0:0:0:
475,192,139801,1,8,0:0:0:0:
329,192,139977,1,0,0:0:0:0:
36,192,140154,1,8,0:0:0:0:
475,192,140154,1,8,0:0:0:0:
36,192,140330,1,8,0:0:0:0:
475,192,140330,1,8,0:0:0:0:
109,192,140683,1,8,0:0:0:0:
402,192,140683,1,8,0:0:0:0:
402,192,140860,1,8,0:0:0:0:
109,192,140860,1,0,0:0:0:0:
182,192,141212,1,8,0:0:0:0:
329,192,141212,1,0,0:0:0:0:
329,192,141389,1,8,0:0:0:0:
182,192,141389,1,8,0:0:0:0:
109,192,141742,1,8,0:0:0:0:
402,192,141742,1,8,0:0:0:0:
109,192,141918,1,8,0:0:0:0:
402,192,141918,1,8,0:0:0:0:
329,192,142271,128,0,142624:0:0:0:0:
182,192,142624,128,0,142977:0:0:0:0:
475,192,142977,1,4,0:0:0:0:
256,192,143330,1,0,0:0:0:0:
182,192,143507,1,2,0:0:0:0:
36,192,143860,1,2,0:0:0:0:
256,192,144212,1,2,0:0:0:0:
329,192,144389,1,0,0:0:0:0:
182,192,144742,1,0,0:0:0:0:
256,192,144918,1,2,0:0:0:0:
402,192,145271,1,2,0:0:0:0:
182,192,145624,1,2,0:0:0:0:
329,192,145801,1,0,0:0:0:0:
109,192,146154,1,0,0:0:0:0:
256,192,146330,1,2,0:0:0:0:
402,192,146683,1,2,0:0:0:0:
182,192,147036,1,2,0:0:0:0:
329,192,147212,1,8,0:0:0:0:
182,192,147389,1,8,0:0:0:0:
329,192,147565,1,8,0:0:0:0:
182,192,147742,1,8,0:0:0:0:
475,192,148095,1,4,0:0:0:0:
36,192,148095,1,0,0:0:0:0:
109,192,148624,1,4,0:0:0:0:
475,192,148624,1,0,0:0:0:0:
329,192,148977,1,2,0:0:0:0:
182,192,149154,1,0,0:0:0:0:
36,192,149330,1,8,0:0:0:0:
256,192,149683,1,0,0:0:0:0:
402,192,149860,1,8,0:0:0:0:
256,192,150036,1,8,0:0:0:0:
109,192,150389,1,8,0:0:0:0:
256,192,150565,1,2,0:0:0:0:
402,192,150742,1,8,0:0:0:0:
109,192,150918,1,8,0:0:0:0:
402,192,151095,1,8,0:0:0:0:
109,192,151271,1,8,0:0:0:0:
256,192,151448,1,8,0:0:0:0:
182,192,151801,1,2,0:0:0:0:
329,192,152154,1,0,0:0:0:0:
402,192,152507,1,2,0:0:0:0:
182,192,152683,1,8,0:0:0:0:
402,192,152860,128,0,154271:0:0:0:0:
256,192,153565,1,8,0:0:0:0:
36,192,153918,1,0,0:0:0:0:
109,192,154007,1,0,0:0:0:0:
182,192,154095,1,0,0:0:0:0:
256,192,154183,1,0,0:0:0:0:
329,192,154271,1,4,0:0:0:0:
475,192,154271,1,0,0:0:0:0:
329,192,154801,1,0,0:0:0:0:
256,192,155154,1,8,0:0:0:0:
109,192,155330,1,8,0:0:0:0:
256,192,155507,1,8,0:0:0:0:
109,192,155683,1,0,0:0:0:0:
475,192,155859,1,0,0:0:0:0:
402,192,156036,1,8,0:0:0:0:
329,192,156212,1,2,0:0:0:0:
182,192,156565,1,2,0:0:0:0:
256,192,156742,1,0,0:0:0:0:
329,192,156918,1,0,0:0:0:0:
402,192,157095,1,2,0:0:0:0:
256,192,157624,1,0,0:0:0:0:
329,192,157977,1,2,0:0:0:0:
402,192,158154,1,8,0:0:0:0:
475,192,158330,1,2,0:0:0:0:
36,192,158507,1,8,0:0:0:0:
256,192,158507,1,8,0:0:0:0:
256,192,158683,1,8,0:0:0:0:
36,192,158683,1,0,0:0:0:0:
402,192,159036,1,8,0:0:0:0:
329,192,159124,1,8,0:0:0:0:
256,192,159212,1,8,0:0:0:0:
109,192,159389,1,8,0:0:0:0:
182,192,159477,1,0,0:0:0:0:
256,192,159565,1,8,0:0:0:0:
402,192,159742,1,8,0:0:0:0:
475,192,159918,1,4,0:0:0:0:
36,192,159918,1,0,0:0:0:0:
182,192,160271,1,8,0:0:0:0:
329,192,160448,1,2,0:0:0:0:
402,192,160801,1,2,0:0:0:0:
329,192,161154,1,2,0:0:0:0:
256,192,161507,1,2,0:0:0:0:
182,192,161859,1,2,0:0:0:0:
256,192,162212,1,2,0:0:0:0:
402,192,162389,1,8,0:0:0:0:
36,192,162742,128,8,163095:0:0:0:0:
109,192,163095,128,8,163448:0:0:0:0:
182,192,163448,128,8,163801:0:0:0:0:
256,192,163801,128,8,164154:0:0:0:0:
329,192,164154,1,8,0:0:0:0:
36,192,164154,128,8,165565:0:0:0:0:
256,192,164683,1,0,0:0:0:0:
329,192,164859,1,2,0:0:0:0:
402,192,165036,1,8,0:0:0:0:
182,192,165565,1,2,0:0:0:0:
475,192,165565,1,4,0:0:0:0:
475,192,165918,1,2,0:0:0:0:
475,192,166271,1,2,0:0:0:0:
475,192,166624,1,2,0:0:0:0:
475,192,166977,1,2,0:0:0:0:
182,192,166977,1,2,0:0:0:0:
182,192,167330,1,2,0:0:0:0:
182,192,167683,1,2,0:0:0:0:
329,192,167859,1,0,0:0:0:0:
182,192,168036,1,2,0:0:0:0:
402,192,168389,1,2,0:0:0:0:
109,192,168389,1,0,0:0:0:0:
402,192,168742,1,2,0:0:0:0:
402,192,169095,1,2,0:0:0:0:
402,192,169448,1,2,0:0:0:0:
402,192,169801,1,2,0:0:0:0:
329,192,169977,1,0,0:0:0:0:
256,192,170154,1,0,0:0:0:0:
329,192,170330,1,2,0:0:0:0:
256,192,170683,1,0,0:0:0:0:
256,192,170859,1,2,0:0:0:0:
256,192,171036,1,2,0:0:0:0:
402,192,171212,1,4,0:0:0:0:
109,192,171212,1,0,0:0:0:0:
256,192,171389,1,0,0:0:0:0:
109,192,171565,1,8,0:0:0:0:
109,192,172095,1,0,0:0:0:0:
256,192,172271,1,8,0:0:0:0:
36,192,172448,1,8,0:0:0:0:
182,192,172624,1,0,0:0:0:0:
329,192,172801,1,0,0:0:0:0:
475,192,172977,1,8,0:0:0:0:
329,192,173154,1,0,0:0:0:0:
402,192,173507,1,0,0:0:0:0:
109,192,173683,1,8,0:0:0:0:
256,192,173859,1,0,0:0:0:0:
475,192,174036,1,8,0:0:0:0:
36,192,174036,1,0,0:0:0:0:
36,192,174212,1,8,0:0:0:0:
475,192,174212,1,8,0:0:0:0:
109,192,174389,1,2,0:0:0:0:
402,192,174389,1,2,0:0:0:0:
256,192,174565,128,8,175095:0:0:0:0:
36,192,175095,1,8,0:0:0:0:
475,192,175095,1,8,0:0:0:0:
109,192,175271,1,8,0:0:0:0:
402,192,175448,1,0,0:0:0:0:
256,192,175624,1,8,0:0:0:0:
109,192,175801,1,8,0:0:0:0:
256,192,175977,1,0,0:0:0:0:
109,192,176330,1,0,0:0:0:0:
329,192,176507,1,0,0:0:0:0:
475,192,176507,1,4,0:0:0:0:
475,192,176859,1,4,0:0:0:0:
329,192,176859,1,0,0:0:0:0:
256,192,177212,1,8,0:0:0:0:
475,192,177212,1,8,0:0:0:0:
182,192,177565,1,0,0:0:0:0:
475,192,177565,1,8,0:0:0:0:
475,192,177918,1,8,0:0:0:0:
109,192,177918,1,0,0:0:0:0:
475,192,178271,1,8,0:0:0:0:
36,192,178271,1,0,0:0:0:0:
475,192,178624,1,8,0:0:0:0:
109,192,178624,1,0,0:0:0:0:
182,192,178977,1,0,0:0:0:0:
475,192,178977,1,8,0:0:0:0:
256,192,179330,1,0,0:0:0:0:
475,192,179330,1,8,0:0:0:0:
109,192,179507,1,8,0:0:0:0:
256,192,179595,1,2,0:0:0:0:
402,192,179683,1,8,0:0:0:0:
109,192,180036,1,0,0:0:0:0:
402,192,180036,1,8,0:0:0:0:
109,192,180389,1,0,0:0:0:0:
402,192,180389,1,8,0:0:0:0:
402,192,180742,1,8,0:0:0:0:
109,192,180742,1,0,0:0:0:0:
36,192,181095,128,0,181624:0:0:0:0:
475,192,181095,128,0,181624:0:0:0:0:
109,192,181624,128,0,181977:0:0:0:0:
402,192,181624,128,0,181977:0:0:0:0:
182,192,181977,1,2,0:0:0:0:
329,192,182154,1,8,0:0:0:0:
182,192,182330,1,8,0:0:0:0:
475,192,182507,1,4,0:0:0:0:
402,192,182507,1,0,0:0:0:0:
402,192,182859,1,8,0:0:0:0:
329,192,182859,1,0,0:0:0:0:
256,192,183212,1,8,0:0:0:0:
329,192,183212,1,8,0:0:0:0:
182,192,183565,1,8,0:0:0:0:
256,192,183565,1,8,0:0:0:0:
109,192,183918,1,8,0:0:0:0:
182,192,183918,1,8,0:0:0:0:
182,192,184271,1,8,0:0:0:0:
256,192,184271,1,8,0:0:0:0:
256,192,184624,1,8,0:0:0:0:
329,192,184624,1,8,0:0:0:0:
402,192,184977,1,8,0:0:0:0:
329,192,184977,1,8,0:0:0:0:
182,192,185330,1,0,0:0:0:0:
329,192,185507,1,0,0:0:0:0:
475,192,185683,1,8,0:0:0:0:
256,192,185859,1,0,0:0:0:0:
36,192,186036,1,0,0:0:0:0:
182,192,186212,1,8,0:0:0:0:
329,192,186389,1,8,0:0:0:0:
109,192,186565,1,8,0:0:0:0:
256,192,186742,1,8,0:0:0:0:
402,192,186918,1,8,0:0:0:0:
256,192,187095,1,8,0:0:0:0:
109,192,187271,1,8,0:0:0:0:
329,192,187448,1,8,0:0:0:0:
182,192,187624,1,8,0:0:0:0:
402,192,187801,1,8,0:0:0:0:
256,192,187977,1,8,0:0:0:0:
475,192,188154,128,4,189565:0:0:0:0:
402,192,189212,1,0,0:0:0:0:
329,192,189301,1,0,0:0:0:0:
256,192,189389,1,0,0:0:0:0:
182,192,189477,1,0,0:0:0:0:
109,192,189565,1,0,0:0:0:0:
182,192,189918,1,0,0:0:0:0:
329,192,190271,1,0,0:0:0:0:
475,192,190624,1,0,0:0:0:0:
109,192,190977,1,4,0:0:0:0:
182,192,190977,1,0,0:0:0:0:
329,192,191330,1,8,0:0:0:0:
182,192,191507,1,2,0:0:0:0:
329,192,191859,1,2,0:0:0:0:
475,192,192036,1,0,0:0:0:0:
182,192,192212,1,8,0:0:0:0:
36,192,192301,1,8,0:0:0:0:
182,192,192389,1,0,0:0:0:0:
402,192,192742,1,8,0:0:0:0:
109,192,192918,1,0,0:0:0:0:
109,192,193271,1,0,0:0:0:0:
402,192,193448,1,0,0:0:0:0:
182,192,193624,1,8,0:0:0:0:
329,192,193712,1,8,0:0:0:0:
182,192,193801,1,0,0:0:0:0:
182,192,194154,1,8,0:0:0:0:
36,192,194330,1,0,0:0:0:0:
329,192,194683,1,0,0:0:0:0:
475,192,194859,1,8,0:0:0:0:
182,192,195036,1,8,0:0:0:0:
109,192,195124,1,0,0:0:0:0:
36,192,195212,1,0,0:0:0:0:
329,192,195389,1,0,0:0:0:0:
182,192,195565,1,8,0:0:0:0:
36,192,195742,1,0,0:0:0:0:
256,192,195918,1,0,0:0:0:0:
109,192,196095,1,0,0:0:0:0:
329,192,196271,1,0,0:0:0:0:
182,192,196448,1,0,0:0:0:0:
36,192,196624,1,4,0:0:0:0:
475,192,196624,1,0,0:0:0:0:
182,192,196977,1,8,0:0:0:0:
36,192,197154,128,0,198036:0:0:0:0:
256,192,197507,128,0,198036:0:0:0:0:
182,192,198036,128,0,199448:0:0:0:0:
475,192,198036,1,0,0:0:0:0:
329,192,198389,1,8,0:0:0:0:
475,192,198565,1,0,0:0:0:0:
402,192,198918,1,0,0:0:0:0:
475,192,199271,1,8,0:0:0:0:
329,192,199448,1,0,0:0:0:0:
109,192,199624,1,8,0:0:0:0:
109,192,199801,1,8,0:0:0:0:
256,192,199977,1,0,0:0:0:0:
402,192,200065,1,8,0:0:0:0:
256,192,200154,1,0,0:0:0:0:
109,192,200330,1,0,0:0:0:0:
329,192,200507,1,8,0:0:0:0:
182,192,200683,1,0,0:0:0:0:
402,192,200859,1,0,0:0:0:0:
256,192,201036,1,8,0:0:0:0:
256,192,201212,1,8,0:0:0:0:
182,192,201389,1,0,0:0:0:0:
329,192,201477,1,8,0:0:0:0:
475,192,201565,1,0,0:0:0:0:
329,192,201742,1,8,0:0:0:0:
182,192,201918,1,8,0:0:0:0:
36,192,202095,1,8,0:0:0:0:
182,192,202271,1,4,0:0:0:0:
329,192,202271,128,0,205095:0:0:0:0:
475,192,202271,1,0,0:0:0:0:
