osu file format v13

[General]
AudioFilename: Terekakushi Shishunki.mp3
AudioLeadIn: 0
PreviewTime: 61069
Countdown: 0
SampleSet: Soft
StackLeniency: 0.6
Mode: 3
LetterboxInBreaks: 0
SpecialStyle: 0
WidescreenStoryboard: 1

[Editor]
DistanceSpacing: 0.9
BeatDivisor: 4
GridSize: 32
TimelineZoom: 2.2

[Metadata]
Title:Terekakushi Shishunki
TitleUnicode:テレカクシ思春期
Artist:Sana
ArtistUnicode:鎖那
Creator:Rumia-
Version:Insane
Source:
Tags:HoneyWorks nico_nico_douga shito hidden shy puberty [shi-ra] cover
BeatmapID:320196
BeatmapSetID:125877

[Difficulty]
HPDrainRate:8
CircleSize:7
OverallDifficulty:8
ApproachRate:5
SliderMultiplier:1.4
SliderTickRate:1

[Events]
//Background and Video events
0,0,"sanabg1.jpg",0,0
//Break Periods
//Storyboard Layer 0 (Background)
//Storyboard Layer 1 (Fail)
//Storyboard Layer 2 (Pass)
//Storyboard Layer 3 (Foreground)
//Storyboard Sound Samples

[TimingPoints]
390,352.941176470588,4,2,1,35,1,0
44154,-158.730158730159,4,2,1,35,0,0
44242,-80,4,2,1,35,0,0
44419,-303.030303030303,4,2,1,35,0,0
44507,-158.730158730159,4,2,1,35,0,0
44595,-80,4,2,1,35,0,0
44772,-303.030303030303,4,2,1,35,0,0
44860,-158.730158730159,4,2,1,35,0,0
44948,-80,4,2,1,35,0,0
45125,-303.030303030303,4,2,1,35,0,0
45213,-158.730158730159,4,2,1,35,0,0
45301,-80,4,2,1,35,0,0
45478,-303.030303030303,4,2,1,35,0,0
45566,-100,4,2,1,35,0,0
51919,-400,4,2,1,35,0,0
51978,-90.9090909090909,4,2,1,35,0,0
52154,-400,4,2,1,35,0,0
52213,-90.9090909090909,4,2,1,35,0,0
52389,-400,4,2,1,35,0,0
52448,-90.9090909090909,4,2,1,35,0,0
52625,352.941176470588,3,2,1,35,1,0
52625,-100,4,2,1,35,0,0
60389,-90.9090909090909,4,2,1,35,0,0
61095,352.941176470588,4,2,1,35,1,0
61095,-100,4,2,1,45,0,1
72389,-100,4,2,1,35,0,0
73801,-100,4,2,1,35,0,0
75213,-100,4,2,1,35,0,0
111919,-158.730158730159,4,2,1,35,0,0
112007,-80,4,2,1,35,0,0
112184,-303.030303030303,4,2,1,35,0,0
112272,-158.730158730159,4,2,1,35,0,0
112360,-80,4,2,1,35,0,0
112537,-303.030303030303,4,2,1,35,0,0
112625,-158.730158730159,4,2,1,35,0,0
112713,-80,4,2,1,35,0,0
112889,-303.030303030303,4,2,1,35,0,0
112978,-158.730158730159,4,2,1,35,0,0
113066,-80,4,2,1,35,0,0
113242,-303.030303030303,4,2,1,35,0,0
113330,-100,4,2,1,35,0,0
119684,-333.333333333333,4,2,1,35,0,0
119742,-71.4285714285714,4,2,1,35,0,0
119860,-333.333333333333,4,2,1,35,0,0
119978,-71.4285714285714,4,2,1,35,0,0
120095,-400,4,2,1,35,0,0
120213,-80,4,2,1,35,0,0
120389,352.941176470588,3,2,1,35,1,0
120389,-125,4,2,1,35,0,0
126742,-100,4,2,1,35,0,0
128066,-90.9090909090909,4,2,1,35,0,0
128860,352.941176470588,4,2,1,35,1,0
128860,-100,4,2,1,45,0,1
140154,-158.730158730159,4,2,1,45,0,1
140198,-80,4,2,1,45,0,1
140331,-100,4,2,1,45,0,1
140419,-400,4,2,1,45,0,1
140507,-80,4,2,1,45,0,1
140684,-158.730158730159,4,2,1,45,0,1
140728,-80,4,2,1,45,0,1
140860,-100,4,2,1,45,0,1
140948,-400,4,2,1,45,0,1
141037,-80,4,2,1,45,0,1
141213,-158.730158730159,4,2,1,45,0,1
141257,-80,4,2,1,45,0,1
141389,-100,4,2,1,45,0,1
141478,-400,4,2,1,45,0,1
141566,-80,4,2,1,45,0,1
141742,-158.730158730159,4,2,1,45,0,1
141787,-80,4,2,1,45,0,1
141919,-100,4,2,1,45,0,1
142007,-400,4,2,1,45,0,1
142095,-80,4,2,1,45,0,1
142272,-100,4,2,1,45,0,1
142360,-400,4,2,1,45,0,1
142448,-80,4,2,1,45,0,1
142625,-100,4,2,1,45,0,1
142713,-400,4,2,1,45,0,1
142801,-80,4,2,1,45,0,1
142977,-125,4,2,1,35,0,0
147213,-158.730158730159,4,2,1,35,0,0
147257,-71.4285714285714,4,2,1,35,0,0
147389,-158.730158730159,4,2,1,35,0,0
147434,-71.4285714285714,4,2,1,35,0,0
147566,-158.730158730159,4,2,1,35,0,0
147610,-71.4285714285714,4,2,1,35,0,0
147742,-100,4,2,1,35,0,0
147831,-400,4,2,1,35,0,0
147919,-80,4,2,1,35,0,0
148095,-100,4,2,1,35,0,0
151448,-125,4,2,1,35,0,0
153566,-100,4,2,1,35,0,0
158507,-333.333333333333,4,2,1,35,0,0
158551,-80,4,2,1,35,0,0
158684,-100,4,2,1,35,0,0
160801,-80,4,2,1,35,0,0
161066,-303.030303030303,4,2,1,35,0,0
161154,-80,4,2,1,35,0,0
161419,-303.030303030303,4,2,1,35,0,0
161507,-80,4,2,1,35,0,0
161772,-303.030303030303,4,2,1,35,0,0
161860,-80,4,2,1,35,0,0
162125,-303.030303030303,4,2,1,35,0,0
162213,-80,4,2,1,35,0,0
162301,-303.030303030303,4,2,1,35,0,0
162345,-303.030303030303,4,2,1,35,0,0
162389,-80,4,2,1,35,0,0
162742,-100,4,2,1,35,0,0
165566,-125,4,2,1,35,0,0
170419,-666.666666666667,4,2,1,35,0,0
170507,-125,4,2,1,35,0,0
170684,-666.666666666667,4,2,1,35,0,0
170728,-80,4,2,1,35,0,0
170860,-666.666666666667,4,2,1,35,0,0
170904,-80,4,2,1,35,0,0
171037,-666.666666666667,4,2,1,35,0,0
171081,-80,4,2,1,35,0,0
171212,-100,4,2,1,45,0,1
188154,-100,4,2,1,35,0,0
190978,-100,4,2,1,35,0,0
205095,-100,4,2,1,35,0,0

[HitObjects]
36,192,1742,5,0,0:0:0:0:
475,192,1742,1,0,0:0:0:0:
329,192,1978,1,0,0:0:0:0:
182,192,2154,1,0,0:0:0:0:
402,192,2331,1,0,0:0:0:0:
256,192,2684,1,0,0:0:0:0:
109,192,3037,1,0,0:0:0:0:
256,192,3213,1,0,0:0:0:0:
475,192,3213,1,0,0:0:0:0:
109,192,3389,1,0,0:0:0:0:
329,192,3742,1,0,0:0:0:0:
182,192,4095,1,0,0:0:0:0:
402,192,4448,1,0,0:0:0:0:
256,192,4625,1,0,0:0:0:0:
402,192,4801,1,0,0:0:0:0:
182,192,5154,1,0,0:0:0:0:
329,192,5507,1,0,0:0:0:0:
402,192,5860,1,0,0:0:0:0:
256,192,6037,128,0,6213:0:0:0:0:
36,192,6037,1,0,0:0:0:0:
329,192,6213,128,0,6389:0:0:0:0:
36,192,6213,1,0,0:0:0:0:
36,192,6389,1,0,0:0:0:0:
402,192,6389,128,0,6566:0:0:0:0:
475,192,6566,128,0,6742:0:0:0:0:
36,192,6566,1,0,0:0:0:0:
402,192,6742,128,0,6919:0:0:0:0:
36,192,6742,1,0,0:0:0:0:
329,192,6919,128,0,7095:0:0:0:0:
36,192,6919,1,0,0:0:0:0:
256,192,7095,128,0,7448:0:0:0:0:
36,192,7095,1,0,0:0:0:0:
36,192,7272,1,0,0:0:0:0:
109,192,7448,1,0,0:0:0:0:
475,192,7448,1,0,0:0:0:0:
256,192,7625,1,0,0:0:0:0:
402,192,7801,1,0,0:0:0:0:
329,192,7978,128,0,8331:0:0:0:0:
182,192,8331,128,0,8684:0:0:0:0:
475,192,8331,1,0,0:0:0:0:
402,192,8684,1,0,0:0:0:0:
329,192,8860,1,0,0:0:0:0:
36,192,8860,128,0,9037:0:0:0:0:
109,192,9037,128,0,9213:0:0:0:0:
402,192,9037,1,0,0:0:0:0:
182,192,9213,128,0,9389:0:0:0:0:
329,192,9213,1,0,0:0:0:0:
475,192,9389,128,0,9742:0:0:0:0:
402,192,9389,1,0,0:0:0:0:
256,192,9389,1,0,0:0:0:0:
36,192,9566,1,0,0:0:0:0:
329,192,9742,128,0,10095:0:0:0:0:
109,192,9742,1,0,0:0:0:0:
182,192,10095,1,0,0:0:0:0:
182,192,10272,1,0,0:0:0:0:
475,192,10272,1,0,0:0:0:0:
329,192,10448,1,0,0:0:0:0:
256,192,10625,1,0,0:0:0:0:
475,192,10801,1,0,0:0:0:0:
329,192,11154,1,0,0:0:0:0:
475,192,11331,1,0,0:0:0:0:
109,192,11507,1,0,0:0:0:0:
109,192,11684,1,0,0:0:0:0:
182,192,11860,128,0,12037:0:0:0:0:
256,192,12037,128,0,12213:0:0:0:0:
329,192,12213,128,0,12389:0:0:0:0:
109,192,12389,128,0,12566:0:0:0:0:
182,192,12566,128,0,12742:0:0:0:0:
256,192,12742,128,0,12919:0:0:0:0:
36,192,12742,128,0,13095:0:0:0:0:
329,192,12919,1,0,0:0:0:0:
109,192,12919,128,0,13095:0:0:0:0:
402,192,13007,1,0,0:0:0:0:
329,192,13095,1,0,0:0:0:0:
182,192,13095,128,0,14507:0:0:0:0:
402,192,13272,1,0,0:0:0:0:
329,192,13448,1,0,0:0:0:0:
475,192,13625,128,0,13978:0:0:0:0:
402,192,13625,1,0,0:0:0:0:
329,192,13978,128,0,14331:0:0:0:0:
256,192,13978,1,0,0:0:0:0:
402,192,14331,1,0,0:0:0:0:
36,192,14507,1,0,0:0:0:0:
329,192,14507,1,0,0:0:0:0:
475,192,14507,1,0,0:0:0:0:
402,192,14684,1,0,0:0:0:0:
109,192,14860,128,0,15213:0:0:0:0:
329,192,14860,1,0,0:0:0:0:
475,192,15037,1,0,0:0:0:0:
256,192,15037,128,0,15389:0:0:0:0:
329,192,15389,1,0,0:0:0:0:
402,192,15389,128,0,15742:0:0:0:0:
36,192,15566,1,0,0:0:0:0:
256,192,15742,128,0,18742:0:0:0:0:
182,192,15742,1,0,0:0:0:0:
36,192,16095,128,0,16272:0:0:0:0:
182,192,16272,128,0,16448:0:0:0:0:
475,192,16448,128,0,16625:0:0:0:0:
329,192,16625,128,0,16801:0:0:0:0:
109,192,16801,128,0,16978:0:0:0:0:
182,192,16978,128,0,17154:0:0:0:0:
402,192,17154,128,0,17331:0:0:0:0:
329,192,17331,128,0,17507:0:0:0:0:
109,192,17331,128,0,17507:0:0:0:0:
182,192,17507,128,0,17684:0:0:0:0:
402,192,17507,128,0,17684:0:0:0:0:
36,192,17684,128,0,17860:0:0:0:0:
329,192,17684,128,0,17860:0:0:0:0:
182,192,17860,128,0,18037:0:0:0:0:
475,192,17860,128,0,18037:0:0:0:0:
402,192,18037,128,0,18389:0:0:0:0:
109,192,18037,128,0,18389:0:0:0:0:
329,192,18213,128,0,18389:0:0:0:0:
36,192,18213,128,0,18389:0:0:0:0:
475,192,18389,128,0,18742:0:0:0:0:
36,192,18566,128,0,18742:0:0:0:0:
329,192,18742,1,4,0:0:0:0:
182,192,18742,1,0,0:0:0:0:
256,192,18919,1,0,0:0:0:0:
182,192,19095,1,0,0:0:0:0:
475,192,19095,1,0,0:0:0:0:
329,192,19095,1,0,0:0:0:0:
402,192,19272,1,0,0:0:0:0:
475,192,19448,1,2,0:0:0:0:
182,192,19448,1,0,0:0:0:0:
36,192,19448,128,0,19625:0:0:0:0:
109,192,19625,128,0,19801:0:0:0:0:
329,192,19625,1,0,0:0:0:0:
256,192,19801,128,0,20154:0:0:0:0:
182,192,19801,1,0,0:0:0:0:
475,192,19801,1,0,0:0:0:0:
402,192,19978,1,0,0:0:0:0:
36,192,20154,1,2,0:0:0:0:
182,192,20154,1,2,0:0:0:0:
402,192,20331,1,0,0:0:0:0:
36,192,20507,1,0,0:0:0:0:
182,192,20507,1,0,0:0:0:0:
402,192,20684,1,0,0:0:0:0:
36,192,20860,1,2,0:0:0:0:
182,192,20860,1,2,0:0:0:0:
256,192,20860,1,0,0:0:0:0:
402,192,21037,1,0,0:0:0:0:
329,192,21037,1,0,0:0:0:0:
36,192,21213,1,0,0:0:0:0:
182,192,21213,1,0,0:0:0:0:
475,192,21213,1,0,0:0:0:0:
329,192,21389,1,0,0:0:0:0:
109,192,21389,1,0,0:0:0:0:
36,192,21566,1,2,0:0:0:0:
475,192,21566,1,2,0:0:0:0:
402,192,21742,1,0,0:0:0:0:
256,192,21742,1,0,0:0:0:0:
475,192,21919,1,0,0:0:0:0:
109,192,21919,1,0,0:0:0:0:
329,192,22095,1,0,0:0:0:0:
182,192,22272,128,2,22448:0:0:0:0:
475,192,22272,1,2,0:0:0:0:
109,192,22272,1,0,0:0:0:0:
256,192,22448,128,0,22625:0:0:0:0:
402,192,22448,1,0,0:0:0:0:
329,192,22625,128,0,22801:0:0:0:0:
475,192,22625,1,0,0:0:0:0:
109,192,22625,1,0,0:0:0:0:
182,192,22801,1,0,0:0:0:0:
256,192,22978,128,2,23684:0:0:0:0:
475,192,22978,1,2,0:0:0:0:
36,192,22978,1,0,0:0:0:0:
402,192,23154,1,0,0:0:0:0:
182,192,23331,1,0,0:0:0:0:
475,192,23331,1,0,0:0:0:0:
329,192,23507,1,0,0:0:0:0:
402,192,23684,128,2,23860:0:0:0:0:
475,192,23684,1,2,0:0:0:0:
36,192,23684,1,0,0:0:0:0:
329,192,23860,128,0,24389:0:0:0:0:
36,192,24037,1,0,0:0:0:0:
475,192,24037,1,0,0:0:0:0:
256,192,24213,1,0,0:0:0:0:
182,192,24389,1,2,0:0:0:0:
36,192,24389,1,2,0:0:0:0:
475,192,24389,1,0,0:0:0:0:
109,192,24389,128,0,24919:0:0:0:0:
256,192,24566,1,0,0:0:0:0:
402,192,24742,1,0,0:0:0:0:
182,192,24742,1,0,0:0:0:0:
256,192,24919,128,0,25801:0:0:0:0:
329,192,24919,1,0,0:0:0:0:
402,192,25095,1,2,0:0:0:0:
182,192,25095,1,2,0:0:0:0:
475,192,25272,1,0,0:0:0:0:
109,192,25272,128,0,25801:0:0:0:0:
402,192,25448,1,2,0:0:0:0:
182,192,25448,1,0,0:0:0:0:
329,192,25625,1,0,0:0:0:0:
182,192,25801,128,2,26331:0:0:0:0:
402,192,25801,1,0,0:0:0:0:
36,192,25801,1,0,0:0:0:0:
475,192,25978,1,0,0:0:0:0:
402,192,26154,1,0,0:0:0:0:
36,192,26154,1,0,0:0:0:0:
329,192,26331,128,0,26684:0:0:0:0:
256,192,26331,1,0,0:0:0:0:
109,192,26507,1,2,0:0:0:0:
36,192,26507,1,0,0:0:0:0:
475,192,26684,128,0,27213:0:0:0:0:
256,192,26684,1,0,0:0:0:0:
402,192,26860,1,0,0:0:0:0:
36,192,26860,1,0,0:0:0:0:
329,192,27037,1,0,0:0:0:0:
109,192,27213,128,2,28625:0:0:0:0:
402,192,27213,128,2,28625:0:0:0:0:
256,192,27213,1,0,0:0:0:0:
36,192,27213,1,0,0:0:0:0:
182,192,27389,1,0,0:0:0:0:
256,192,27566,1,0,0:0:0:0:
36,192,27566,1,0,0:0:0:0:
329,192,27742,1,0,0:0:0:0:
256,192,27919,1,2,0:0:0:0:
36,192,27919,1,0,0:0:0:0:
182,192,28095,1,0,0:0:0:0:
256,192,28272,1,0,0:0:0:0:
475,192,28272,1,0,0:0:0:0:
329,192,28448,1,0,0:0:0:0:
256,192,28625,1,2,0:0:0:0:
475,192,28625,1,2,0:0:0:0:
329,192,28801,1,0,0:0:0:0:
475,192,28978,1,2,0:0:0:0:
182,192,28978,1,2,0:0:0:0:
329,192,29154,1,0,0:0:0:0:
402,192,29242,1,0,0:0:0:0:
36,192,29331,128,2,30037:0:0:0:0:
475,192,29331,1,2,0:0:0:0:
329,192,29507,1,0,0:0:0:0:
109,192,29684,128,2,30037:0:0:0:0:
475,192,29684,1,0,0:0:0:0:
182,192,29684,1,0,0:0:0:0:
402,192,29860,1,0,0:0:0:0:
182,192,30037,1,4,0:0:0:0:
329,192,30037,1,4,0:0:0:0:
475,192,30037,1,0,0:0:0:0:
256,192,30213,1,0,0:0:0:0:
402,192,30389,1,8,0:0:0:0:
36,192,30389,1,0,0:0:0:0:
109,192,30389,1,0,0:0:0:0:
182,192,30566,1,0,0:0:0:0:
256,192,30654,1,0,0:0:0:0:
329,192,30742,1,0,0:0:0:0:
475,192,30742,1,0,0:0:0:0:
109,192,30919,1,0,0:0:0:0:
256,192,31095,1,8,0:0:0:0:
36,192,31095,1,0,0:0:0:0:
475,192,31095,1,0,0:0:0:0:
182,192,31095,128,0,31272:0:0:0:0:
109,192,31272,128,2,31448:0:0:0:0:
402,192,31272,1,0,0:0:0:0:
329,192,31360,1,0,0:0:0:0:
402,192,31448,128,0,31625:0:0:0:0:
256,192,31448,1,0,0:0:0:0:
329,192,31625,128,0,31801:0:0:0:0:
36,192,31625,1,0,0:0:0:0:
256,192,31801,128,8,31978:0:0:0:0:
36,192,31801,1,0,0:0:0:0:
475,192,31801,1,0,0:0:0:0:
182,192,31978,128,0,32154:0:0:0:0:
329,192,31978,1,0,0:0:0:0:
402,192,32066,1,0,0:0:0:0:
475,192,32154,1,0,0:0:0:0:
256,192,32154,128,0,32331:0:0:0:0:
36,192,32154,1,0,0:0:0:0:
329,192,32331,128,0,32507:0:0:0:0:
402,192,32331,1,0,0:0:0:0:
475,192,32507,1,8,0:0:0:0:
36,192,32507,1,0,0:0:0:0:
182,192,32507,1,0,0:0:0:0:
182,192,32684,1,2,0:0:0:0:
109,192,32772,1,0,0:0:0:0:
36,192,32860,1,0,0:0:0:0:
475,192,32860,1,0,0:0:0:0:
329,192,33037,1,0,0:0:0:0:
256,192,33213,1,8,0:0:0:0:
402,192,33213,1,0,0:0:0:0:
109,192,33213,1,0,0:0:0:0:
329,192,33389,1,0,0:0:0:0:
182,192,33566,1,0,0:0:0:0:
36,192,33566,1,0,0:0:0:0:
256,192,33742,1,0,0:0:0:0:
329,192,33919,1,8,0:0:0:0:
475,192,33919,1,8,0:0:0:0:
182,192,33919,1,0,0:0:0:0:
36,192,34095,1,2,0:0:0:0:
109,192,34184,1,0,0:0:0:0:
182,192,34272,1,0,0:0:0:0:
402,192,34272,1,0,0:0:0:0:
329,192,34448,1,0,0:0:0:0:
256,192,34625,1,8,0:0:0:0:
109,192,34625,1,0,0:0:0:0:
402,192,34625,1,0,0:0:0:0:
36,192,34801,1,2,0:0:0:0:
475,192,34801,1,0,0:0:0:0:
256,192,34801,1,0,0:0:0:0:
402,192,34889,1,8,0:0:0:0:
109,192,34889,1,0,0:0:0:0:
475,192,34978,1,8,0:0:0:0:
36,192,34978,1,0,0:0:0:0:
256,192,34978,1,0,0:0:0:0:
402,192,35066,1,8,0:0:0:0:
109,192,35066,1,0,0:0:0:0:
475,192,35154,1,8,0:0:0:0:
36,192,35154,1,0,0:0:0:0:
109,192,35331,1,8,0:0:0:0:
402,192,35331,1,0,0:0:0:0:
256,192,35331,1,0,0:0:0:0:
36,192,35507,1,2,0:0:0:0:
182,192,35595,1,0,0:0:0:0:
36,192,35684,1,4,0:0:0:0:
475,192,35684,1,0,0:0:0:0:
402,192,35684,1,0,0:0:0:0:
109,192,35684,1,0,0:0:0:0:
329,192,35684,128,0,36389:0:0:0:0:
182,192,35860,128,0,36389:0:0:0:0:
256,192,35860,1,0,0:0:0:0:
36,192,36037,128,8,36213:0:0:0:0:
402,192,36037,1,8,0:0:0:0:
475,192,36037,1,0,0:0:0:0:
109,192,36213,128,0,36389:0:0:0:0:
475,192,36213,1,0,0:0:0:0:
402,192,36389,1,2,0:0:0:0:
256,192,36389,128,0,36566:0:0:0:0:
182,192,36566,128,0,36742:0:0:0:0:
475,192,36566,1,0,0:0:0:0:
109,192,36742,128,8,37095:0:0:0:0:
402,192,36742,1,0,0:0:0:0:
36,192,36742,1,0,0:0:0:0:
329,192,36742,1,0,0:0:0:0:
256,192,36919,1,2,0:0:0:0:
329,192,37007,1,0,0:0:0:0:
475,192,37095,128,0,37625:0:0:0:0:
402,192,37095,1,0,0:0:0:0:
256,192,37272,1,0,0:0:0:0:
36,192,37448,1,8,0:0:0:0:
402,192,37448,1,8,0:0:0:0:
109,192,37448,1,0,0:0:0:0:
256,192,37625,1,2,0:0:0:0:
182,192,37625,1,0,0:0:0:0:
329,192,37801,128,2,38154:0:0:0:0:
109,192,37801,1,0,0:0:0:0:
182,192,37978,1,0,0:0:0:0:
256,192,38154,128,8,38507:0:0:0:0:
109,192,38154,1,8,0:0:0:0:
182,192,38331,1,2,0:0:0:0:
109,192,38419,1,0,0:0:0:0:
475,192,38507,128,0,39037:0:0:0:0:
36,192,38507,1,0,0:0:0:0:
329,192,38507,1,0,0:0:0:0:
109,192,38684,1,0,0:0:0:0:
182,192,38860,1,8,0:0:0:0:
402,192,38860,1,0,0:0:0:0:
36,192,38860,1,0,0:0:0:0:
256,192,39037,1,2,0:0:0:0:
402,192,39213,128,0,39566:0:0:0:0:
182,192,39213,1,0,0:0:0:0:
329,192,39389,1,2,0:0:0:0:
109,192,39389,1,0,0:0:0:0:
256,192,39566,128,8,39919:0:0:0:0:
36,192,39566,1,8,0:0:0:0:
182,192,39742,1,2,0:0:0:0:
329,192,39831,1,0,0:0:0:0:
109,192,39919,128,0,40272:0:0:0:0:
475,192,39919,1,0,0:0:0:0:
36,192,40095,1,0,0:0:0:0:
402,192,40095,1,0,0:0:0:0:
475,192,40272,1,8,0:0:0:0:
329,192,40272,1,0,0:0:0:0:
182,192,40448,1,0,0:0:0:0:
329,192,40537,1,8,0:0:0:0:
475,192,40537,1,0,0:0:0:0:
182,192,40625,1,0,0:0:0:0:
329,192,40713,1,8,0:0:0:0:
475,192,40713,1,0,0:0:0:0:
182,192,40801,1,0,0:0:0:0:
109,192,40978,1,8,0:0:0:0:
256,192,40978,1,0,0:0:0:0:
402,192,40978,1,0,0:0:0:0:
36,192,41154,1,2,0:0:0:0:
182,192,41331,1,4,0:0:0:0:
475,192,41331,128,0,41684:0:0:0:0:
109,192,41331,1,0,0:0:0:0:
256,192,41331,1,0,0:0:0:0:
329,192,41507,128,0,41684:0:0:0:0:
36,192,41507,1,0,0:0:0:0:
402,192,41684,128,8,42037:0:0:0:0:
36,192,41684,1,0,0:0:0:0:
182,192,41684,1,0,0:0:0:0:
256,192,41860,128,0,42742:0:0:0:0:
109,192,41860,1,0,0:0:0:0:
475,192,42037,128,0,42213:0:0:0:0:
36,192,42037,1,0,0:0:0:0:
109,192,42213,1,0,0:0:0:0:
329,192,42213,128,0,42389:0:0:0:0:
182,192,42389,1,8,0:0:0:0:
36,192,42389,1,0,0:0:0:0:
402,192,42389,128,0,42566:0:0:0:0:
109,192,42566,1,0,0:0:0:0:
475,192,42566,128,0,42742:0:0:0:0:
182,192,42742,128,0,44154:0:0:0:0:
36,192,42742,1,0,0:0:0:0:
109,192,42919,1,2,0:0:0:0:
256,192,43095,128,8,43272:0:0:0:0:
402,192,43095,1,0,0:0:0:0:
475,192,43095,1,0,0:0:0:0:
329,192,43272,128,0,43448:0:0:0:0:
109,192,43272,1,0,0:0:0:0:
402,192,43448,128,0,43625:0:0:0:0:
36,192,43448,1,0,0:0:0:0:
329,192,43625,128,2,43801:0:0:0:0:
475,192,43625,1,0,0:0:0:0:
256,192,43801,128,8,43978:0:0:0:0:
109,192,43801,1,8,0:0:0:0:
36,192,43801,1,0,0:0:0:0:
402,192,43978,1,0,0:0:0:0:
256,192,44154,128,0,45566:0:0:0:0:
36,192,44154,1,0,0:0:0:0:
475,192,44154,1,0,0:0:0:0:
109,192,44507,1,8,0:0:0:0:
402,192,44507,1,0,0:0:0:0:
36,192,44860,1,0,0:0:0:0:
475,192,44860,1,0,0:0:0:0:
109,192,45213,1,8,0:0:0:0:
402,192,45213,1,8,0:0:0:0:
475,192,45566,1,8,0:0:0:0:
36,192,45566,1,8,0:0:0:0:
182,192,45566,128,0,46978:0:0:0:0:
402,192,45684,1,8,0:0:0:0:
329,192,45801,1,8,0:0:0:0:
256,192,45919,1,8,0:0:0:0:
329,192,46037,1,8,0:0:0:0:
402,192,46154,1,8,0:0:0:0:
475,192,46272,1,8,0:0:0:0:
402,192,46448,1,2,0:0:0:0:
475,192,46625,1,4,0:0:0:0:
329,192,46625,1,4,0:0:0:0:
109,192,46625,1,0,0:0:0:0:
256,192,46801,1,0,0:0:0:0:
475,192,46978,1,4,0:0:0:0:
329,192,46978,1,4,0:0:0:0:
36,192,46978,1,0,0:0:0:0:
256,192,47154,1,0,0:0:0:0:
182,192,47331,1,8,0:0:0:0:
475,192,47331,1,8,0:0:0:0:
36,192,47331,1,0,0:0:0:0:
402,192,47507,1,2,0:0:0:0:
256,192,47684,1,0,0:0:0:0:
109,192,47684,1,0,0:0:0:0:
329,192,47860,1,0,0:0:0:0:
182,192,47860,1,0,0:0:0:0:
36,192,48037,1,8,0:0:0:0:
475,192,48037,1,8,0:0:0:0:
256,192,48037,1,0,0:0:0:0:
182,192,48213,1,0,0:0:0:0:
329,192,48389,1,0,0:0:0:0:
475,192,48389,1,0,0:0:0:0:
36,192,48389,128,0,49095:0:0:0:0:
256,192,48566,1,0,0:0:0:0:
329,192,48742,1,8,0:0:0:0:
109,192,48742,1,0,0:0:0:0:
475,192,48742,1,0,0:0:0:0:
182,192,48919,1,2,0:0:0:0:
256,192,49095,1,0,0:0:0:0:
402,192,49095,1,0,0:0:0:0:
329,192,49272,1,2,0:0:0:0:
182,192,49448,1,8,0:0:0:0:
36,192,49448,1,0,0:0:0:0:
109,192,49448,128,0,49801:0:0:0:0:
402,192,49448,1,0,0:0:0:0:
329,192,49625,1,0,0:0:0:0:
256,192,49801,1,0,0:0:0:0:
402,192,49801,128,0,50154:0:0:0:0:
475,192,49801,1,0,0:0:0:0:
182,192,49978,1,2,0:0:0:0:
109,192,50154,1,4,0:0:0:0:
329,192,50154,1,4,0:0:0:0:
475,192,50331,1,0,0:0:0:0:
329,192,50507,1,0,0:0:0:0:
182,192,50507,128,0,51213:0:0:0:0:
36,192,50507,1,0,0:0:0:0:
402,192,50684,1,2,0:0:0:0:
109,192,50684,1,0,0:0:0:0:
256,192,50860,1,4,0:0:0:0:
475,192,50860,1,0,0:0:0:0:
36,192,50860,1,0,0:0:0:0:
402,192,51037,1,0,0:0:0:0:
109,192,51037,1,0,0:0:0:0:
36,192,51213,1,0,0:0:0:0:
475,192,51213,1,0,0:0:0:0:
182,192,51389,1,0,0:0:0:0:
329,192,51389,1,0,0:0:0:0:
329,192,51566,1,8,0:0:0:0:
182,192,51566,1,0,0:0:0:0:
475,192,51654,1,8,0:0:0:0:
36,192,51654,1,0,0:0:0:0:
329,192,51742,1,8,0:0:0:0:
182,192,51742,1,0,0:0:0:0:
36,192,51831,1,0,0:0:0:0:
475,192,51831,1,0,0:0:0:0:
182,192,51919,1,8,0:0:0:0:
329,192,51919,1,8,0:0:0:0:
329,192,52154,1,8,0:0:0:0:
36,192,52154,1,8,0:0:0:0:
36,192,52389,1,0,0:0:0:0:
329,192,52389,1,0,0:0:0:0:
109,192,52625,1,8,0:0:0:0:
402,192,52625,1,4,0:0:0:0:
256,192,52625,1,0,0:0:0:0:
182,192,52742,1,0,0:0:0:0:
256,192,52860,1,0,0:0:0:0:
475,192,52977,1,0,0:0:0:0:
329,192,52977,1,0,0:0:0:0:
182,192,53095,1,0,0:0:0:0:
109,192,53213,1,0,0:0:0:0:
256,192,53330,1,8,0:0:0:0:
36,192,53330,1,0,0:0:0:0:
329,192,53683,5,0,0:0:0:0:
109,192,53683,1,0,0:0:0:0:
475,192,53919,1,0,0:0:0:0:
402,192,54036,1,8,0:0:0:0:
182,192,54036,1,0,0:0:0:0:
36,192,54389,1,8,0:0:0:0:
256,192,54389,1,8,0:0:0:0:
36,192,54742,1,8,0:0:0:0:
256,192,54742,1,8,0:0:0:0:
329,192,54977,1,0,0:0:0:0:
109,192,55095,1,8,0:0:0:0:
475,192,55095,1,8,0:0:0:0:
402,192,55448,1,8,0:0:0:0:
36,192,55448,1,0,0:0:0:0:
109,192,55801,1,8,0:0:0:0:
475,192,55801,1,0,0:0:0:0:
329,192,55801,128,0,56154:0:0:0:0:
256,192,56154,128,0,56330:0:0:0:0:
475,192,56154,1,0,0:0:0:0:
182,192,56330,128,0,56507:0:0:0:0:
475,192,56330,1,0,0:0:0:0:
109,192,56507,128,8,56860:0:0:0:0:
475,192,56507,1,0,0:0:0:0:
475,192,56860,5,4,0:0:0:0:
36,192,56860,1,4,0:0:0:0:
329,192,56860,1,0,0:0:0:0:
182,192,57213,1,0,0:0:0:0:
36,192,57213,1,0,0:0:0:0:
329,192,57566,1,0,0:0:0:0:
475,192,57566,1,0,0:0:0:0:
402,192,57742,1,0,0:0:0:0:
329,192,57830,1,0,0:0:0:0:
256,192,57919,1,8,0:0:0:0:
109,192,57919,1,8,0:0:0:0:
36,192,57919,1,0,0:0:0:0:
182,192,58272,1,0,0:0:0:0:
402,192,58272,1,0,0:0:0:0:
329,192,58625,1,0,0:0:0:0:
475,192,58625,1,0,0:0:0:0:
182,192,58801,1,0,0:0:0:0:
256,192,58889,1,0,0:0:0:0:
329,192,58977,1,4,0:0:0:0:
36,192,58977,1,4,0:0:0:0:
475,192,59154,1,0,0:0:0:0:
475,192,59330,1,0,0:0:0:0:
256,192,59330,1,0,0:0:0:0:
109,192,59330,1,0,0:0:0:0:
475,192,59507,1,0,0:0:0:0:
329,192,59683,1,4,0:0:0:0:
182,192,59683,1,0,0:0:0:0:
36,192,59683,1,0,0:0:0:0:
475,192,59860,1,8,0:0:0:0:
109,192,60036,1,8,0:0:0:0:
402,192,60036,1,0,0:0:0:0:
329,192,60213,1,8,0:0:0:0:
182,192,60389,1,8,0:0:0:0:
475,192,60389,1,0,0:0:0:0:
36,192,60389,1,0,0:0:0:0:
36,192,60566,1,8,0:0:0:0:
402,192,60742,1,8,0:0:0:0:
109,192,60742,1,0,0:0:0:0:
36,192,60742,1,0,0:0:0:0:
36,192,60919,1,8,0:0:0:0:
182,192,60919,1,0,0:0:0:0:
36,192,61095,1,4,0:0:0:0:
329,192,61095,1,0,0:0:0:0:
475,192,61095,1,0,0:0:0:0:
109,192,61095,128,0,61624:0:0:0:0:
182,192,61271,1,2,0:0:0:0:
256,192,61359,1,0,0:0:0:0:
329,192,61447,1,8,0:0:0:0:
475,192,61447,1,8,0:0:0:0:
36,192,61447,1,0,0:0:0:0:
256,192,61624,128,2,61977:0:0:0:0:
402,192,61624,1,0,0:0:0:0:
182,192,61800,1,0,0:0:0:0:
402,192,61977,128,2,62506:0:0:0:0:
36,192,61977,1,0,0:0:0:0:
109,192,62153,1,8,0:0:0:0:
329,192,62153,1,0,0:0:0:0:
475,192,62153,1,0,0:0:0:0:
182,192,62242,1,0,0:0:0:0:
256,192,62330,1,0,0:0:0:0:
182,192,62418,1,0,0:0:0:0:
36,192,62506,128,0,63036:0:0:0:0:
109,192,62506,1,0,0:0:0:0:
475,192,62506,1,0,0:0:0:0:
329,192,62683,1,2,0:0:0:0:
109,192,62859,1,8,0:0:0:0:
256,192,62859,1,8,0:0:0:0:
402,192,62859,1,0,0:0:0:0:
182,192,63036,128,0,63918:0:0:0:0:
329,192,63036,1,0,0:0:0:0:
402,192,63212,1,0,0:0:0:0:
109,192,63212,1,0,0:0:0:0:
329,192,63389,1,2,0:0:0:0:
256,192,63565,1,8,0:0:0:0:
109,192,63565,1,0,0:0:0:0:
402,192,63565,1,0,0:0:0:0:
475,192,63653,1,0,0:0:0:0:
329,192,63742,1,0,0:0:0:0:
402,192,63830,1,0,0:0:0:0:
475,192,63918,1,0,0:0:0:0:
36,192,63918,128,0,64447:0:0:0:0:
329,192,64095,1,8,0:0:0:0:
109,192,64095,1,0,0:0:0:0:
256,192,64271,1,8,0:0:0:0:
402,192,64271,1,0,0:0:0:0:
475,192,64271,1,0,0:0:0:0:
182,192,64447,128,8,64977:0:0:0:0:
329,192,64447,1,0,0:0:0:0:
109,192,64447,1,0,0:0:0:0:
475,192,64624,1,0,0:0:0:0:
109,192,64800,1,8,0:0:0:0:
402,192,64800,1,0,0:0:0:0:
329,192,64977,1,8,0:0:0:0:
475,192,64977,1,8,0:0:0:0:
36,192,64977,1,0,0:0:0:0:
109,192,65153,1,8,0:0:0:0:
402,192,65153,1,0,0:0:0:0:
182,192,65242,1,0,0:0:0:0:
329,192,65242,1,0,0:0:0:0:
256,192,65330,128,8,65859:0:0:0:0:
36,192,65330,1,0,0:0:0:0:
475,192,65330,1,0,0:0:0:0:
36,192,65506,1,0,0:0:0:0:
475,192,65506,1,0,0:0:0:0:
182,192,65683,1,8,0:0:0:0:
329,192,65683,1,0,0:0:0:0:
109,192,65683,1,0,0:0:0:0:
402,192,65683,1,0,0:0:0:0:
109,192,65859,128,0,66742:0:0:0:0:
402,192,65859,128,0,66742:0:0:0:0:
256,192,66036,1,0,0:0:0:0:
182,192,66212,1,8,0:0:0:0:
329,192,66212,1,8,0:0:0:0:
36,192,66389,1,4,0:0:0:0:
475,192,66389,1,0,0:0:0:0:
256,192,66389,1,0,0:0:0:0:
182,192,66742,1,4,0:0:0:0:
475,192,66742,1,4,0:0:0:0:
36,192,66742,128,0,67271:0:0:0:0:
329,192,66742,1,0,0:0:0:0:
256,192,66918,1,2,0:0:0:0:
182,192,67095,1,8,0:0:0:0:
402,192,67095,1,0,0:0:0:0:
109,192,67095,1,0,0:0:0:0:
329,192,67271,128,2,68153:0:0:0:0:
256,192,67271,1,0,0:0:0:0:
182,192,67447,1,0,0:0:0:0:
402,192,67447,1,0,0:0:0:0:
109,192,67624,1,2,0:0:0:0:
402,192,67800,1,8,0:0:0:0:
475,192,67800,1,8,0:0:0:0:
36,192,67800,1,0,0:0:0:0:
109,192,67977,1,8,0:0:0:0:
256,192,68065,1,0,0:0:0:0:
182,192,68153,128,8,68683:0:0:0:0:
402,192,68153,1,0,0:0:0:0:
475,192,68153,1,0,0:0:0:0:
256,192,68330,1,0,0:0:0:0:
36,192,68330,1,0,0:0:0:0:
109,192,68506,1,8,0:0:0:0:
329,192,68506,1,0,0:0:0:0:
475,192,68506,1,0,0:0:0:0:
36,192,68683,128,0,69565:0:0:0:0:
402,192,68683,1,0,0:0:0:0:
329,192,68859,1,2,0:0:0:0:
109,192,68859,1,0,0:0:0:0:
256,192,69036,1,0,0:0:0:0:
109,192,69212,1,8,0:0:0:0:
475,192,69212,1,8,0:0:0:0:
329,192,69212,1,0,0:0:0:0:
109,192,69389,1,8,0:0:0:0:
329,192,69389,1,0,0:0:0:0:
182,192,69477,1,0,0:0:0:0:
402,192,69477,1,0,0:0:0:0:
256,192,69565,1,8,0:0:0:0:
475,192,69565,1,0,0:0:0:0:
182,192,69742,1,0,0:0:0:0:
329,192,69742,1,0,0:0:0:0:
109,192,69918,1,8,0:0:0:0:
402,192,69918,1,8,0:0:0:0:
256,192,70095,128,8,70977:0:0:0:0:
36,192,70095,1,0,0:0:0:0:
329,192,70095,1,0,0:0:0:0:
109,192,70183,1,0,0:0:0:0:
402,192,70183,1,0,0:0:0:0:
182,192,70271,1,2,0:0:0:0:
475,192,70271,1,0,0:0:0:0:
402,192,70447,1,0,0:0:0:0:
36,192,70447,1,0,0:0:0:0:
109,192,70624,1,8,0:0:0:0:
329,192,70624,1,8,0:0:0:0:
475,192,70624,1,0,0:0:0:0:
182,192,70800,1,2,0:0:0:0:
36,192,70977,1,8,0:0:0:0:
329,192,70977,1,8,0:0:0:0:
475,192,71153,1,2,0:0:0:0:
182,192,71153,1,2,0:0:0:0:
109,192,71330,5,8,0:0:0:0:
402,192,71330,1,0,0:0:0:0:
182,192,71506,1,2,0:0:0:0:
475,192,71506,1,2,0:0:0:0:
256,192,71683,1,8,0:0:0:0:
36,192,71683,1,8,0:0:0:0:
109,192,71859,1,2,0:0:0:0:
329,192,71859,1,0,0:0:0:0:
402,192,72036,1,8,0:0:0:0:
182,192,72036,1,0,0:0:0:0:
329,192,72212,1,2,0:0:0:0:
109,192,72212,1,0,0:0:0:0:
256,192,72389,128,4,73800:0:0:0:0:
182,192,72389,1,0,0:0:0:0:
402,192,72389,1,0,0:0:0:0:
475,192,72389,1,0,0:0:0:0:
36,192,72389,1,0,0:0:0:0:
402,192,73712,1,0,0:0:0:0:
329,192,73800,1,0,0:0:0:0:
36,192,73800,128,0,73977:0:0:0:0:
182,192,73977,128,0,74153:0:0:0:0:
36,192,74153,128,0,74330:0:0:0:0:
182,192,74330,128,0,74506:0:0:0:0:
36,192,74506,128,0,74683:0:0:0:0:
182,192,74683,128,0,74859:0:0:0:0:
36,192,74859,128,0,75036:0:0:0:0:
182,192,75036,128,0,75212:0:0:0:0:
256,192,75212,1,4,0:0:0:0:
402,192,75212,1,0,0:0:0:0:
475,192,75212,1,0,0:0:0:0:
109,192,75212,128,0,75565:0:0:0:0:
36,192,75212,1,0,0:0:0:0:
329,192,75389,1,0,0:0:0:0:
182,192,75477,1,0,0:0:0:0:
329,192,75565,1,8,0:0:0:0:
475,192,75565,1,8,0:0:0:0:
36,192,75565,1,0,0:0:0:0:
402,192,75742,1,0,0:0:0:0:
256,192,75742,128,0,76094:0:0:0:0:
329,192,75918,1,2,0:0:0:0:
36,192,75918,1,0,0:0:0:0:
402,192,76094,128,0,76447:0:0:0:0:
109,192,76094,1,0,0:0:0:0:
182,192,76271,1,8,0:0:0:0:
329,192,76271,1,0,0:0:0:0:
475,192,76271,1,0,0:0:0:0:
256,192,76447,1,8,0:0:0:0:
182,192,76536,1,8,0:0:0:0:
109,192,76624,1,0,0:0:0:0:
329,192,76624,1,0,0:0:0:0:
36,192,76624,128,0,78036:0:0:0:0:
402,192,76800,1,2,0:0:0:0:
182,192,76977,1,8,0:0:0:0:
329,192,76977,1,0,0:0:0:0:
475,192,76977,1,0,0:0:0:0:
256,192,77153,128,2,77506:0:0:0:0:
402,192,77330,1,0,0:0:0:0:
109,192,77330,1,0,0:0:0:0:
475,192,77506,128,2,77859:0:0:0:0:
182,192,77506,1,0,0:0:0:0:
329,192,77683,1,8,0:0:0:0:
109,192,77683,1,8,0:0:0:0:
402,192,77683,1,0,0:0:0:0:
182,192,77859,1,8,0:0:0:0:
256,192,77947,1,8,0:0:0:0:
109,192,78036,128,0,79447:0:0:0:0:
329,192,78036,128,0,78389:0:0:0:0:
402,192,78036,1,0,0:0:0:0:
182,192,78212,1,0,0:0:0:0:
256,192,78300,1,0,0:0:0:0:
36,192,78389,1,8,0:0:0:0:
402,192,78389,128,8,78742:0:0:0:0:
475,192,78389,1,0,0:0:0:0:
182,192,78565,1,0,0:0:0:0:
256,192,78565,128,0,79094:0:0:0:0:
329,192,78742,1,2,0:0:0:0:
475,192,78918,1,0,0:0:0:0:
402,192,78918,128,0,79447:0:0:0:0:
329,192,79094,1,8,0:0:0:0:
182,192,79094,1,8,0:0:0:0:
36,192,79271,1,8,0:0:0:0:
475,192,79271,1,0,0:0:0:0:
256,192,79271,128,0,79447:0:0:0:0:
182,192,79359,1,8,0:0:0:0:
329,192,79359,1,0,0:0:0:0:
475,192,79447,1,0,0:0:0:0:
36,192,79447,1,0,0:0:0:0:
36,192,79624,1,0,0:0:0:0:
475,192,79624,1,0,0:0:0:0:
256,192,79624,1,0,0:0:0:0:
109,192,79800,1,8,0:0:0:0:
402,192,79800,1,0,0:0:0:0:
256,192,79800,1,0,0:0:0:0:
36,192,79977,1,2,0:0:0:0:
475,192,79977,1,0,0:0:0:0:
182,192,80153,1,0,0:0:0:0:
329,192,80153,1,0,0:0:0:0:
109,192,80330,1,2,0:0:0:0:
402,192,80330,1,2,0:0:0:0:
36,192,80506,1,8,0:0:0:0:
475,192,80506,1,0,0:0:0:0:
182,192,80683,1,8,0:0:0:0:
329,192,80683,1,0,0:0:0:0:
109,192,80771,1,8,0:0:0:0:
402,192,80771,1,0,0:0:0:0:
475,192,80859,1,4,0:0:0:0:
36,192,80859,1,4,0:0:0:0:
256,192,80859,128,0,82271:0:0:0:0:
182,192,80859,1,0,0:0:0:0:
329,192,80859,1,0,0:0:0:0:
109,192,81036,1,2,0:0:0:0:
182,192,81124,1,0,0:0:0:0:
36,192,81212,128,8,81389:0:0:0:0:
329,192,81212,1,8,0:0:0:0:
402,192,81212,1,0,0:0:0:0:
475,192,81389,128,2,81742:0:0:0:0:
109,192,81389,1,0,0:0:0:0:
329,192,81565,1,2,0:0:0:0:
182,192,81565,1,0,0:0:0:0:
36,192,81742,128,2,82094:0:0:0:0:
402,192,81742,1,0,0:0:0:0:
475,192,81918,1,8,0:0:0:0:
109,192,81918,1,8,0:0:0:0:
329,192,82094,5,8,0:0:0:0:
182,192,82094,1,0,0:0:0:0:
402,192,82183,1,8,0:0:0:0:
109,192,82183,1,0,0:0:0:0:
475,192,82271,128,0,82624:0:0:0:0:
329,192,82271,1,0,0:0:0:0:
182,192,82271,1,0,0:0:0:0:
109,192,82447,1,2,0:0:0:0:
182,192,82624,128,8,82800:0:0:0:0:
36,192,82624,1,8,0:0:0:0:
256,192,82624,1,0,0:0:0:0:
402,192,82624,1,0,0:0:0:0:
329,192,82800,128,2,83153:0:0:0:0:
109,192,82800,1,0,0:0:0:0:
475,192,82977,1,2,0:0:0:0:
256,192,82977,1,0,0:0:0:0:
402,192,83153,128,2,83506:0:0:0:0:
182,192,83153,1,0,0:0:0:0:
36,192,83330,1,8,0:0:0:0:
109,192,83330,1,0,0:0:0:0:
475,192,83330,1,0,0:0:0:0:
182,192,83506,1,2,0:0:0:0:
256,192,83506,128,0,83683:0:0:0:0:
109,192,83594,1,2,0:0:0:0:
36,192,83683,1,0,0:0:0:0:
475,192,83683,128,0,85094:0:0:0:0:
329,192,83683,1,0,0:0:0:0:
182,192,83771,1,0,0:0:0:0:
109,192,83859,1,8,0:0:0:0:
402,192,83859,1,0,0:0:0:0:
109,192,84036,1,8,0:0:0:0:
329,192,84036,1,0,0:0:0:0:
36,192,84036,1,0,0:0:0:0:
182,192,84212,1,8,0:0:0:0:
256,192,84300,1,0,0:0:0:0:
36,192,84389,1,8,0:0:0:0:
402,192,84389,1,0,0:0:0:0:
109,192,84389,1,0,0:0:0:0:
182,192,84565,1,0,0:0:0:0:
329,192,84565,1,0,0:0:0:0:
109,192,84742,1,8,0:0:0:0:
256,192,84742,1,0,0:0:0:0:
36,192,84742,1,0,0:0:0:0:
402,192,84918,1,8,0:0:0:0:
329,192,85006,1,8,0:0:0:0:
256,192,85094,1,0,0:0:0:0:
182,192,85094,128,0,86506:0:0:0:0:
36,192,85094,1,0,0:0:0:0:
256,192,85271,1,0,0:0:0:0:
109,192,85271,1,0,0:0:0:0:
329,192,85447,5,8,0:0:0:0:
475,192,85447,1,0,0:0:0:0:
36,192,85447,1,0,0:0:0:0:
402,192,85624,1,8,0:0:0:0:
256,192,85712,1,8,0:0:0:0:
402,192,85800,1,8,0:0:0:0:
36,192,85800,1,0,0:0:0:0:
36,192,85977,1,8,0:0:0:0:
475,192,85977,1,0,0:0:0:0:
36,192,86153,1,8,0:0:0:0:
475,192,86153,1,0,0:0:0:0:
36,192,86330,1,8,0:0:0:0:
475,192,86330,1,0,0:0:0:0:
475,192,86506,5,4,0:0:0:0:
109,192,86506,1,0,0:0:0:0:
36,192,86506,128,0,87212:0:0:0:0:
329,192,86506,1,0,0:0:0:0:
256,192,86683,1,8,0:0:0:0:
109,192,86859,1,8,0:0:0:0:
329,192,86859,1,8,0:0:0:0:
402,192,86859,1,0,0:0:0:0:
256,192,87036,1,0,0:0:0:0:
329,192,87124,1,0,0:0:0:0:
402,192,87212,1,2,0:0:0:0:
475,192,87212,1,0,0:0:0:0:
109,192,87212,128,0,87918:0:0:0:0:
256,192,87389,1,0,0:0:0:0:
329,192,87565,1,8,0:0:0:0:
182,192,87565,1,0,0:0:0:0:
36,192,87565,1,0,0:0:0:0:
402,192,87742,1,0,0:0:0:0:
329,192,87830,1,0,0:0:0:0:
256,192,87918,1,0,0:0:0:0:
475,192,87918,1,0,0:0:0:0:
36,192,87918,128,0,88271:0:0:0:0:
109,192,88094,1,0,0:0:0:0:
182,192,88183,1,0,0:0:0:0:
256,192,88271,1,8,0:0:0:0:
402,192,88271,1,8,0:0:0:0:
475,192,88271,128,0,88624:0:0:0:0:
329,192,88447,1,0,0:0:0:0:
182,192,88624,1,2,0:0:0:0:
36,192,88624,1,0,0:0:0:0:
402,192,88624,128,0,88977:0:0:0:0:
256,192,88800,1,0,0:0:0:0:
109,192,88800,1,0,0:0:0:0:
475,192,88977,1,8,0:0:0:0:
182,192,88977,1,0,0:0:0:0:
329,192,88977,128,0,89330:0:0:0:0:
109,192,89153,1,2,0:0:0:0:
182,192,89242,1,0,0:0:0:0:
256,192,89330,1,0,0:0:0:0:
475,192,89330,1,0,0:0:0:0:
182,192,89506,1,0,0:0:0:0:
256,192,89594,1,0,0:0:0:0:
329,192,89683,1,8,0:0:0:0:
109,192,89683,1,0,0:0:0:0:
36,192,89683,1,0,0:0:0:0:
256,192,89859,1,0,0:0:0:0:
402,192,89859,1,0,0:0:0:0:
182,192,90036,1,2,0:0:0:0:
329,192,90036,1,2,0:0:0:0:
256,192,90212,1,0,0:0:0:0:
402,192,90212,1,0,0:0:0:0:
182,192,90389,1,0,0:0:0:0:
475,192,90389,1,0,0:0:0:0:
329,192,90389,1,0,0:0:0:0:
36,192,90565,1,2,0:0:0:0:
256,192,90565,1,0,0:0:0:0:
109,192,90653,1,0,0:0:0:0:
182,192,90742,1,0,0:0:0:0:
475,192,90742,128,0,92153:0:0:0:0:
329,192,90742,1,0,0:0:0:0:
402,192,90918,1,2,0:0:0:0:
329,192,91094,1,8,0:0:0:0:
36,192,91094,1,8,0:0:0:0:
182,192,91094,1,0,0:0:0:0:
402,192,91271,1,2,0:0:0:0:
256,192,91359,1,8,0:0:0:0:
109,192,91359,1,0,0:0:0:0:
402,192,91447,1,0,0:0:0:0:
256,192,91536,1,8,0:0:0:0:
109,192,91536,1,0,0:0:0:0:
402,192,91624,1,0,0:0:0:0:
329,192,91800,1,8,0:0:0:0:
36,192,91800,1,0,0:0:0:0:
109,192,91800,1,0,0:0:0:0:
182,192,91977,1,0,0:0:0:0:
402,192,92153,1,4,0:0:0:0:
256,192,92153,1,0,0:0:0:0:
109,192,92153,1,0,0:0:0:0:
36,192,92153,1,0,0:0:0:0:
329,192,92153,128,0,92683:0:0:0:0:
182,192,92330,1,0,0:0:0:0:
109,192,92506,1,8,0:0:0:0:
402,192,92506,1,8,0:0:0:0:
475,192,92506,1,0,0:0:0:0:
256,192,92683,128,0,93565:0:0:0:0:
36,192,92683,1,0,0:0:0:0:
475,192,92859,1,2,0:0:0:0:
182,192,93036,1,0,0:0:0:0:
109,192,93212,128,8,93565:0:0:0:0:
402,192,93212,1,0,0:0:0:0:
36,192,93212,1,0,0:0:0:0:
329,192,93389,1,0,0:0:0:0:
402,192,93477,1,0,0:0:0:0:
475,192,93565,128,0,94094:0:0:0:0:
182,192,93565,1,0,0:0:0:0:
329,192,93742,1,0,0:0:0:0:
256,192,93830,1,0,0:0:0:0:
402,192,93918,1,8,0:0:0:0:
182,192,93918,1,0,0:0:0:0:
36,192,93918,1,0,0:0:0:0:
256,192,94094,128,0,94624:0:0:0:0:
329,192,94094,1,0,0:0:0:0:
402,192,94271,1,2,0:0:0:0:
109,192,94447,1,0,0:0:0:0:
182,192,94624,128,8,94977:0:0:0:0:
329,192,94624,1,0,0:0:0:0:
475,192,94624,1,0,0:0:0:0:
402,192,94800,1,0,0:0:0:0:
329,192,94889,1,0,0:0:0:0:
475,192,94977,1,0,0:0:0:0:
36,192,94977,1,0,0:0:0:0:
36,192,95153,1,8,0:0:0:0:
475,192,95153,1,0,0:0:0:0:
109,192,95330,1,8,0:0:0:0:
256,192,95330,1,0,0:0:0:0:
402,192,95330,1,0,0:0:0:0:
182,192,95506,1,2,0:0:0:0:
329,192,95506,1,0,0:0:0:0:
256,192,95594,1,0,0:0:0:0:
109,192,95683,1,0,0:0:0:0:
402,192,95683,1,0,0:0:0:0:
402,192,95859,1,2,0:0:0:0:
109,192,95859,1,0,0:0:0:0:
182,192,96036,1,8,0:0:0:0:
329,192,96036,1,0,0:0:0:0:
475,192,96036,1,0,0:0:0:0:
256,192,96212,1,2,0:0:0:0:
36,192,96389,128,0,96565:0:0:0:0:
329,192,96389,1,0,0:0:0:0:
475,192,96389,1,0,0:0:0:0:
109,192,96565,128,8,96742:0:0:0:0:
402,192,96565,1,0,0:0:0:0:
329,192,96653,1,0,0:0:0:0:
182,192,96742,128,8,96918:0:0:0:0:
256,192,96742,1,8,0:0:0:0:
475,192,96918,128,0,97094:0:0:0:0:
402,192,96918,1,0,0:0:0:0:
329,192,97094,128,0,97271:0:0:0:0:
109,192,97094,1,0,0:0:0:0:
36,192,97094,1,0,0:0:0:0:
402,192,97271,128,0,97447:0:0:0:0:
256,192,97271,1,0,0:0:0:0:
329,192,97447,128,8,97624:0:0:0:0:
109,192,97447,1,0,0:0:0:0:
36,192,97447,1,0,0:0:0:0:
256,192,97624,128,2,97800:0:0:0:0:
182,192,97624,1,0,0:0:0:0:
36,192,97712,1,0,0:0:0:0:
109,192,97800,1,4,0:0:0:0:
402,192,97800,1,0,0:0:0:0:
475,192,97800,1,0,0:0:0:0:
182,192,97800,1,0,0:0:0:0:
329,192,97977,1,2,0:0:0:0:
256,192,98153,1,8,0:0:0:0:
36,192,98153,1,8,0:0:0:0:
109,192,98153,1,0,0:0:0:0:
475,192,98153,128,0,98330:0:0:0:0:
329,192,98330,1,2,0:0:0:0:
402,192,98506,1,2,0:0:0:0:
182,192,98506,1,2,0:0:0:0:
36,192,98506,128,0,98859:0:0:0:0:
329,192,98683,1,2,0:0:0:0:
475,192,98683,128,2,98859:0:0:0:0:
256,192,98859,1,8,0:0:0:0:
109,192,98859,1,8,0:0:0:0:
402,192,98859,1,0,0:0:0:0:
329,192,99036,1,2,0:0:0:0:
256,192,99124,1,0,0:0:0:0:
182,192,99212,1,0,0:0:0:0:
475,192,99212,1,0,0:0:0:0:
36,192,99212,128,0,99565:0:0:0:0:
256,192,99389,1,0,0:0:0:0:
329,192,99477,1,0,0:0:0:0:
402,192,99565,1,8,0:0:0:0:
475,192,99565,1,8,0:0:0:0:
109,192,99565,1,0,0:0:0:0:
329,192,99742,1,0,0:0:0:0:
182,192,99742,1,0,0:0:0:0:
256,192,99918,1,2,0:0:0:0:
36,192,99918,1,0,0:0:0:0:
109,192,100094,1,0,0:0:0:0:
402,192,100094,1,0,0:0:0:0:
182,192,100271,1,8,0:0:0:0:
475,192,100271,1,0,0:0:0:0:
329,192,100447,1,2,0:0:0:0:
256,192,100536,1,0,0:0:0:0:
182,192,100624,1,0,0:0:0:0:
36,192,100624,1,0,0:0:0:0:
402,192,100624,1,0,0:0:0:0:
475,192,100624,128,0,100800:0:0:0:0:
329,192,100800,128,0,100977:0:0:0:0:
36,192,100800,1,0,0:0:0:0:
109,192,100889,1,0,0:0:0:0:
182,192,100977,128,8,101153:0:0:0:0:
256,192,100977,1,0,0:0:0:0:
402,192,100977,1,0,0:0:0:0:
36,192,101153,128,0,101330:0:0:0:0:
475,192,101153,1,0,0:0:0:0:
329,192,101330,1,2,0:0:0:0:
109,192,101330,1,0,0:0:0:0:
256,192,101506,1,0,0:0:0:0:
475,192,101683,1,8,0:0:0:0:
182,192,101683,1,8,0:0:0:0:
36,192,101683,1,0,0:0:0:0:
256,192,101859,1,0,0:0:0:0:
329,192,101947,1,0,0:0:0:0:
182,192,102036,1,0,0:0:0:0:
402,192,102036,1,0,0:0:0:0:
329,192,102212,1,0,0:0:0:0:
182,192,102389,1,8,0:0:0:0:
36,192,102389,1,8,0:0:0:0:
402,192,102389,1,0,0:0:0:0:
109,192,102565,1,0,0:0:0:0:
329,192,102653,1,8,0:0:0:0:
475,192,102653,1,0,0:0:0:0:
109,192,102742,1,0,0:0:0:0:
329,192,102830,1,8,0:0:0:0:
475,192,102830,1,0,0:0:0:0:
109,192,102918,1,0,0:0:0:0:
402,192,103094,1,8,0:0:0:0:
256,192,103094,1,8,0:0:0:0:
36,192,103094,1,0,0:0:0:0:
329,192,103271,1,2,0:0:0:0:
182,192,103271,1,0,0:0:0:0:
109,192,103447,128,4,103800:0:0:0:0:
475,192,103447,1,0,0:0:0:0:
256,192,103447,1,0,0:0:0:0:
36,192,103447,1,0,0:0:0:0:
402,192,103624,1,2,0:0:0:0:
329,192,103712,1,0,0:0:0:0:
256,192,103800,1,8,0:0:0:0:
475,192,103800,1,0,0:0:0:0:
36,192,103800,1,0,0:0:0:0:
256,192,103977,128,2,104506:0:0:0:0:
402,192,103977,1,0,0:0:0:0:
329,192,104153,1,2,0:0:0:0:
182,192,104153,1,0,0:0:0:0:
402,192,104330,1,2,0:0:0:0:
182,192,104506,1,8,0:0:0:0:
36,192,104506,1,0,0:0:0:0:
475,192,104506,1,0,0:0:0:0:
329,192,104683,1,2,0:0:0:0:
402,192,104859,128,0,105565:0:0:0:0:
256,192,104859,1,0,0:0:0:0:
109,192,104859,1,0,0:0:0:0:
329,192,105036,1,0,0:0:0:0:
182,192,105124,1,0,0:0:0:0:
36,192,105212,1,8,0:0:0:0:
475,192,105212,1,8,0:0:0:0:
109,192,105212,1,0,0:0:0:0:
256,192,105389,128,0,105565:0:0:0:0:
182,192,105389,1,0,0:0:0:0:
329,192,105565,128,2,106271:0:0:0:0:
109,192,105565,1,0,0:0:0:0:
256,192,105742,1,0,0:0:0:0:
475,192,105918,128,8,106271:0:0:0:0:
182,192,105918,128,0,106271:0:0:0:0:
402,192,105918,1,0,0:0:0:0:
109,192,105918,1,0,0:0:0:0:
36,192,106094,1,0,0:0:0:0:
402,192,106271,128,0,106624:0:0:0:0:
256,192,106271,128,0,106624:0:0:0:0:
109,192,106271,128,0,106359:0:0:0:0:
36,192,106447,1,8,0:0:0:0:
182,192,106447,128,0,106536:0:0:0:0:
109,192,106536,1,0,0:0:0:0:
36,192,106624,1,8,0:0:0:0:
475,192,106624,1,0,0:0:0:0:
329,192,106624,128,0,106712:0:0:0:0:
182,192,106800,1,0,0:0:0:0:
402,192,106800,128,0,106889:0:0:0:0:
109,192,106977,1,2,0:0:0:0:
475,192,106977,1,0,0:0:0:0:
329,192,106977,128,0,107065:0:0:0:0:
256,192,107153,1,0,0:0:0:0:
402,192,107153,128,0,107242:0:0:0:0:
109,192,107330,1,8,0:0:0:0:
36,192,107330,1,8,0:0:0:0:
329,192,107330,128,0,107418:0:0:0:0:
402,192,107506,128,2,107594:0:0:0:0:
256,192,107594,1,0,0:0:0:0:
182,192,107683,1,0,0:0:0:0:
36,192,107683,128,0,108389:0:0:0:0:
109,192,107683,1,0,0:0:0:0:
475,192,107683,128,0,107771:0:0:0:0:
329,192,107859,1,0,0:0:0:0:
475,192,108036,1,8,0:0:0:0:
402,192,108212,1,0,0:0:0:0:
109,192,108300,1,8,0:0:0:0:
182,192,108389,128,2,108565:0:0:0:0:
475,192,108389,128,0,109094:0:0:0:0:
402,192,108389,1,0,0:0:0:0:
109,192,108477,1,8,0:0:0:0:
256,192,108565,128,0,108742:0:0:0:0:
402,192,108565,1,0,0:0:0:0:
329,192,108742,128,8,108918:0:0:0:0:
36,192,108742,1,0,0:0:0:0:
109,192,108742,1,0,0:0:0:0:
256,192,108918,128,0,109094:0:0:0:0:
402,192,108918,1,0,0:0:0:0:
402,192,109094,1,4,0:0:0:0:
182,192,109094,1,0,0:0:0:0:
109,192,109094,1,0,0:0:0:0:
36,192,109094,128,0,110506:0:0:0:0:
329,192,109271,1,0,0:0:0:0:
182,192,109447,1,8,0:0:0:0:
109,192,109447,1,8,0:0:0:0:
475,192,109447,1,0,0:0:0:0:
402,192,109624,1,0,0:0:0:0:
329,192,109800,1,2,0:0:0:0:
182,192,109800,1,0,0:0:0:0:
256,192,109977,1,0,0:0:0:0:
109,192,109977,1,0,0:0:0:0:
329,192,110153,1,8,0:0:0:0:
475,192,110153,1,0,0:0:0:0:
182,192,110153,1,0,0:0:0:0:
256,192,110330,1,0,0:0:0:0:
329,192,110506,128,2,111918:0:0:0:0:
475,192,110506,1,2,0:0:0:0:
182,192,110506,1,0,0:0:0:0:
109,192,110683,1,0,0:0:0:0:
182,192,110859,1,8,0:0:0:0:
402,192,110859,1,8,0:0:0:0:
36,192,110859,1,0,0:0:0:0:
256,192,111036,1,0,0:0:0:0:
182,192,111124,1,0,0:0:0:0:
109,192,111212,1,2,0:0:0:0:
402,192,111212,1,0,0:0:0:0:
402,192,111389,1,0,0:0:0:0:
109,192,111389,1,0,0:0:0:0:
182,192,111565,1,8,0:0:0:0:
475,192,111565,1,8,0:0:0:0:
256,192,111565,1,0,0:0:0:0:
109,192,111742,1,0,0:0:0:0:
475,192,111918,128,2,113330:0:0:0:0:
256,192,111918,1,2,0:0:0:0:
36,192,112271,128,2,113330:0:0:0:0:
109,192,112271,1,0,0:0:0:0:
182,192,112624,128,2,113330:0:0:0:0:
256,192,112624,1,2,0:0:0:0:
329,192,112977,128,2,113330:0:0:0:0:
402,192,112977,1,2,0:0:0:0:
109,192,113330,1,8,0:0:0:0:
402,192,113330,1,0,0:0:0:0:
256,192,113447,1,0,0:0:0:0:
402,192,113447,1,0,0:0:0:0:
329,192,113565,1,0,0:0:0:0:
475,192,113565,1,0,0:0:0:0:
256,192,113683,1,0,0:0:0:0:
402,192,113683,1,0,0:0:0:0:
182,192,113800,1,0,0:0:0:0:
329,192,113800,1,0,0:0:0:0:
256,192,113918,1,0,0:0:0:0:
109,192,113918,1,0,0:0:0:0:
182,192,114036,1,8,0:0:0:0:
36,192,114036,1,8,0:0:0:0:
256,192,114212,1,0,0:0:0:0:
36,192,114389,1,4,0:0:0:0:
182,192,114389,1,4,0:0:0:0:
329,192,114389,1,0,0:0:0:0:
475,192,114389,1,0,0:0:0:0:
109,192,114565,1,0,0:0:0:0:
402,192,114565,1,0,0:0:0:0:
182,192,114742,1,8,0:0:0:0:
329,192,114742,1,2,0:0:0:0:
475,192,114742,128,0,116153:0:0:0:0:
36,192,114742,1,0,0:0:0:0:
109,192,114918,1,0,0:0:0:0:
182,192,115094,1,8,0:0:0:0:
256,192,115094,1,8,0:0:0:0:
402,192,115094,1,0,0:0:0:0:
329,192,115271,1,0,0:0:0:0:
402,192,115359,1,0,0:0:0:0:
256,192,115447,1,2,0:0:0:0:
109,192,115447,1,0,0:0:0:0:
329,192,115624,1,0,0:0:0:0:
182,192,115624,1,0,0:0:0:0:
256,192,115800,1,8,0:0:0:0:
109,192,115800,1,8,0:0:0:0:
402,192,115800,1,0,0:0:0:0:
182,192,115977,1,0,0:0:0:0:
402,192,116153,128,0,117565:0:0:0:0:
36,192,116153,1,0,0:0:0:0:
329,192,116153,1,0,0:0:0:0:
109,192,116153,1,0,0:0:0:0:
182,192,116330,1,0,0:0:0:0:
36,192,116506,1,8,0:0:0:0:
256,192,116506,1,8,0:0:0:0:
329,192,116506,1,0,0:0:0:0:
109,192,116683,1,0,0:0:0:0:
182,192,116771,1,0,0:0:0:0:
256,192,116859,1,2,0:0:0:0:
329,192,116859,1,0,0:0:0:0:
182,192,117036,1,0,0:0:0:0:
36,192,117036,1,0,0:0:0:0:
109,192,117212,1,8,0:0:0:0:
256,192,117212,1,0,0:0:0:0:
475,192,117212,1,0,0:0:0:0:
182,192,117389,1,0,0:0:0:0:
329,192,117565,128,0,118271:0:0:0:0:
36,192,117565,1,0,0:0:0:0:
475,192,117565,1,0,0:0:0:0:
256,192,117742,1,0,0:0:0:0:
182,192,117918,1,8,0:0:0:0:
109,192,117918,1,8,0:0:0:0:
475,192,117918,1,0,0:0:0:0:
402,192,118094,1,0,0:0:0:0:
402,192,118271,128,2,118977:0:0:0:0:
109,192,118271,1,2,0:0:0:0:
256,192,118447,1,0,0:0:0:0:
182,192,118624,1,8,0:0:0:0:
36,192,118624,1,0,0:0:0:0:
475,192,118624,1,0,0:0:0:0:
256,192,118800,1,0,0:0:0:0:
475,192,118977,128,0,120389:0:0:0:0:
182,192,118977,1,0,0:0:0:0:
109,192,118977,1,0,0:0:0:0:
256,192,119153,1,0,0:0:0:0:
36,192,119330,1,8,0:0:0:0:
402,192,119330,1,0,0:0:0:0:
329,192,119418,1,8,0:0:0:0:
109,192,119418,1,0,0:0:0:0:
36,192,119506,1,8,0:0:0:0:
402,192,119506,1,0,0:0:0:0:
109,192,119594,1,8,0:0:0:0:
329,192,119594,1,0,0:0:0:0:
36,192,119683,1,8,0:0:0:0:
402,192,119683,1,8,0:0:0:0:
36,192,119918,1,8,0:0:0:0:
402,192,119918,1,8,0:0:0:0:
402,192,120153,1,8,0:0:0:0:
36,192,120153,1,8,0:0:0:0:
36,192,120389,1,4,0:0:0:0:
402,192,120389,1,0,0:0:0:0:
256,192,120389,1,0,0:0:0:0:
109,192,120389,1,0,0:0:0:0:
182,192,120506,1,0,0:0:0:0:
329,192,120624,1,0,0:0:0:0:
182,192,120741,1,2,0:0:0:0:
36,192,120741,1,0,0:0:0:0:
329,192,120859,1,0,0:0:0:0:
475,192,120977,1,0,0:0:0:0:
329,192,121094,1,0,0:0:0:0:
182,192,121094,1,0,0:0:0:0:
256,192,121447,1,2,0:0:0:0:
402,192,121447,1,0,0:0:0:0:
329,192,121683,1,0,0:0:0:0:
182,192,121800,1,8,0:0:0:0:
36,192,121800,1,0,0:0:0:0:
256,192,122153,1,2,0:0:0:0:
475,192,122153,1,0,0:0:0:0:
109,192,122153,1,0,0:0:0:0:
329,192,122506,1,0,0:0:0:0:
182,192,122506,1,0,0:0:0:0:
36,192,122741,1,0,0:0:0:0:
182,192,122859,1,2,0:0:0:0:
475,192,122859,1,0,0:0:0:0:
329,192,123212,1,2,0:0:0:0:
36,192,123212,1,0,0:0:0:0:
182,192,123212,1,0,0:0:0:0:
109,192,123565,1,2,0:0:0:0:
256,192,123565,1,0,0:0:0:0:
402,192,123800,1,0,0:0:0:0:
256,192,123918,1,0,0:0:0:0:
36,192,123918,1,0,0:0:0:0:
182,192,123918,128,0,124094:0:0:0:0:
329,192,124094,128,0,124271:0:0:0:0:
475,192,124271,128,0,124624:0:0:0:0:
109,192,124271,1,0,0:0:0:0:
402,192,124624,1,4,0:0:0:0:
256,192,124624,1,4,0:0:0:0:
109,192,124624,128,0,125683:0:0:0:0:
329,192,124977,1,2,0:0:0:0:
475,192,125330,1,0,0:0:0:0:
402,192,125506,1,0,0:0:0:0:
329,192,125594,1,0,0:0:0:0:
256,192,125683,1,0,0:0:0:0:
36,192,125683,1,4,0:0:0:0:
182,192,125683,128,0,126036:0:0:0:0:
475,192,126036,1,0,0:0:0:0:
256,192,126389,1,0,0:0:0:0:
36,192,126741,1,8,0:0:0:0:
182,192,126741,1,0,0:0:0:0:
475,192,126741,1,0,0:0:0:0:
109,192,126918,1,8,0:0:0:0:
402,192,126918,1,0,0:0:0:0:
109,192,127094,1,8,0:0:0:0:
402,192,127094,1,0,0:0:0:0:
109,192,127271,1,8,0:0:0:0:
402,192,127271,1,0,0:0:0:0:
109,192,127447,1,4,0:0:0:0:
402,192,127447,1,0,0:0:0:0:
256,192,127447,1,0,0:0:0:0:
36,192,127624,1,0,0:0:0:0:
475,192,127624,1,0,0:0:0:0:
182,192,127800,1,8,0:0:0:0:
329,192,127800,1,8,0:0:0:0:
109,192,127977,1,8,0:0:0:0:
402,192,127977,1,0,0:0:0:0:
36,192,128153,1,8,0:0:0:0:
475,192,128153,1,8,0:0:0:0:
36,192,128330,1,8,0:0:0:0:
475,192,128330,1,8,0:0:0:0:
36,192,128506,1,8,0:0:0:0:
475,192,128506,1,8,0:0:0:0:
36,192,128683,1,8,0:0:0:0:
475,192,128683,1,8,0:0:0:0:
36,192,128859,1,4,0:0:0:0:
182,192,128859,1,0,0:0:0:0:
475,192,128859,1,0,0:0:0:0:
329,192,128859,128,0,129389:0:0:0:0:
109,192,129036,1,0,0:0:0:0:
182,192,129124,1,0,0:0:0:0:
36,192,129212,1,8,0:0:0:0:
402,192,129212,1,8,0:0:0:0:
475,192,129212,1,0,0:0:0:0:
256,192,129389,128,0,130271:0:0:0:0:
109,192,129389,1,0,0:0:0:0:
402,192,129565,1,2,0:0:0:0:
475,192,129565,1,0,0:0:0:0:
182,192,129742,1,0,0:0:0:0:
36,192,129918,1,8,0:0:0:0:
329,192,129918,1,0,0:0:0:0:
109,192,129918,1,0,0:0:0:0:
402,192,130095,1,2,0:0:0:0:
475,192,130271,128,0,130801:0:0:0:0:
36,192,130271,1,0,0:0:0:0:
329,192,130271,1,0,0:0:0:0:
109,192,130448,1,0,0:0:0:0:
36,192,130624,1,8,0:0:0:0:
402,192,130624,1,0,0:0:0:0:
256,192,130624,1,0,0:0:0:0:
329,192,130801,128,0,131683:0:0:0:0:
182,192,130801,1,0,0:0:0:0:
109,192,130977,1,2,0:0:0:0:
402,192,130977,1,0,0:0:0:0:
182,192,131154,1,0,0:0:0:0:
36,192,131330,1,8,0:0:0:0:
256,192,131330,1,0,0:0:0:0:
402,192,131330,1,0,0:0:0:0:
182,192,131418,1,0,0:0:0:0:
109,192,131507,1,8,0:0:0:0:
475,192,131507,1,0,0:0:0:0:
256,192,131595,1,8,0:0:0:0:
182,192,131683,1,0,0:0:0:0:
36,192,131683,1,0,0:0:0:0:
402,192,131683,128,0,132212:0:0:0:0:
109,192,131860,1,0,0:0:0:0:
182,192,131948,1,0,0:0:0:0:
256,192,132036,1,8,0:0:0:0:
475,192,132036,1,0,0:0:0:0:
329,192,132036,1,0,0:0:0:0:
182,192,132212,128,0,133095:0:0:0:0:
36,192,132212,1,0,0:0:0:0:
109,192,132389,1,2,0:0:0:0:
475,192,132389,1,0,0:0:0:0:
329,192,132565,1,0,0:0:0:0:
256,192,132742,128,8,133095:0:0:0:0:
475,192,132742,1,8,0:0:0:0:
36,192,132742,1,0,0:0:0:0:
402,192,132918,1,8,0:0:0:0:
109,192,132918,1,0,0:0:0:0:
475,192,133007,1,0,0:0:0:0:
36,192,133095,128,0,134507:0:0:0:0:
109,192,133095,1,0,0:0:0:0:
329,192,133095,1,0,0:0:0:0:
182,192,133271,1,0,0:0:0:0:
402,192,133271,1,0,0:0:0:0:
256,192,133448,1,8,0:0:0:0:
475,192,133448,1,0,0:0:0:0:
256,192,133624,128,0,134507:0:0:0:0:
329,192,133624,1,0,0:0:0:0:
109,192,133624,1,0,0:0:0:0:
402,192,133801,1,0,0:0:0:0:
182,192,133801,1,0,0:0:0:0:
109,192,133977,1,8,0:0:0:0:
182,192,134154,1,12,0:0:0:0:
329,192,134154,1,0,0:0:0:0:
475,192,134154,1,0,0:0:0:0:
109,192,134507,1,0,0:0:0:0:
475,192,134507,128,0,135918:0:0:0:0:
329,192,134507,1,4,0:0:0:0:
402,192,134507,1,0,0:0:0:0:
182,192,134683,1,8,0:0:0:0:
36,192,134860,1,8,0:0:0:0:
402,192,134860,1,0,0:0:0:0:
109,192,134860,1,0,0:0:0:0:
329,192,135036,128,0,135918:0:0:0:0:
182,192,135036,1,0,0:0:0:0:
256,192,135212,1,2,0:0:0:0:
109,192,135212,1,0,0:0:0:0:
402,192,135389,1,0,0:0:0:0:
36,192,135565,1,8,0:0:0:0:
109,192,135565,1,8,0:0:0:0:
182,192,135654,1,0,0:0:0:0:
256,192,135742,1,8,0:0:0:0:
182,192,135830,1,8,0:0:0:0:
36,192,135918,128,0,136448:0:0:0:0:
109,192,135918,1,0,0:0:0:0:
402,192,135918,1,0,0:0:0:0:
256,192,136095,1,2,0:0:0:0:
329,192,136271,1,8,0:0:0:0:
475,192,136271,1,8,0:0:0:0:
182,192,136448,128,0,136977:0:0:0:0:
402,192,136448,1,0,0:0:0:0:
109,192,136624,1,2,0:0:0:0:
329,192,136624,1,0,0:0:0:0:
256,192,136801,1,0,0:0:0:0:
475,192,136801,1,0,0:0:0:0:
36,192,136977,1,8,0:0:0:0:
329,192,136977,1,0,0:0:0:0:
402,192,136977,1,0,0:0:0:0:
256,192,137065,1,0,0:0:0:0:
182,192,137154,1,8,0:0:0:0:
109,192,137242,1,8,0:0:0:0:
36,192,137330,1,0,0:0:0:0:
475,192,137330,1,0,0:0:0:0:
329,192,137330,1,0,0:0:0:0:
109,192,137507,1,8,0:0:0:0:
402,192,137507,1,0,0:0:0:0:
36,192,137683,1,8,0:0:0:0:
475,192,137683,1,8,0:0:0:0:
109,192,137860,1,8,0:0:0:0:
329,192,137860,1,0,0:0:0:0:
182,192,137948,1,8,0:0:0:0:
402,192,137948,1,0,0:0:0:0:
256,192,138036,1,0,0:0:0:0:
475,192,138036,1,0,0:0:0:0:
329,192,138212,1,0,0:0:0:0:
109,192,138212,1,0,0:0:0:0:
36,192,138389,1,8,0:0:0:0:
256,192,138389,1,0,0:0:0:0:
475,192,138389,1,0,0:0:0:0:
182,192,138565,1,2,0:0:0:0:
402,192,138565,1,0,0:0:0:0:
109,192,138742,5,0,0:0:0:0:
329,192,138742,1,0,0:0:0:0:
182,192,138918,1,0,0:0:0:0:
402,192,138918,1,0,0:0:0:0:
475,192,139095,5,8,0:0:0:0:
256,192,139095,1,0,0:0:0:0:
329,192,139271,1,8,0:0:0:0:
109,192,139271,1,0,0:0:0:0:
36,192,139360,1,8,0:0:0:0:
182,192,139448,1,0,0:0:0:0:
402,192,139448,1,0,0:0:0:0:
475,192,139448,1,0,0:0:0:0:
36,192,139536,1,0,0:0:0:0:
329,192,139624,1,0,0:0:0:0:
109,192,139624,1,0,0:0:0:0:
182,192,139801,1,8,0:0:0:0:
402,192,139801,1,0,0:0:0:0:
475,192,139801,1,0,0:0:0:0:
329,192,139977,1,0,0:0:0:0:
109,192,139977,1,0,0:0:0:0:
36,192,140154,5,8,0:0:0:0:
475,192,140154,1,8,0:0:0:0:
36,192,140330,128,8,140683:0:0:0:0:
475,192,140330,128,8,140683:0:0:0:0:
182,192,140683,1,8,0:0:0:0:
329,192,140683,1,8,0:0:0:0:
182,192,140860,128,8,141212:0:0:0:0:
329,192,140860,128,0,141212:0:0:0:0:
109,192,141212,1,8,0:0:0:0:
402,192,141212,1,0,0:0:0:0:
109,192,141389,128,8,141742:0:0:0:0:
402,192,141389,128,8,141742:0:0:0:0:
256,192,141742,5,8,0:0:0:0:
36,192,141742,1,8,0:0:0:0:
475,192,141742,1,0,0:0:0:0:
475,192,141918,128,8,142271:0:0:0:0:
36,192,141918,128,8,142271:0:0:0:0:
109,192,142271,128,0,142624:0:0:0:0:
402,192,142271,128,0,142624:0:0:0:0:
256,192,142624,128,0,142977:0:0:0:0:
36,192,142977,5,4,0:0:0:0:
182,192,142977,1,0,0:0:0:0:
475,192,142977,1,0,0:0:0:0:
329,192,142977,1,0,0:0:0:0:
109,192,143330,1,0,0:0:0:0:
256,192,143507,1,2,0:0:0:0:
475,192,143860,1,2,0:0:0:0:
329,192,144212,1,2,0:0:0:0:
182,192,144389,1,0,0:0:0:0:
109,192,144742,1,0,0:0:0:0:
329,192,144918,1,2,0:0:0:0:
402,192,145271,1,2,0:0:0:0:
475,192,145624,1,2,0:0:0:0:
256,192,145801,1,0,0:0:0:0:
109,192,146154,1,0,0:0:0:0:
402,192,146330,1,2,0:0:0:0:
256,192,146683,1,2,0:0:0:0:
402,192,147036,1,2,0:0:0:0:
36,192,147212,1,8,0:0:0:0:
475,192,147212,1,0,0:0:0:0:
36,192,147389,1,8,0:0:0:0:
475,192,147389,1,0,0:0:0:0:
36,192,147565,1,8,0:0:0:0:
475,192,147565,1,0,0:0:0:0:
109,192,147742,128,8,148095:0:0:0:0:
402,192,147742,128,0,148095:0:0:0:0:
36,192,148095,1,4,0:0:0:0:
475,192,148095,1,0,0:0:0:0:
256,192,148095,128,0,148624:0:0:0:0:
36,192,148448,1,8,0:0:0:0:
109,192,148536,1,8,0:0:0:0:
329,192,148624,1,4,0:0:0:0:
475,192,148624,1,0,0:0:0:0:
182,192,148624,1,0,0:0:0:0:
36,192,148801,1,0,0:0:0:0:
182,192,148977,1,2,0:0:0:0:
329,192,148977,1,0,0:0:0:0:
475,192,148977,1,0,0:0:0:0:
36,192,149154,1,0,0:0:0:0:
182,192,149330,1,8,0:0:0:0:
402,192,149330,1,8,0:0:0:0:
256,192,149330,1,0,0:0:0:0:
109,192,149507,1,0,0:0:0:0:
329,192,149507,1,0,0:0:0:0:
182,192,149683,1,2,0:0:0:0:
475,192,149683,1,0,0:0:0:0:
256,192,149683,1,0,0:0:0:0:
109,192,149860,1,8,0:0:0:0:
402,192,149860,1,0,0:0:0:0:
256,192,150036,1,8,0:0:0:0:
36,192,150036,1,0,0:0:0:0:
475,192,150036,1,0,0:0:0:0:
109,192,150036,128,0,151448:0:0:0:0:
329,192,150212,1,8,0:0:0:0:
182,192,150389,1,8,0:0:0:0:
256,192,150389,1,8,0:0:0:0:
402,192,150565,1,2,0:0:0:0:
36,192,150565,1,0,0:0:0:0:
182,192,150742,1,8,0:0:0:0:
329,192,150742,1,8,0:0:0:0:
475,192,150742,1,0,0:0:0:0:
182,192,150918,1,8,0:0:0:0:
36,192,150918,1,0,0:0:0:0:
402,192,150918,1,0,0:0:0:0:
182,192,151095,1,8,0:0:0:0:
329,192,151095,1,8,0:0:0:0:
402,192,151095,1,0,0:0:0:0:
475,192,151271,1,8,0:0:0:0:
36,192,151271,1,0,0:0:0:0:
329,192,151271,1,0,0:0:0:0:
256,192,151448,128,8,152860:0:0:0:0:
402,192,151448,1,8,0:0:0:0:
182,192,151801,1,2,0:0:0:0:
36,192,152154,1,0,0:0:0:0:
475,192,152154,1,0,0:0:0:0:
329,192,152507,1,2,0:0:0:0:
182,192,152683,1,8,0:0:0:0:
109,192,152860,128,0,154271:0:0:0:0:
475,192,152860,1,0,0:0:0:0:
329,192,152860,1,0,0:0:0:0:
182,192,153036,1,0,0:0:0:0:
329,192,153212,1,2,0:0:0:0:
36,192,153565,1,8,0:0:0:0:
475,192,153565,1,8,0:0:0:0:
475,192,153918,1,0,0:0:0:0:
402,192,154007,1,0,0:0:0:0:
329,192,154095,1,0,0:0:0:0:
256,192,154183,1,0,0:0:0:0:
182,192,154271,1,4,0:0:0:0:
36,192,154271,1,0,0:0:0:0:
475,192,154271,128,0,154624:0:0:0:0:
256,192,154448,1,0,0:0:0:0:
329,192,154624,1,8,0:0:0:0:
402,192,154624,1,0,0:0:0:0:
36,192,154624,1,0,0:0:0:0:
182,192,154801,128,0,155154:0:0:0:0:
109,192,154801,1,0,0:0:0:0:
329,192,154801,1,0,0:0:0:0:
402,192,154889,1,0,0:0:0:0:
256,192,154977,1,2,0:0:0:0:
475,192,154977,1,0,0:0:0:0:
109,192,155154,128,0,155330:0:0:0:0:
329,192,155154,1,0,0:0:0:0:
475,192,155330,128,8,155507:0:0:0:0:
256,192,155330,1,8,0:0:0:0:
36,192,155330,1,0,0:0:0:0:
329,192,155507,128,8,155683:0:0:0:0:
182,192,155507,1,0,0:0:0:0:
475,192,155683,128,8,155859:0:0:0:0:
109,192,155683,1,8,0:0:0:0:
36,192,155683,1,0,0:0:0:0:
402,192,155859,128,0,156036:0:0:0:0:
182,192,155859,1,0,0:0:0:0:
256,192,156036,128,8,156212:0:0:0:0:
36,192,156036,1,0,0:0:0:0:
109,192,156036,1,0,0:0:0:0:
329,192,156212,128,2,156565:0:0:0:0:
182,192,156212,1,0,0:0:0:0:
402,192,156389,1,0,0:0:0:0:
36,192,156389,1,0,0:0:0:0:
109,192,156565,128,2,156742:0:0:0:0:
475,192,156565,1,2,0:0:0:0:
256,192,156742,1,8,0:0:0:0:
36,192,156742,1,0,0:0:0:0:
182,192,156742,1,0,0:0:0:0:
329,192,156830,1,8,0:0:0:0:
402,192,156918,1,2,0:0:0:0:
475,192,157007,1,8,0:0:0:0:
256,192,157095,128,2,158507:0:0:0:0:
329,192,157095,1,2,0:0:0:0:
36,192,157095,1,0,0:0:0:0:
182,192,157271,1,2,0:0:0:0:
329,192,157359,1,8,0:0:0:0:
402,192,157448,1,8,0:0:0:0:
475,192,157448,1,0,0:0:0:0:
36,192,157448,1,0,0:0:0:0:
182,192,157624,128,0,157889:0:0:0:0:
109,192,157624,1,0,0:0:0:0:
329,192,157801,1,0,0:0:0:0:
402,192,157977,1,2,0:0:0:0:
109,192,157977,1,0,0:0:0:0:
36,192,158154,1,8,0:0:0:0:
475,192,158154,1,0,0:0:0:0:
329,192,158330,128,2,158507:0:0:0:0:
182,192,158330,128,0,158507:0:0:0:0:
36,192,158330,1,0,0:0:0:0:
475,192,158330,1,0,0:0:0:0:
402,192,158418,1,0,0:0:0:0:
109,192,158418,1,0,0:0:0:0:
36,192,158507,1,8,0:0:0:0:
475,192,158507,1,8,0:0:0:0:
475,192,158683,1,8,0:0:0:0:
36,192,158683,1,0,0:0:0:0:
36,192,159036,1,8,0:0:0:0:
329,192,159036,1,0,0:0:0:0:
109,192,159124,1,8,0:0:0:0:
402,192,159124,1,0,0:0:0:0:
182,192,159212,1,8,0:0:0:0:
475,192,159212,1,0,0:0:0:0:
329,192,159389,1,8,0:0:0:0:
256,192,159477,1,8,0:0:0:0:
182,192,159565,1,8,0:0:0:0:
36,192,159565,1,0,0:0:0:0:
256,192,159742,1,8,0:0:0:0:
182,192,159830,1,0,0:0:0:0:
475,192,159918,1,4,0:0:0:0:
109,192,159918,1,0,0:0:0:0:
36,192,159918,1,0,0:0:0:0:
182,192,160095,1,0,0:0:0:0:
329,192,160183,1,0,0:0:0:0:
36,192,160271,1,8,0:0:0:0:
475,192,160271,1,0,0:0:0:0:
182,192,160448,1,2,0:0:0:0:
402,192,160448,1,0,0:0:0:0:
256,192,160801,1,2,0:0:0:0:
36,192,160801,1,2,0:0:0:0:
329,192,161154,1,2,0:0:0:0:
109,192,161154,1,2,0:0:0:0:
402,192,161507,1,2,0:0:0:0:
182,192,161507,1,2,0:0:0:0:
256,192,161859,1,2,0:0:0:0:
475,192,161859,1,2,0:0:0:0:
402,192,162212,1,2,0:0:0:0:
109,192,162212,1,0,0:0:0:0:
182,192,162389,1,8,0:0:0:0:
475,192,162389,1,0,0:0:0:0:
475,192,162742,1,8,0:0:0:0:
36,192,162742,1,8,0:0:0:0:
402,192,162830,1,2,0:0:0:0:
329,192,162918,1,8,0:0:0:0:
256,192,163007,1,0,0:0:0:0:
36,192,163095,1,8,0:0:0:0:
475,192,163095,1,8,0:0:0:0:
109,192,163183,1,2,0:0:0:0:
182,192,163271,1,8,0:0:0:0:
256,192,163359,1,0,0:0:0:0:
475,192,163448,1,8,0:0:0:0:
36,192,163448,1,8,0:0:0:0:
402,192,163536,1,2,0:0:0:0:
329,192,163624,1,8,0:0:0:0:
256,192,163712,1,0,0:0:0:0:
36,192,163801,1,8,0:0:0:0:
109,192,163977,1,8,0:0:0:0:
256,192,164065,1,2,0:0:0:0:
475,192,164154,1,8,0:0:0:0:
402,192,164154,1,0,0:0:0:0:
36,192,164154,1,0,0:0:0:0:
256,192,164330,1,0,0:0:0:0:
402,192,164507,1,8,0:0:0:0:
109,192,164507,1,0,0:0:0:0:
329,192,164683,1,0,0:0:0:0:
475,192,164683,1,0,0:0:0:0:
402,192,164859,1,2,0:0:0:0:
256,192,164859,1,2,0:0:0:0:
182,192,165036,1,8,0:0:0:0:
329,192,165036,1,0,0:0:0:0:
36,192,165124,1,0,0:0:0:0:
256,192,165212,1,8,0:0:0:0:
402,192,165212,1,2,0:0:0:0:
329,192,165389,1,8,0:0:0:0:
182,192,165389,1,0,0:0:0:0:
109,192,165477,1,8,0:0:0:0:
256,192,165565,1,2,0:0:0:0:
475,192,165565,1,4,0:0:0:0:
36,192,165565,1,0,0:0:0:0:
402,192,165565,128,0,166977:0:0:0:0:
109,192,165742,1,0,0:0:0:0:
182,192,165918,1,2,0:0:0:0:
256,192,166095,1,0,0:0:0:0:
182,192,166271,1,2,0:0:0:0:
109,192,166448,1,0,0:0:0:0:
182,192,166624,1,2,0:0:0:0:
256,192,166801,1,0,0:0:0:0:
182,192,166977,1,2,0:0:0:0:
256,192,166977,128,2,168389:0:0:0:0:
475,192,166977,1,0,0:0:0:0:
109,192,167154,1,0,0:0:0:0:
329,192,167330,1,2,0:0:0:0:
182,192,167507,1,0,0:0:0:0:
402,192,167683,1,2,0:0:0:0:
109,192,167859,1,0,0:0:0:0:
329,192,168036,1,2,0:0:0:0:
36,192,168212,1,2,0:0:0:0:
109,192,168301,1,2,0:0:0:0:
182,192,168389,1,2,0:0:0:0:
475,192,168389,128,0,169801:0:0:0:0:
402,192,168389,1,0,0:0:0:0:
329,192,168565,1,0,0:0:0:0:
256,192,168742,1,2,0:0:0:0:
402,192,168918,1,0,0:0:0:0:
109,192,168918,1,0,0:0:0:0:
256,192,169271,1,0,0:0:0:0:
182,192,169624,1,0,0:0:0:0:
256,192,169801,128,2,171212:0:0:0:0:
109,192,169801,1,0,0:0:0:0:
36,192,169977,1,0,0:0:0:0:
402,192,169977,1,0,0:0:0:0:
475,192,170154,1,0,0:0:0:0:
109,192,170154,1,0,0:0:0:0:
402,192,170330,1,2,0:0:0:0:
36,192,170330,1,0,0:0:0:0:
329,192,170683,1,2,0:0:0:0:
182,192,170683,1,0,0:0:0:0:
329,192,170859,1,2,0:0:0:0:
182,192,170859,1,2,0:0:0:0:
329,192,171036,1,2,0:0:0:0:
182,192,171036,1,2,0:0:0:0:
36,192,171212,1,4,0:0:0:0:
475,192,171212,1,0,0:0:0:0:
182,192,171212,1,0,0:0:0:0:
329,192,171212,1,0,0:0:0:0:
402,192,171212,128,0,172624:0:0:0:0:
109,192,171389,1,0,0:0:0:0:
329,192,171565,1,8,0:0:0:0:
182,192,171565,1,0,0:0:0:0:
36,192,171565,1,0,0:0:0:0:
256,192,171742,128,0,172624:0:0:0:0:
109,192,171742,1,0,0:0:0:0:
182,192,171918,1,2,0:0:0:0:
475,192,171918,1,0,0:0:0:0:
329,192,172095,1,0,0:0:0:0:
182,192,172271,1,8,0:0:0:0:
475,192,172271,1,8,0:0:0:0:
36,192,172271,1,0,0:0:0:0:
109,192,172448,1,8,0:0:0:0:
36,192,172624,128,8,173154:0:0:0:0:
329,192,172624,1,8,0:0:0:0:
475,192,172624,1,0,0:0:0:0:
109,192,172801,1,0,0:0:0:0:
182,192,172977,1,8,0:0:0:0:
402,192,172977,1,0,0:0:0:0:
475,192,172977,1,0,0:0:0:0:
329,192,173154,128,0,174036:0:0:0:0:
256,192,173154,1,0,0:0:0:0:
109,192,173330,1,2,0:0:0:0:
402,192,173330,1,0,0:0:0:0:
256,192,173507,1,0,0:0:0:0:
182,192,173683,1,8,0:0:0:0:
402,192,173683,1,0,0:0:0:0:
36,192,173683,1,0,0:0:0:0:
109,192,173859,1,0,0:0:0:0:
475,192,174036,128,8,174212:0:0:0:0:
182,192,174036,1,0,0:0:0:0:
109,192,174212,128,8,174389:0:0:0:0:
256,192,174212,1,8,0:0:0:0:
402,192,174389,128,2,174565:0:0:0:0:
182,192,174389,1,2,0:0:0:0:
329,192,174389,1,0,0:0:0:0:
256,192,174565,128,8,175448:0:0:0:0:
36,192,174565,1,0,0:0:0:0:
109,192,174654,1,8,0:0:0:0:
182,192,174742,1,2,0:0:0:0:
402,192,174742,1,2,0:0:0:0:
36,192,174918,1,8,0:0:0:0:
475,192,174918,1,8,0:0:0:0:
402,192,175095,1,8,0:0:0:0:
329,192,175095,1,8,0:0:0:0:
182,192,175095,1,0,0:0:0:0:
109,192,175271,1,8,0:0:0:0:
36,192,175448,128,0,175977:0:0:0:0:
402,192,175448,1,0,0:0:0:0:
182,192,175448,1,0,0:0:0:0:
109,192,175624,1,8,0:0:0:0:
329,192,175624,1,0,0:0:0:0:
182,192,175801,1,8,0:0:0:0:
402,192,175801,1,0,0:0:0:0:
475,192,175977,128,4,176859:0:0:0:0:
329,192,175977,1,4,0:0:0:0:
256,192,175977,128,0,176330:0:0:0:0:
182,192,176154,1,0,0:0:0:0:
109,192,176154,1,0,0:0:0:0:
329,192,176330,128,8,176507:0:0:0:0:
36,192,176330,1,8,0:0:0:0:
182,192,176507,128,4,176859:0:0:0:0:
402,192,176507,1,4,0:0:0:0:
36,192,176507,1,0,0:0:0:0:
256,192,176507,1,0,0:0:0:0:
36,192,176859,128,4,178271:0:0:0:0:
402,192,176859,1,0,0:0:0:0:
256,192,176859,1,0,0:0:0:0:
109,192,176859,1,0,0:0:0:0:
329,192,177036,1,2,0:0:0:0:
256,192,177212,5,8,0:0:0:0:
182,192,177212,1,8,0:0:0:0:
402,192,177212,1,0,0:0:0:0:
475,192,177389,1,2,0:0:0:0:
402,192,177477,1,0,0:0:0:0:
329,192,177565,1,8,0:0:0:0:
182,192,177565,1,0,0:0:0:0:
109,192,177565,1,0,0:0:0:0:
256,192,177742,1,2,0:0:0:0:
182,192,177830,1,0,0:0:0:0:
109,192,177918,1,8,0:0:0:0:
402,192,177918,1,0,0:0:0:0:
329,192,177918,1,0,0:0:0:0:
182,192,178095,1,0,0:0:0:0:
256,192,178183,1,2,0:0:0:0:
475,192,178271,128,8,179683:0:0:0:0:
402,192,178271,1,0,0:0:0:0:
329,192,178271,1,0,0:0:0:0:
109,192,178271,1,0,0:0:0:0:
256,192,178448,1,0,0:0:0:0:
329,192,178536,1,0,0:0:0:0:
402,192,178624,1,8,0:0:0:0:
109,192,178624,1,0,0:0:0:0:
36,192,178624,1,0,0:0:0:0:
329,192,178801,1,2,0:0:0:0:
256,192,178889,1,0,0:0:0:0:
182,192,178977,128,8,179683:0:0:0:0:
402,192,178977,1,8,0:0:0:0:
109,192,178977,1,0,0:0:0:0:
256,192,179154,1,2,0:0:0:0:
36,192,179330,1,8,0:0:0:0:
329,192,179330,1,0,0:0:0:0:
109,192,179418,1,0,0:0:0:0:
402,192,179418,1,0,0:0:0:0:
36,192,179507,1,8,0:0:0:0:
329,192,179507,1,0,0:0:0:0:
109,192,179595,1,2,0:0:0:0:
402,192,179595,1,0,0:0:0:0:
329,192,179683,128,8,181095:0:0:0:0:
256,192,179683,1,0,0:0:0:0:
36,192,179683,128,0,180036:0:0:0:0:
182,192,179859,1,0,0:0:0:0:
402,192,179859,1,0,0:0:0:0:
256,192,180036,1,8,0:0:0:0:
475,192,180036,128,8,180389:0:0:0:0:
182,192,180212,1,0,0:0:0:0:
109,192,180389,1,8,0:0:0:0:
402,192,180389,1,8,0:0:0:0:
36,192,180565,1,0,0:0:0:0:
109,192,180742,1,8,0:0:0:0:
475,192,180742,1,0,0:0:0:0:
182,192,180742,1,0,0:0:0:0:
402,192,180918,1,0,0:0:0:0:
109,192,181007,1,0,0:0:0:0:
36,192,181095,1,8,0:0:0:0:
475,192,181095,1,8,0:0:0:0:
256,192,181095,1,8,0:0:0:0:
36,192,181271,1,0,0:0:0:0:
475,192,181271,1,0,0:0:0:0:
256,192,181271,1,0,0:0:0:0:
109,192,181448,1,8,0:0:0:0:
402,192,181448,1,0,0:0:0:0:
182,192,181624,1,0,0:0:0:0:
475,192,181624,128,0,182154:0:0:0:0:
36,192,181624,128,0,182154:0:0:0:0:
329,192,181624,1,0,0:0:0:0:
256,192,181801,1,0,0:0:0:0:
109,192,181977,1,2,0:0:0:0:
402,192,181977,1,0,0:0:0:0:
182,192,182154,1,8,0:0:0:0:
329,192,182154,1,0,0:0:0:0:
256,192,182154,1,0,0:0:0:0:
36,192,182330,1,8,0:0:0:0:
475,192,182330,1,0,0:0:0:0:
109,192,182418,1,0,0:0:0:0:
402,192,182418,1,0,0:0:0:0:
36,192,182507,1,4,0:0:0:0:
182,192,182507,1,0,0:0:0:0:
329,192,182507,1,0,0:0:0:0:
475,192,182507,1,0,0:0:0:0:
256,192,182507,128,0,183918:0:0:0:0:
109,192,182683,1,2,0:0:0:0:
402,192,182683,1,0,0:0:0:0:
36,192,182771,1,0,0:0:0:0:
475,192,182771,1,0,0:0:0:0:
329,192,182859,1,8,0:0:0:0:
182,192,182859,1,0,0:0:0:0:
109,192,183036,128,2,183918:0:0:0:0:
36,192,183036,1,0,0:0:0:0:
475,192,183036,1,0,0:0:0:0:
329,192,183124,1,0,0:0:0:0:
182,192,183124,1,0,0:0:0:0:
36,192,183212,1,8,0:0:0:0:
475,192,183212,1,8,0:0:0:0:
402,192,183389,128,2,183918:0:0:0:0:
329,192,183389,1,0,0:0:0:0:
475,192,183389,1,0,0:0:0:0:
182,192,183477,1,0,0:0:0:0:
36,192,183477,1,0,0:0:0:0:
329,192,183565,1,8,0:0:0:0:
475,192,183565,1,8,0:0:0:0:
36,192,183742,1,2,0:0:0:0:
182,192,183742,1,0,0:0:0:0:
475,192,183918,128,8,185330:0:0:0:0:
329,192,183918,128,8,184095:0:0:0:0:
402,192,184095,128,2,184271:0:0:0:0:
36,192,184095,1,0,0:0:0:0:
329,192,184271,128,8,184448:0:0:0:0:
109,192,184271,1,8,0:0:0:0:
182,192,184271,1,0,0:0:0:0:
256,192,184448,128,2,184624:0:0:0:0:
36,192,184448,1,0,0:0:0:0:
109,192,184624,128,8,184801:0:0:0:0:
402,192,184624,1,8,0:0:0:0:
182,192,184624,1,0,0:0:0:0:
182,192,184801,128,2,184977:0:0:0:0:
329,192,184801,1,0,0:0:0:0:
256,192,184977,128,8,185330:0:0:0:0:
36,192,184977,1,8,0:0:0:0:
402,192,184977,1,0,0:0:0:0:
109,192,185065,5,0,0:0:0:0:
402,192,185154,128,8,185330:0:0:0:0:
36,192,185154,1,0,0:0:0:0:
109,192,185242,1,8,0:0:0:0:
329,192,185330,1,0,0:0:0:0:
182,192,185330,1,0,0:0:0:0:
109,192,185507,1,8,0:0:0:0:
256,192,185507,1,8,0:0:0:0:
182,192,185683,1,8,0:0:0:0:
36,192,185683,1,0,0:0:0:0:
475,192,185683,1,0,0:0:0:0:
256,192,185859,128,8,186212:0:0:0:0:
36,192,185859,1,0,0:0:0:0:
329,192,185859,1,0,0:0:0:0:
109,192,185948,1,8,0:0:0:0:
402,192,185948,1,0,0:0:0:0:
182,192,186036,1,0,0:0:0:0:
475,192,186036,1,0,0:0:0:0:
182,192,186212,128,8,186389:0:0:0:0:
109,192,186212,1,0,0:0:0:0:
329,192,186212,1,0,0:0:0:0:
256,192,186389,1,8,0:0:0:0:
475,192,186389,1,0,0:0:0:0:
36,192,186389,128,0,186565:0:0:0:0:
182,192,186565,128,8,186742:0:0:0:0:
402,192,186565,1,0,0:0:0:0:
475,192,186654,1,0,0:0:0:0:
36,192,186742,128,8,187095:0:0:0:0:
256,192,186742,128,0,187095:0:0:0:0:
329,192,186742,1,0,0:0:0:0:
109,192,186918,1,8,0:0:0:0:
329,192,186918,1,8,0:0:0:0:
182,192,187095,1,8,0:0:0:0:
402,192,187095,1,0,0:0:0:0:
256,192,187271,128,8,187624:0:0:0:0:
475,192,187271,128,0,187624:0:0:0:0:
329,192,187271,1,0,0:0:0:0:
109,192,187271,1,0,0:0:0:0:
402,192,187448,1,8,0:0:0:0:
182,192,187448,1,8,0:0:0:0:
109,192,187624,1,8,0:0:0:0:
329,192,187624,1,8,0:0:0:0:
109,192,187801,1,8,0:0:0:0:
256,192,187801,1,8,0:0:0:0:
402,192,187801,1,0,0:0:0:0:
36,192,187977,1,8,0:0:0:0:
182,192,187977,1,8,0:0:0:0:
329,192,187977,1,0,0:0:0:0:
109,192,188154,1,4,0:0:0:0:
402,192,188154,1,0,0:0:0:0:
256,192,188154,128,0,189565:0:0:0:0:
36,192,189212,1,0,0:0:0:0:
109,192,189301,1,0,0:0:0:0:
182,192,189389,1,0,0:0:0:0:
402,192,189477,1,0,0:0:0:0:
36,192,189565,128,0,189830:0:0:0:0:
329,192,189565,1,0,0:0:0:0:
475,192,189742,128,0,190007:0:0:0:0:
36,192,189918,128,0,190183:0:0:0:0:
475,192,190095,128,0,190359:0:0:0:0:
36,192,190271,128,0,190536:0:0:0:0:
475,192,190448,128,0,190712:0:0:0:0:
36,192,190624,128,0,190977:0:0:0:0:
475,192,190801,128,0,190977:0:0:0:0:
256,192,190977,1,4,0:0:0:0:
109,192,190977,1,4,0:0:0:0:
402,192,190977,128,0,191154:0:0:0:0:
36,192,191154,1,2,0:0:0:0:
182,192,191154,128,0,191330:0:0:0:0:
109,192,191242,1,0,0:0:0:0:
475,192,191330,1,8,0:0:0:0:
329,192,191330,128,0,191507:0:0:0:0:
256,192,191330,1,0,0:0:0:0:
475,192,191507,128,2,191859:0:0:0:0:
256,192,191507,1,0,0:0:0:0:
109,192,191507,1,0,0:0:0:0:
36,192,191683,1,0,0:0:0:0:
182,192,191683,1,0,0:0:0:0:
256,192,191859,128,2,192389:0:0:0:0:
109,192,191859,1,0,0:0:0:0:
329,192,191859,1,0,0:0:0:0:
402,192,192036,1,8,0:0:0:0:
182,192,192036,1,8,0:0:0:0:
36,192,192036,1,0,0:0:0:0:
109,192,192212,1,8,0:0:0:0:
475,192,192212,128,0,192389:0:0:0:0:
182,192,192301,1,8,0:0:0:0:
402,192,192389,128,0,193801:0:0:0:0:
109,192,192389,1,0,0:0:0:0:
329,192,192389,1,0,0:0:0:0:
256,192,192565,1,2,0:0:0:0:
329,192,192742,1,8,0:0:0:0:
182,192,192742,1,0,0:0:0:0:
36,192,192742,1,0,0:0:0:0:
256,192,192918,1,0,0:0:0:0:
182,192,193095,1,2,0:0:0:0:
109,192,193271,1,0,0:0:0:0:
256,192,193271,1,0,0:0:0:0:
329,192,193448,1,8,0:0:0:0:
36,192,193448,1,0,0:0:0:0:
475,192,193448,1,0,0:0:0:0:
109,192,193624,1,8,0:0:0:0:
182,192,193624,1,0,0:0:0:0:
256,192,193712,1,8,0:0:0:0:
475,192,193801,128,0,195212:0:0:0:0:
36,192,193801,1,0,0:0:0:0:
329,192,193801,1,0,0:0:0:0:
109,192,193977,1,2,0:0:0:0:
256,192,194065,1,0,0:0:0:0:
36,192,194154,1,8,0:0:0:0:
329,192,194154,1,8,0:0:0:0:
402,192,194154,1,0,0:0:0:0:
182,192,194330,1,0,0:0:0:0:
109,192,194507,1,2,0:0:0:0:
256,192,194507,1,0,0:0:0:0:
182,192,194683,1,0,0:0:0:0:
256,192,194859,1,8,0:0:0:0:
402,192,194859,1,0,0:0:0:0:
36,192,194859,1,0,0:0:0:0:
182,192,195036,1,8,0:0:0:0:
109,192,195124,1,8,0:0:0:0:
36,192,195212,1,0,0:0:0:0:
329,192,195212,1,0,0:0:0:0:
256,192,195212,128,0,195565:0:0:0:0:
109,192,195389,1,0,0:0:0:0:
402,192,195389,1,0,0:0:0:0:
475,192,195565,1,8,0:0:0:0:
182,192,195565,1,0,0:0:0:0:
329,192,195565,128,0,195742:0:0:0:0:
109,192,195742,1,0,0:0:0:0:
402,192,195742,128,0,196095:0:0:0:0:
36,192,195918,1,0,0:0:0:0:
256,192,196095,128,0,196448:0:0:0:0:
109,192,196095,1,0,0:0:0:0:
36,192,196271,1,0,0:0:0:0:
475,192,196271,1,0,0:0:0:0:
109,192,196359,1,0,0:0:0:0:
402,192,196359,1,0,0:0:0:0:
182,192,196448,1,0,0:0:0:0:
329,192,196448,1,0,0:0:0:0:
36,192,196624,1,4,0:0:0:0:
182,192,196624,1,4,0:0:0:0:
329,192,196624,1,0,0:0:0:0:
475,192,196624,1,0,0:0:0:0:
402,192,196624,128,0,196801:0:0:0:0:
256,192,196801,128,0,196977:0:0:0:0:
109,192,196801,1,0,0:0:0:0:
109,192,196977,128,8,197154:0:0:0:0:
329,192,196977,1,0,0:0:0:0:
475,192,196977,1,0,0:0:0:0:
36,192,196977,1,0,0:0:0:0:
402,192,197154,128,0,197507:0:0:0:0:
475,192,197154,1,0,0:0:0:0:
182,192,197154,1,0,0:0:0:0:
36,192,197330,1,2,0:0:0:0:
329,192,197330,1,0,0:0:0:0:
256,192,197507,128,0,197859:0:0:0:0:
182,192,197507,1,0,0:0:0:0:
475,192,197683,1,8,0:0:0:0:
109,192,197683,1,8,0:0:0:0:
402,192,197859,128,8,198036:0:0:0:0:
36,192,197859,1,0,0:0:0:0:
329,192,197948,1,8,0:0:0:0:
109,192,198036,128,0,198212:0:0:0:0:
36,192,198036,1,0,0:0:0:0:
475,192,198036,1,0,0:0:0:0:
182,192,198212,128,0,198389:0:0:0:0:
329,192,198212,1,0,0:0:0:0:
256,192,198389,128,8,198565:0:0:0:0:
402,192,198389,1,0,0:0:0:0:
36,192,198389,1,0,0:0:0:0:
475,192,198389,1,0,0:0:0:0:
475,192,198565,128,0,198918:0:0:0:0:
329,192,198565,1,0,0:0:0:0:
182,192,198742,1,2,0:0:0:0:
402,192,198742,1,0,0:0:0:0:
36,192,198918,128,0,199271:0:0:0:0:
329,192,198918,1,0,0:0:0:0:
109,192,199095,1,8,0:0:0:0:
256,192,199095,1,8,0:0:0:0:
402,192,199095,1,0,0:0:0:0:
182,192,199271,1,8,0:0:0:0:
329,192,199359,1,8,0:0:0:0:
109,192,199448,1,0,0:0:0:0:
402,192,199448,1,0,0:0:0:0:
475,192,199448,128,0,200859:0:0:0:0:
36,192,199624,1,8,0:0:0:0:
329,192,199624,1,8,0:0:0:0:
36,192,199801,1,8,0:0:0:0:
329,192,199801,1,8,0:0:0:0:
109,192,199977,1,0,0:0:0:0:
402,192,199977,1,0,0:0:0:0:
256,192,200065,1,8,0:0:0:0:
109,192,200154,1,0,0:0:0:0:
402,192,200154,1,0,0:0:0:0:
182,192,200330,1,0,0:0:0:0:
329,192,200330,1,0,0:0:0:0:
402,192,200507,1,8,0:0:0:0:
256,192,200507,1,0,0:0:0:0:
109,192,200507,1,0,0:0:0:0:
182,192,200683,1,0,0:0:0:0:
256,192,200683,1,0,0:0:0:0:
109,192,200771,1,0,0:0:0:0:
329,192,200771,1,0,0:0:0:0:
256,192,200859,128,0,202271:0:0:0:0:
36,192,200859,1,0,0:0:0:0:
402,192,200859,1,0,0:0:0:0:
182,192,201036,1,8,0:0:0:0:
402,192,201036,1,8,0:0:0:0:
182,192,201212,1,8,0:0:0:0:
402,192,201212,1,0,0:0:0:0:
109,192,201389,1,0,0:0:0:0:
475,192,201389,1,0,0:0:0:0:
182,192,201477,1,8,0:0:0:0:
402,192,201477,1,0,0:0:0:0:
109,192,201565,1,0,0:0:0:0:
475,192,201565,1,0,0:0:0:0:
402,192,201742,1,8,0:0:0:0:
475,192,201742,1,8,0:0:0:0:
109,192,201742,1,0,0:0:0:0:
109,192,201918,1,8,0:0:0:0:
402,192,201918,1,0,0:0:0:0:
475,192,201918,1,0,0:0:0:0:
109,192,202095,1,8,0:0:0:0:
402,192,202095,1,8,0:0:0:0:
475,192,202095,1,0,0:0:0:0:
109,192,202271,1,4,0:0:0:0:
475,192,202271,1,0,0:0:0:0:
402,192,202271,1,0,0:0:0:0:
329,192,202271,128,0,205095:0:0:0:0:
36,192,202271,1,0,0:0:0:0:
182,192,202977,128,0,205095:0:0:0:0:
109,192,203330,128,0,205095:0:0:0:0:
36,192,203683,128,0,205095:0:0:0:0:
402,192,204036,128,0,205095:0:0:0:0:
475,192,204389,128,0,205095:0:0:0:0:
