osu file format v13

[General]
AudioFilename: Knotts Marathon [NEW].mp3
AudioLeadIn: 0
PreviewTime: 265709
Countdown: 0
SampleSet: Soft
StackLeniency: 0.7
Mode: 0
LetterboxInBreaks: 1
WidescreenStoryboard: 0

[Editor]
Bookmarks: 85339,161930,219080,250850,296188,325263,366896
DistanceSpacing: 0.5
BeatDivisor: 4
GridSize: 4
TimelineZoom: 1.5

[Metadata]
Title:Songs Compilation
TitleUnicode:Songs Compilation
Artist:Sana
ArtistUnicode:Sana
Creator:Knotts
Version:InSana
Source:
Tags:HoneyWorks Hanatan ラズベリーモンスタ 告白ライバル宣言 未来図 金曜日のおはよう 告白予行練習 病名恋ワズライ ヤキモチの答え イノコリ先生 テレカクシ思春期
BeatmapID:558157
BeatmapSetID:241713

[Difficulty]
HPDrainRate:6
CircleSize:4
OverallDifficulty:7
ApproachRate:9
SliderMultiplier:1.8
SliderTickRate:1

[Events]
//Background and Video events
0,0,"bglol.png",0,0
//Break Periods
2,85540,91815
2,121706,127622
2,162130,167280
2,219280,224305
2,251050,256213
2,296388,302085
2,325463,330740
2,367096,372269
2,395658,399093
//Storyboard Layer 0 (Background)
//Storyboard Layer 1 (Fail)
//Storyboard Layer 2 (Pass)
//Storyboard Layer 3 (Foreground)
//Storyboard Sound Samples

[TimingPoints]
340,312.5,4,2,1,30,1,0
1590,-100,4,2,1,15,0,0
2683,-133.333333333333,4,2,1,70,0,0
6745,-83.3333333333333,4,2,1,70,0,0
7058,-200,4,2,1,70,0,0
7683,-133.333333333333,4,2,1,70,0,0
11745,-100,4,2,1,70,0,0
12370,-200,4,2,1,70,0,0
12683,-100,4,2,1,70,0,0
24089,-133.333333333333,4,2,1,70,0,0
24714,-200,4,2,1,70,0,0
25183,-100,4,2,1,70,0,0
44401,-100,4,2,1,50,0,0
45183,-100,4,2,1,60,0,0
45339,-125,4,2,1,60,0,0
52840,-125,4,2,1,70,0,0
53776,-200,4,2,1,60,0,0
54714,-100,4,2,1,80,0,0
58464,-100,4,2,1,50,0,0
59089,-100,4,2,1,80,0,0
74245,-133.333333333333,4,2,1,40,0,0
75183,-100,4,2,1,70,0,0
85340,-100,4,2,1,40,0,0
89506,363.636363636364,4,2,1,80,1,0
116051,-125,4,2,1,60,0,0
117142,-125,4,2,1,80,0,0
117506,-125,4,2,1,60,0,0
118596,-125,4,2,1,70,0,0
125526,337.078651685393,4,2,1,70,1,0
128896,-100,4,2,1,40,0,0
129570,-100,4,2,1,40,0,0
130919,-100,4,2,1,80,0,0
135469,-100,4,2,1,50,0,0
136312,-100,4,2,1,80,0,0
151143,-100,4,2,1,50,0,0
152492,-133.333333333333,4,2,1,60,0,0
155188,-100,4,2,1,80,0,0
167880,400,4,2,1,100,1,0
167880,-133.333333333333,4,2,1,70,0,0
179080,-100,4,2,1,60,0,0
179880,-100,4,2,1,80,0,0
224905,324.324324324324,4,2,1,60,1,0
225715,-200,4,2,1,50,0,0
227499,-100,4,2,1,70,0,0
230094,-100,4,2,1,80,0,0
234634,-100,4,2,1,60,0,0
235283,-100,4,2,1,80,0,0
240472,-133.333333333333,4,2,1,60,0,0
240796,-100,4,2,1,80,0,0
249553,-133.333333333333,4,2,1,60,0,0
250634,-133.333333333333,4,2,1,70,0,0
256813,375,4,2,1,70,1,0
295813,-166.666666666667,4,2,1,70,0,0
296094,-166.666666666667,4,2,1,30,0,0
296188,-166.666666666667,4,2,1,80,0,0
302685,315.789473684211,4,2,1,80,1,0
324474,-100,4,2,1,30,0,0
324632,-100,4,2,1,40,0,0
324790,-100,4,2,1,50,0,0
324948,-100,4,2,1,60,0,0
325106,-100,4,2,1,70,0,0
325263,-100,4,2,1,80,0,0
329859,370.37037037037,4,2,1,100,1,0
331340,-133.333333333333,4,2,1,70,0,0
337266,-100,4,2,1,70,0,0
342821,-133.333333333333,4,2,1,70,0,0
343192,-100,4,2,1,70,0,0
360970,-133.333333333333,4,2,1,70,0,0
361340,-100,4,2,1,70,0,0
366155,-166.666666666667,4,2,1,70,0,0
371458,352.941176470588,4,2,1,100,1,0
372869,-133.333333333333,4,2,1,60,0,0
379046,-100,4,2,1,70,0,0
401105,-133.333333333333,4,2,1,60,0,0
404634,-133.333333333333,4,2,1,40,0,0
406752,-100,4,2,1,70,0,0
417163,-100,4,2,1,40,0,0
417340,-100,4,2,1,50,0,0
417428,-100,4,2,1,40,0,0
417605,-100,4,2,1,60,0,0
417781,-100,4,2,1,50,0,0
417869,-100,4,2,1,60,0,0
418046,-133.333333333333,4,2,1,65,0,0
423163,-100,4,2,1,75,0,0
423693,-100,4,2,1,80,0,0

[Colours]
Combo1 : 255,113,116
Combo2 : 252,197,92
Combo3 : 115,230,120
Combo4 : 108,227,213

[HitObjects]
96,88,340,5,2,3:0:0:0:
115,105,965,1,2,3:0:0:0:
202,66,1590,1,2,0:3:0:0:
202,66,1902,1,2,0:3:0:0:
202,66,2215,1,2,0:3:0:0:
266,171,2527,1,0,0:0:0:0:
266,171,2683,6,0,L|252:246,2,67.5000025749208,2|2|2,0:0|0:0|0:0,0:0:0:0:
329,111,3151,1,0,0:0:0:0:
416,100,3308,1,0,0:0:0:0:
464,173,3464,1,0,0:0:0:0:
304,109,3620,2,0,P|309:74|323:34,1,67.5000025749208
419,254,3933,6,0,P|395:229|369:208,1,67.5000025749208,2|2,0:0|0:0,0:0:0:0:
291,300,4245,1,2,0:0:0:0:
354,361,4401,2,0,L|448:348,1,67.5000025749208
502,354,4636,1,0,0:0:0:0:
502,354,4714,2,0,P|494:290|495:213,1,135.000005149842
512,34,5183,5,2,0:0:0:0:
394,151,5339,1,2,0:0:0:0:
408,25,5495,1,2,0:0:0:0:
502,185,5651,2,0,P|488:216|479:262,1,67.5000025749208
354,361,5964,2,0,P|323:346|296:326,1,67.5000025749208,0|0,0:0|0:0,0:0:0:0:
198,360,6276,1,0,0:0:0:0:
375,277,6433,5,0,0:0:0:0:
174,214,6589,1,2,0:0:0:0:
304,164,6745,2,0,L|297:326,1,161.999995056153,12|0,0:0|0:0,0:0:0:0:
297,326,7058,1,2,0:0:0:0:
456,308,7214,1,10,0:0:0:0:
456,308,7370,6,0,P|482:262|482:237,1,67.5
434,184,7683,6,0,L|444:117,2,67.5000025749208,2|8|2,0:0|0:0|0:0,0:0:0:0:
388,44,8151,2,0,B|359:30|359:30|261:38,1,101.250003862381
241,95,8464,1,0,0:0:0:0:
241,95,8620,2,0,L|233:154,2,33.7500012874604,0|0|0,0:0|0:0|0:0,0:0:0:0:
163,190,8933,6,0,L|173:283,1,67.5000025749208,2|2,0:0|0:0,0:0:0:0:
81,299,9245,1,2,0:0:0:0:
96,130,9401,1,0,0:0:0:0:
251,207,9558,2,0,L|322:184,2,67.5000025749208,0|0|0,0:0|0:0|0:0,0:0:0:0:
90,311,10026,1,0,0:0:0:0:
170,345,10183,6,0,P|203:339|236:336,1,67.5000025749208,2|2,0:0|0:0,0:0:0:0:
414,309,10495,2,0,P|380:306|347:299,1,67.5000025749208,2|0,0:0|0:0,0:0:0:0:
237,336,10808,1,0,0:0:0:0:
340,214,10964,1,0,0:0:0:0:
414,309,11120,1,0,0:0:0:0:
432,191,11276,1,0,0:0:0:0:
326,323,11433,5,2,0:0:0:0:
323,316,11589,1,2,0:0:0:0:
249,227,11745,2,0,L|267:93,1,135,12|0,0:0|0:0,0:0:0:0:
267,93,12058,1,2,0:0:0:0:
206,36,12214,1,8,0:0:0:0:
206,36,12370,6,0,B|176:25|176:25|127:25,1,67.5,8|0,0:0|0:0,0:0:0:0:
53,71,12683,6,0,B|41:103|41:120|41:120|49:158|49:158|38:201|38:201|50:221|49:272,1,180,4|2,0:0|0:0,0:0:0:0:
167,262,13151,1,8,0:0:0:0:
83,343,13308,1,2,0:0:0:0:
207,278,13464,2,0,L|189:174,1,90,2|2,0:0|0:0,0:0:0:0:
352,175,13776,2,0,L|359:75,1,90,8|2,0:0|0:0,0:0:0:0:
106,55,14089,6,0,L|100:160,1,90,2|2,0:0|0:0,0:0:0:0:
262,138,14401,2,0,L|281:236,1,90,8|2,0:0|0:0,0:0:0:0:
345,292,14714,1,8,0:0:0:0:
244,355,14870,1,2,0:0:0:0:
424,340,15026,1,8,0:0:0:0:
244,355,15183,6,0,P|203:290|229:221,1,135,4|0,0:0|0:0,0:0:0:0:
306,271,15495,2,0,L|353:296,2,45,2|2|8,0:0|0:0|0:0,0:0:0:0:
283,184,15808,2,0,P|298:226|306:271,1,90,2|0,0:0|0:0,0:0:0:0:
435,158,16120,6,0,P|441:113|456:71,1,90,2|10,0:0|0:0,0:0:0:0:
320,26,16433,1,2,0:0:0:0:
265,96,16589,2,0,L|283:185,1,90,2|2,0:0|0:0,0:0:0:0:
172,325,16901,2,0,L|175:222,1,90,8|2,0:0|0:0,0:0:0:0:
87,90,17214,1,2,0:0:0:0:
211,160,17370,1,2,0:0:0:0:
158,35,17526,1,8,0:0:0:0:
160,230,17683,6,0,P|249:239|293:181,1,135,4|0,0:0|0:0,0:0:0:0:
360,191,17995,1,2,0:0:0:0:
324,107,18151,1,8,0:0:0:0:
458,182,18308,1,2,0:0:0:0:
384,298,18464,1,8,0:0:0:0:
418,95,18620,1,2,0:0:0:0:
238,159,18776,1,8,0:0:0:0:
238,159,18933,6,0,L|133:139,1,90,2|8,0:0|0:0,0:0:0:0:
310,286,19245,1,2,0:0:0:0:
324,107,19401,2,0,P|312:60|314:1,1,90,8|2,0:0|0:0,0:0:0:0:
324,107,19714,1,8,0:0:0:0:
320,196,19870,1,2,0:0:0:0:
310,285,20026,1,8,0:0:0:0:
436,352,20183,6,0,B|449:294|449:294|442:247|442:247|459:214|450:172,1,180,4|2,0:0|0:0,0:0:0:0:
377,43,20651,2,0,P|329:22|266:43,1,90,8|2,0:0|0:0,0:0:0:0:
126,143,20964,2,0,P|170:146|210:126,1,90,8|2,0:0|0:0,0:0:0:0:
233,227,21276,1,8,0:0:0:0:
28,125,21433,5,2,0:0:0:0:
28,125,21511,1,2,0:0:0:0:
28,125,21589,2,0,L|43:17,1,90,4|0,0:0|0:0,0:0:0:0:
127,38,21823,6,0,B|160:29|160:29|185:35|185:35|227:32,1,90,4|0,0:0|0:0,0:0:0:0:
288,76,22058,6,0,B|334:64|334:64|454:79,1,135,12|0,0:0|0:0,0:0:0:0:
431,113,22370,1,2,0:0:0:0:
412,285,22526,1,2,0:0:0:0:
415,144,22683,1,0,3:0:0:0:
423,316,22839,5,0,0:0:0:0:
304,357,23151,1,2,0:0:0:0:
184,315,23464,1,2,0:0:0:0:
67,361,23776,1,2,0:0:0:0:
29,129,24089,6,0,P|75:104|143:123,1,101.250003862381,2|0,0:0|0:0,0:0:0:0:
147,190,24401,2,0,P|120:231|73:246,1,101.250003862381,2|0,0:0|0:0,0:0:0:0:
4,212,24714,6,0,L|38:294,1,90,2|2,0:0|0:0,0:0:0:0:
139,300,25183,6,0,L|66:128,1,180,4|2,0:0|0:0,0:0:0:0:
68,134,25573,1,2,0:0:0:0:
68,134,25651,2,0,P|116:119|163:93,1,90,8|2,0:0|0:0,0:0:0:0:
246,101,25964,1,2,0:0:0:0:
304,191,26120,1,0,0:0:0:0:
400,15,26276,2,0,P|349:15|297:26,1,90,8|0,0:0|0:0,0:0:0:0:
246,101,26589,5,0,0:0:0:0:
204,235,26745,1,0,0:0:0:0:
168,41,26901,1,8,0:0:0:0:
304,192,27058,2,0,L|394:175,1,90
332,302,27370,1,0,0:0:0:0:
204,235,27526,1,8,0:0:0:0:
83,360,27683,6,0,L|235:337,1,135,4|0,0:0|0:0,0:0:0:0:
179,256,27995,2,0,L|134:262,1,45,2|2,0:0|0:0,0:0:0:0:
52,278,28151,2,0,P|30:237|47:159,1,90,8|2,0:0|0:0,0:0:0:0:
123,125,28464,2,0,P|175:125|232:120,1,90
373,228,28776,2,0,P|343:195|299:191,1,90,8|0,0:0|0:0,0:0:0:0:
273,277,29089,5,0,0:0:0:0:
420,149,29245,1,0,0:0:0:0:
283,103,29401,2,0,L|300:192,1,90,8|2,0:0|0:0,0:0:0:0:
357,315,29714,1,8,3:0:0:0:
503,179,29870,1,8,3:0:0:0:
375,135,30026,1,8,3:0:0:0:
273,277,30183,6,0,B|231:265|231:265|185:274|185:274|108:261,1,135,4|0,0:0|0:0,0:0:0:0:
59,275,30495,2,0,L|51:319,1,45,2|2,0:0|0:0,0:0:0:0:
0,216,30651,2,0,L|15:127,1,90,8|0,0:0|0:0,0:0:0:0:
92,78,30964,1,8,0:0:0:0:
269,75,31120,1,0,0:0:0:0:
144,153,31276,1,8,0:0:0:0:
207,27,31433,6,0,L|341:40,1,135,4|0,0:0|0:0,0:0:0:0:
430,57,31745,1,2,0:0:0:0:
430,57,31823,1,2,0:0:0:0:
430,57,31901,2,0,P|413:100|406:170,1,90,8|0,0:0|0:0,0:0:0:0:
396,328,32214,2,0,P|381:285|359:246,1,90,8|0,0:0|0:0,0:0:0:0:
298,329,32526,1,8,0:0:0:0:
427,175,32683,6,0,P|366:146|302:161,1,135,4|0,0:0|0:0,0:0:0:0:
225,120,32995,2,0,L|234:73,1,45,2|2,0:0|0:0,0:0:0:0:
302,161,33151,2,8,L|309:252,1,90,8|0,0:0|0:0,0:0:0:0:
221,307,33464,1,8,0:0:0:0:
141,212,33620,1,0,0:0:0:0:
53,299,33776,1,8,0:0:0:0:
225,120,33933,6,0,P|220:75|210:32,1,90,2|0,0:0|0:0,0:0:0:0:
339,57,34245,1,2,0:0:0:0:
339,57,34323,1,2,0:0:0:0:
339,57,34401,2,0,P|383:61|427:72,1,90,8|2,0:0|0:0,0:0:0:0:
371,170,34714,1,4,0:3:0:0:
371,170,34792,1,4,0:3:0:0:
371,170,34870,2,0,L|348:235,1,45,4|4,0:3|0:3,0:3:0:0:
407,289,35026,2,0,L|417:363,1,45,4|0,0:3|0:0,0:0:0:0:
332,383,35183,6,0,P|272:349|198:363,1,135,4|0,0:0|0:0,0:0:0:0:
128,368,35495,2,0,L|118:307,1,45,2|2,0:0|0:0,0:0:0:0:
60,266,35651,2,0,L|79:156,1,90,8|2,0:0|0:0,0:0:0:0:
151,114,35964,1,2,0:0:0:0:
231,223,36120,1,0,0:0:0:0:
164,89,36277,2,0,L|68:102,1,90,8|0,0:0|0:0,0:0:0:0:
285,37,36589,5,0,0:0:0:0:
240,193,36745,1,0,0:0:0:0:
335,119,36901,1,8,0:0:0:0:
300,251,37058,2,0,P|226:274|154:197,1,180
49,159,37526,1,8,0:0:0:0:
83,342,37683,6,0,P|172:349|260:366,1,180,4|2,0:0|0:0,0:0:0:0:
261,367,38073,1,2,0:0:0:0:
261,367,38151,1,8,0:0:0:0:
474,358,38308,1,2,0:0:0:0:
469,258,38464,2,0,P|427:275|389:299,1,90,2|0,0:0|0:0,0:0:0:0:
261,367,38776,1,8,0:0:0:0:
193,273,38933,5,0,0:0:0:0:
301,126,39089,2,0,L|280:224,1,90
365,326,39402,2,0,L|390:213,1,90,8|2,0:0|0:0,0:0:0:0:
318,37,39715,1,2,0:0:0:0:
301,126,39871,1,4,0:3:0:0:
283,215,40026,1,4,0:3:0:0:
471,118,40183,6,0,B|420:103|420:103|307:123,1,135,4|0,0:0|0:0,0:0:0:0:
367,198,40495,2,0,L|446:183,1,45,2|2,0:0|0:0,0:0:0:0:
486,233,40651,2,0,L|463:352,1,90,8|0,0:0|0:0,0:0:0:0:
362,309,40964,1,8,0:0:0:0:
283,215,41120,1,0,0:0:0:0:
259,358,41276,1,8,0:0:0:0:
367,198,41433,6,0,P|370:89|330:66,1,135,4|0,0:0|0:0,0:0:0:0:
272,91,41745,2,0,L|257:163,1,45,2|2,0:0|0:0,0:0:0:0:
191,191,41901,2,0,P|142:189|87:139,1,90,8|0,0:0|0:0,0:0:0:0:
27,306,42214,2,0,P|70:294|115:293,2,90,8|0|8,0:0|0:0|0:0,0:0:0:0:
259,358,42683,6,0,P|321:350|392:331,1,135,4|0,0:0|0:0,0:0:0:0:
397,252,42995,2,0,P|393:222|379:174,1,45,2|2,0:0|0:0,0:0:0:0:
481,273,43151,2,0,P|475:307|469:385,1,90,8|0,0:0|0:0,0:0:0:0:
314,285,43464,1,8,0:0:0:0:
444,111,43620,2,0,P|460:141|490:213,1,90,0|8,0:0|0:0,0:0:0:0:
361,82,43933,6,0,P|425:25|507:54,1,180,6|8,0:0|0:0,0:0:0:0:
382,181,44401,2,0,P|346:184|300:170,3,45,8|8|8|8,0:0|0:0|0:0|0:0,0:0:0:0:
307,173,44714,1,8,0:0:0:0:
278,159,44792,1,8,0:0:0:0:
263,131,44870,1,8,0:0:0:0:
234,116,44948,1,8,0:0:0:0:
202,116,45026,1,8,0:0:0:0:
174,131,45104,1,8,0:0:0:0:
163,160,45183,1,8,0:0:0:0:
171,190,45261,1,8,0:0:0:0:
196,208,45339,6,0,P|194:237|171:290,1,72,2|0,0:0|0:0,0:0:0:0:
330,350,45651,2,0,P|302:327|269:312,1,72,2|0,0:0|0:0,0:0:0:0:
307,173,45964,2,0,L|390:164,1,72,2|0,0:0|0:0,0:0:0:0:
477,291,46276,2,0,L|384:283,1,72,2|0,0:0|0:0,0:0:0:0:
462,181,46589,5,2,0:0:0:0:
462,181,46667,1,0,0:0:0:0:
462,181,46745,2,0,P|454:144|437:99,1,72,0|2,0:0|0:0,0:0:0:0:
290,45,47058,1,0,0:0:0:0:
238,123,47214,2,0,P|249:156|257:192,1,72,2|0,0:0|0:0,0:0:0:0:
340,336,47526,2,0,P|346:301|358:267,1,72,2|0,0:0|0:0,0:0:0:0:
422,154,47839,5,2,0:0:0:0:
359,268,47995,1,0,0:0:0:0:
290,45,48151,1,2,0:0:0:0:
326,137,48308,1,0,0:0:0:0:
422,154,48464,2,0,P|466:143|500:132,1,72,2|0,0:0|0:0,0:0:0:0:
278,215,48776,2,0,P|243:204|208:196,1,72,2|0,0:0|0:0,0:0:0:0:
375,65,49089,5,2,0:0:0:0:
422,154,49245,2,0,L|391:243,1,72,0|2,0:0|0:0,0:0:0:0:
462,360,49558,1,0,0:0:0:0:
462,360,49636,1,0,0:0:0:0:
462,360,49714,2,0,L|452:276,2,72,2|0|2,0:0|0:0|0:0,0:0:0:0:
333,354,50183,5,0,0:0:0:0:
333,354,50339,2,0,P|297:349|262:341,1,72,2|0,0:0|0:0,0:0:0:0:
181,216,50651,2,0,P|172:251|160:284,1,72,2|0,0:0|0:0,0:0:0:0:
302,265,50964,2,0,L|393:254,1,72,2|0,0:0|0:0,0:0:0:0:
150,367,51276,2,0,L|67:353,1,72,2|0,0:0|0:0,0:0:0:0:
97,248,51589,5,2,0:0:0:0:
20,199,51745,2,0,P|3:230|5:266,1,72,0|2,0:0|0:0,0:0:0:0:
119,160,52058,2,0,P|108:122|94:84,1,72,0|2,0:0|0:0,0:0:0:0:
238,18,52370,2,0,P|225:51|216:86,1,72,0|2,0:0|0:0,0:0:0:0:
284,152,52683,1,0,0:0:0:0:
366,107,52839,5,10,0:0:0:0:
487,227,53073,1,10,0:0:0:0:
453,65,53308,1,10,0:0:0:0:
461,58,53620,1,2,0:0:0:0:
461,58,53698,1,2,0:0:0:0:
461,58,53776,1,12,0:0:0:0:
256,192,54714,5,0,0:0:0:0:
256,192,54870,1,0,0:0:0:0:
256,192,55026,1,0,0:0:0:0:
295,100,55183,6,0,P|235:63|152:95,1,135,4|0,0:0|0:0,0:0:0:0:
89,79,55495,2,0,L|76:26,1,45,2|2,0:0|0:0,0:0:0:0:
16,134,55651,2,0,L|38:238,1,90,8|2,0:0|0:0,0:0:0:0:
129,271,55964,1,0,0:0:0:0:
171,180,56120,1,2,0:0:0:0:
282,292,56276,1,8,0:0:0:0:
200,369,56433,6,0,B|161:350|161:350|60:351,1,135,4|0,0:0|0:0,0:0:0:0:
9,271,56745,2,0,L|67:270,1,45,2|2,0:0|0:0,0:0:0:0:
92,194,56901,2,0,P|90:170|139:108,1,90,8|2,0:0|0:0,0:0:0:0:
269,43,57214,2,0,P|277:88|282:132,1,90
225,237,57526,1,0,0:0:0:0:
201,95,57683,6,0,L|380:84,1,180,4|2,0:0|0:0,0:0:0:0:
452,134,58073,2,0,L|435:205,1,45,2|8,0:0|0:0,0:0:0:0:
317,294,58308,1,2,0:0:0:0:
363,217,58464,1,4,0:3:0:0:
391,230,58542,1,4,0:3:0:0:
407,256,58620,1,4,0:3:0:0:
409,287,58698,1,0,0:0:0:0:
398,316,58776,2,0,L|428:366,2,45,4|0|2,0:3|0:0|0:0,0:0:0:0:
252,352,59089,5,4,0:0:0:0:
149,302,59323,1,4,0:0:0:0:
46,354,59558,1,2,0:0:0:0:
29,137,59714,2,0,P|85:130|139:179,1,90,8|2,0:0|0:0,0:0:0:0:
159,219,59948,1,2,0:0:0:0:
159,219,60026,1,2,0:0:0:0:
159,219,60104,1,2,0:0:0:0:
159,219,60183,6,0,B|211:214|211:214|246:233|246:233|295:232,1,135,4|0,0:0|0:0,0:0:0:0:
402,157,60495,2,0,L|355:198,1,45,2|2,0:0|0:0,0:0:0:0:
369,277,60651,2,0,L|389:372,1,90,8|2,0:0|0:0,0:0:0:0:
286,327,60964,1,2,0:0:0:0:
269,149,61120,2,0,P|282:107|305:68,1,90,2|8,0:0|0:0,0:0:0:0:
172,52,61433,6,0,P|99:52|47:135,1,135,4|0,0:0|0:0,0:0:0:0:
67,172,61745,2,0,L|82:248,1,45,2|2,0:0|0:0,0:0:0:0:
159,218,61901,2,0,L|136:117,1,90,8|2,0:0|0:0,0:0:0:0:
258,28,62214,1,2,0:0:0:0:
269,149,62370,1,2,0:0:0:0:
363,68,62526,1,8,0:0:0:0:
380,186,62683,6,0,B|341:172|341:172|311:187|311:187|261:157|211:183,1,180,4|2,0:0|0:0,0:0:0:0:
211,183,63073,1,2,0:0:0:0:
211,183,63151,1,8,0:0:0:0:
229,299,63308,1,2,0:0:0:0:
81,229,63464,1,2,0:0:0:0:
214,181,63620,1,2,0:0:0:0:
155,348,63776,1,8,0:0:0:0:
300,240,63933,5,2,0:0:0:0:
283,367,64089,1,2,0:0:0:0:
381,186,64245,1,2,0:0:0:0:
381,186,64323,1,2,0:0:0:0:
381,186,64401,1,8,0:0:0:0:
266,109,64558,1,2,0:0:0:0:
310,280,64714,2,0,P|355:266|414:272,1,90,2|8,0:0|0:0,0:0:0:0:
471,319,65026,1,0,0:0:0:0:
381,186,65183,6,0,L|398:52,1,135,4|0,0:0|0:0,0:0:0:0:
280,17,65495,2,0,L|319:53,1,45,2|2,0:0|0:0,0:0:0:0:
304,128,65651,2,0,L|285:216,1,90,8|2,0:0|0:0,0:0:0:0:
219,281,65964,1,2,0:0:0:0:
359,355,66120,1,2,0:0:0:0:
286,216,66276,1,8,0:0:0:0:
140,343,66433,6,0,P|95:248|157:168,1,180,4|2,0:0|0:0,0:0:0:0:
217,147,66823,2,0,L|200:225,1,45,2|8,0:0|0:0,0:0:0:0:
122,87,67058,1,2,0:0:0:0:
122,87,67214,2,0,P|93:82|13:52,1,90,2|2,0:0|0:0,0:0:0:0:
217,147,67526,1,8,0:0:0:0:
217,146,67683,6,0,P|281:131|356:129,1,135,4|0,0:0|0:0,0:0:0:0:
458,200,67995,2,0,P|426:197|388:185,2,45,2|2|8,0:0|0:0|0:0,0:0:0:0:
443,116,68308,1,2,0:0:0:0:
482,289,68464,1,4,0:3:0:0:
450,290,68542,1,2,0:0:0:0:
418,292,68620,1,4,0:3:0:0:
386,293,68698,1,4,0:3:0:0:
354,296,68776,2,0,L|349:355,1,45,8|0,0:0|0:0,0:0:0:0:
268,273,68933,2,0,L|263:216,1,45,4|0,0:3|0:0,0:0:0:0:
214,348,69089,6,0,P|171:358|129:344,1,90,4|0,0:0|0:0,0:0:0:0:
83,264,69323,6,0,P|99:222|134:195,1,90,4|0,0:0|0:0,0:0:0:0:
217,204,69558,6,0,P|252:231|267:273,1,90,6|2,0:0|0:0,0:0:0:0:
268,273,69792,1,8,0:0:0:0:
268,273,69870,1,0,0:0:0:0:
135,196,70026,1,0,0:0:0:0:
135,196,70183,6,0,P|137:124|152:46,1,135,4|0,0:0|0:0,0:0:0:0:
271,24,70495,2,0,L|226:57,1,45,2|2,0:0|0:0,0:0:0:0:
282,118,70651,2,0,L|369:59,1,90,8|2,0:0|0:0,0:0:0:0:
439,234,70964,2,0,P|397:222|341:220,1,90,0|2,0:0|0:0,0:0:0:0:
268,273,71276,1,8,0:0:0:0:
400,137,71433,6,0,P|339:101|259:146,1,135,4|0,0:0|0:0,0:0:0:0:
215,170,71745,1,2,0:0:0:0:
215,170,71823,1,2,0:0:0:0:
215,170,71901,2,0,P|163:160|106:144,1,90,8|2,0:0|0:0,0:0:0:0:
268,273,72214,2,0,P|311:261|355:253,1,90,2|2,0:0|0:0,0:0:0:0:
484,162,72526,1,8,0:0:0:0:
462,354,72683,6,0,B|419:342|419:342|317:349,1,135,4|0,0:0|0:0,0:0:0:0:
268,273,72995,2,0,L|276:226,1,45,8|8,0:0|0:0,0:0:0:0:
360,260,73151,2,0,L|471:250,1,90,8|2,0:0|0:0,0:0:0:0:
449,251,73386,1,2,0:0:0:0:
449,251,73464,1,8,0:0:0:0:
410,130,73620,2,0,P|423:105|449:88,2,45,2|0|8,0:0|0:0|0:0,0:0:0:0:
371,345,73933,5,2,0:0:0:0:
371,345,74011,1,2,0:0:0:0:
371,345,74089,1,8,0:0:0:0:
296,160,74245,2,0,P|292:120|299:80,2,67.5000025749208,0|0|0,0:0|0:0|0:0,0:0:0:0:
188,230,74714,2,0,P|166:256|140:276,2,67.5000025749208,0|0|0,0:0|0:0|0:0,0:0:0:0:
196,336,75183,6,0,P|111:310|54:354,1,135,12|0,0:0|0:0,0:0:0:0:
19,384,75495,1,2,0:0:0:0:
77,232,75651,2,0,P|66:194|57:128,1,90,8|2,0:0|0:0,0:0:0:0:
343,169,75964,2,0,P|354:131|363:65,1,90,8|2,0:0|0:0,0:0:0:0:
197,121,76276,2,0,P|186:83|177:17,1,90,8|2,0:0|0:0,0:0:0:0:
98,138,76589,6,0,L|-18:124,1,90,8|2,0:0|0:0,0:0:0:0:
268,59,76901,2,0,L|357:48,1,90,8|2,0:0|0:0,0:0:0:0:
450,115,77214,1,8,0:0:0:0:
343,169,77370,1,2,0:0:0:0:
421,256,77526,1,8,0:0:0:0:
320,314,77683,6,0,B|280:290|280:290|163:285,1,135,4|0,0:0|0:0,0:0:0:0:
53,353,77995,2,0,L|96:312,1,45,2|2,0:0|0:0,0:0:0:0:
121,241,78152,2,0,L|103:134,1,90,8|2,0:0|0:0,0:0:0:0:
223,46,78465,2,0,L|210:135,1,90,8|2,0:0|0:0,0:0:0:0:
70,181,78777,6,0,L|85:270,1,90,8|2,0:0|0:0,0:0:0:0:
258,122,79090,2,0,L|275:10,1,90,8|2,0:0|0:0,0:0:0:0:
271,33,79324,1,2,0:0:0:0:
271,33,79402,1,8,0:0:0:0:
238,220,79558,1,2,0:0:0:0:
357,153,79715,1,8,0:0:0:0:
382,252,79871,1,2,0:0:0:0:
382,252,79949,1,2,0:0:0:0:
382,252,80027,1,8,0:0:0:0:
209,206,80183,6,0,B|211:155|211:155|231:122|231:122|233:52,1,135,4|0,0:0|0:0,0:0:0:0:
173,27,80496,1,2,0:0:0:0:
120,231,80652,1,8,0:0:0:0:
54,157,80808,1,2,0:0:0:0:
120,231,80965,2,0,P|102:274|92:324,1,90,8|2,0:0|0:0,0:0:0:0:
269,371,81277,2,0,P|251:329|241:285,1,90,8|2,0:0|0:0,0:0:0:0:
408,261,81590,6,0,P|398:304|380:346,1,90,8|2,0:0|0:0,0:0:0:0:
302,217,81902,1,8,0:0:0:0:
387,134,82058,1,2,0:0:0:0:
429,348,82215,2,0,L|407:260,1,90,8|2,0:0|0:0,0:0:0:0:
493,81,82527,1,8,0:0:0:0:
387,134,82683,6,0,B|351:118|351:118|324:127|324:127|246:122,1,135,4|0,0:0|0:0,0:0:0:0:
188,176,82996,1,2,0:0:0:0:
149,317,83152,2,0,P|103:311|39:313,1,90,8|2,0:0|0:0,0:0:0:0:
262,239,83465,2,0,P|280:280|292:323,1,90,8|2,0:0|0:0,0:0:0:0:
149,318,83777,1,8,0:0:0:0:
356,218,83933,1,2,0:0:0:0:
356,218,84011,1,2,0:0:0:0:
356,218,84090,6,0,P|368:175|387:134,1,90,8|0,0:0|0:0,0:0:0:0:
443,81,84324,2,0,P|393:93|348:90,1,90,8|0,0:0|0:0,0:0:0:0:
299,35,84558,2,0,B|252:28|252:28|156:45,1,135,8|0,0:0|0:0,0:0:0:0:
157,137,84871,1,2,0:0:0:0:
157,137,84949,1,2,0:0:0:0:
157,137,85027,2,0,L|253:117,1,90,2|2,0:0|0:0,0:0:0:0:
392,87,85340,5,4,0:0:0:0:
296,111,92415,6,0,P|340:98|414:105,1,90,4|8,0:0|0:0,0:0:0:0:
220,51,92778,2,0,L|108:35,1,90,2|8,0:0|0:0,0:0:0:0:
114,222,93142,1,2,0:0:0:0:
172,142,93324,1,8,0:0:0:0:
294,254,93506,2,0,P|287:302|286:351,1,90,2|8,0:0|0:0,0:0:0:0:
296,111,93869,5,0,0:0:0:0:
415,155,94051,1,8,0:0:0:0:
240,193,94233,1,2,0:0:0:0:
357,314,94415,1,8,0:0:0:0:
415,155,94596,1,2,0:0:0:0:
415,155,94687,1,2,0:0:0:0:
415,155,94778,1,8,0:0:0:0:
225,303,94960,2,0,L|153:305,2,45,2|2|8,0:0|0:0|0:0,0:0:0:0:
117,240,95324,6,0,B|119:200|133:163|137:152,1,90,4|8,0:0|0:0,0:0:0:0:
221,99,95687,1,2,0:0:0:0:
305,152,95869,1,8,0:0:0:0:
35,56,96051,2,0,B|39:67|53:104|55:143,1,90,4|8,0:0|0:0,0:0:0:0:
3,234,96415,1,2,0:0:0:0:
136,135,96596,1,8,0:0:0:0:
216,217,96778,6,0,L|203:348,1,90,4|8,0:0|0:0,0:0:0:0:
117,239,97142,1,2,0:0:0:0:
117,239,97233,1,2,0:0:0:0:
117,239,97324,1,8,0:0:0:0:
200,78,97506,2,0,B|235:72|235:72|320:97,1,90,4|2,0:0|0:0,0:0:0:0:
287,87,97778,1,8,0:0:0:0:
287,87,97869,1,2,0:0:0:0:
136,135,98051,1,8,0:0:0:0:
136,135,98142,1,8,0:0:0:0:
136,135,98233,6,0,L|34:129,1,90,4|8,0:0|0:0,0:0:0:0:
30,282,98596,1,2,0:0:0:0:
201,193,98778,1,8,0:0:0:0:
265,269,98960,2,0,P|270:314|269:358,1,90,0|8,0:0|0:0,0:0:0:0:
337,210,99324,2,0,P|378:193|422:183,1,90,2|8,0:0|0:0,0:0:0:0:
431,273,99687,5,2,0:0:0:0:
352,108,99869,1,8,0:0:0:0:
503,182,100051,1,2,0:0:0:0:
337,210,100233,1,8,0:0:0:0:
455,89,100415,1,2,0:0:0:0:
455,89,100506,1,2,0:0:0:0:
455,89,100596,1,8,0:0:0:0:
325,25,100778,2,0,L|265:36,2,45,2|2|8,0:0|0:0|0:0,0:0:0:0:
222,117,101142,6,0,L|116:97,1,90,4|8,0:0|0:0,0:0:0:0:
44,200,101506,1,2,0:0:0:0:
88,288,101687,2,0,P|70:326|53:385,1,90,8|0,0:0|0:0,0:0:0:0:
180,290,102051,1,8,0:0:0:0:
269,286,102233,1,2,0:0:0:0:
330,221,102415,1,8,0:0:0:0:
180,290,102596,6,0,P|196:338|206:398,1,90,4|8,0:0|0:0,0:0:0:0:
330,220,102960,2,0,P|339:175|353:133,1,90,2|8,0:0|0:0,0:0:0:0:
479,278,103324,2,0,L|395:311,1,90,2|8,0:0|0:0,0:0:0:0:
189,98,103687,2,0,L|273:130,1,90,2|8,0:0|0:0,0:0:0:0:
382,154,104051,5,4,0:0:0:0:
486,113,104233,1,8,0:0:0:0:
458,352,104415,2,0,P|449:315|439:239,1,90,2|8,0:0|0:0,0:0:0:0:
261,278,104778,1,4,0:0:0:0:
261,278,104960,2,0,P|303:287|347:303,1,90,8|2,0:0|0:0,0:0:0:0:
165,227,105324,1,8,0:0:0:0:
165,227,105506,6,0,P|122:242|78:252,1,90,4|8,0:0|0:0,0:0:0:0:
94,153,105869,1,2,0:0:0:0:
247,187,106051,1,8,0:0:0:0:
117,325,106233,1,2,0:0:0:0:
117,325,106324,1,2,0:0:0:0:
117,325,106415,1,8,0:0:0:0:
94,153,106596,2,0,L|115:114,2,45,2|2|8,0:0|0:0|0:0,0:0:0:0:
193,74,106960,6,0,B|227:69|227:69|307:93,1,90,4|8,0:0|0:0,0:0:0:0:
383,51,107324,1,2,0:0:0:0:
328,226,107506,1,8,0:0:0:0:
281,85,107687,1,0,0:0:0:0:
364,213,107869,2,0,P|348:268|340:329,1,90,8|2,0:0|0:0,0:0:0:0:
443,275,108233,1,8,0:0:0:0:
447,114,108415,6,0,P|471:151|492:191,1,90,4|8,0:0|0:0,0:0:0:0:
287,241,108778,2,0,P|242:235|198:224,1,90,2|8,0:0|0:0,0:0:0:0:
97,335,109142,1,2,0:0:0:0:
133,337,109233,1,8,0:0:0:0:
168,339,109324,1,8,0:0:0:0:
203,341,109415,1,8,0:0:0:0:
238,343,109506,1,2,0:0:0:0:
367,349,109687,1,8,0:0:0:0:
367,349,109778,1,8,0:0:0:0:
367,348,109869,6,0,P|372:304|375:259,1,90,4|8,0:0|0:0,0:0:0:0:
303,151,110233,1,2,0:0:0:0:
376,259,110415,2,0,L|465:246,1,90,8|0,0:0|0:0,0:0:0:0:
274,271,110778,1,8,0:0:0:0:
421,163,110960,1,2,0:0:0:0:
241,291,111142,1,8,0:0:0:0:
239,94,111324,6,0,P|288:68|349:86,1,90,2|8,0:0|0:0,0:0:0:0:
311,247,111687,1,2,0:0:0:0:
311,247,111869,2,0,P|264:239|201:235,1,90,8|2,0:0|0:0,0:0:0:0:
136,261,112142,1,2,0:0:0:0:
136,261,112233,2,0,P|106:218|125:157,1,90,8|4,0:0|0:0,0:0:0:0:
40,119,112506,2,0,L|18:172,1,45,2|8,0:0|0:0,0:0:0:0:
40,344,112778,6,0,P|88:337|156:342,1,90,4|8,0:0|0:0,0:0:0:0:
214,361,113142,1,2,0:0:0:0:
243,188,113324,2,0,B|246:155|246:155|227:71,2,90,8|2|8,0:0|0:0|0:0,0:0:0:0:
148,156,113869,1,2,0:0:0:0:
186,259,114051,1,8,0:0:0:0:
346,112,114233,5,4,0:0:0:0:
320,206,114415,1,8,0:0:0:0:
441,288,114596,1,2,0:0:0:0:
405,193,114778,1,8,0:0:0:0:
265,341,114960,2,0,P|309:345|354:355,1,90,2|8,0:0|0:0,0:0:0:0:
130,322,115324,2,0,P|104:283|108:232,1,90,2|8,0:0|0:0,0:0:0:0:
214,103,115687,5,8,0:0:0:0:
117,220,115869,1,8,0:0:0:0:
233,129,116051,2,0,L|306:123,1,72
117,220,116415,2,0,L|17:205,1,72
84,52,116778,2,0,P|98:84|118:115,1,72
204,206,117142,5,8,0:0:0:0:
78,305,117324,1,8,0:0:0:0:
258,275,117506,2,0,P|274:256|289:195,2,72,0|0|0,0:0|0:0|0:0,0:0:0:0:
371,267,118051,2,0,P|409:265|456:258,1,72
442,260,118415,1,0,0:0:0:0:
311,361,118596,5,0,0:0:0:0:
401,188,118778,1,0,0:0:0:0:
412,343,118960,1,0,0:0:0:0:
262,265,119142,1,0,0:0:0:0:
311,361,119324,1,0,0:0:0:0:
304,180,119506,1,0,0:0:0:0:
189,330,119687,1,0,0:0:0:0:
371,267,119869,1,0,0:0:0:0:
212,167,120051,5,8,0:0:0:0:
212,167,120233,2,8,L|226:94,1,72,6|0,0:0|0:0,0:0:0:0:
298,47,120506,2,0,L|339:23,2,36,2|0|8,0:0|0:0|0:0,0:0:0:0:
348,117,120778,2,0,L|426:124,1,72,8|2,0:0|0:0,0:0:0:0:
158,230,121142,1,8,0:0:0:0:
131,207,121233,1,8,0:0:0:0:
126,171,121324,1,8,0:0:0:0:
129,135,121415,1,8,0:0:0:0:
153,109,121506,5,4,0:0:0:0:
328,93,128222,6,0,P|365:57|425:61,1,90,2|0,0:0|0:0,0:0:0:0:
478,310,128559,2,0,P|426:315|381:274,1,90,2|0,0:0|0:0,0:0:0:0:
273,172,128896,1,2,0:0:0:0:
234,151,128981,1,8,0:0:0:0:
190,162,129065,1,10,0:0:0:0:
169,202,129149,1,8,0:0:0:0:
184,243,129233,1,10,0:0:0:0:
226,259,129318,1,8,0:0:0:0:
220,280,129402,1,8,0:0:0:0:
212,301,129486,1,8,0:0:0:0:
203,321,129570,5,0,0:0:0:0:
256,192,129655,12,0,130750,0:0:0:0:
250,113,130919,6,0,B|214:100|214:100|183:112|183:112|97:107,1,135,4|0,0:0|0:0,0:0:0:0:
80,183,131256,2,0,L|93:284,1,90,8|0,0:0|0:0,0:0:0:0:
157,341,131593,1,2,0:0:0:0:
0,269,131761,1,0,0:0:0:0:
98,94,131930,2,0,L|80:183,1,90,8|0,0:0|0:0,0:0:0:0:
224,282,132267,6,0,P|294:295|340:242,1,135,2|0,0:0|0:0,0:0:0:0:
320,173,132604,1,8,0:0:0:0:
395,331,132773,1,0,0:0:0:0:
300,179,132941,2,0,P|243:171|204:162,1,90,2|0,0:0|0:0,0:0:0:0:
378,95,133278,2,0,P|422:86|466:80,1,90,8|0,0:0|0:0,0:0:0:0:
443,183,133615,6,0,L|471:334,1,135,4|0,0:0|0:0,0:0:0:0:
467,315,133952,2,0,P|426:308|365:300,1,90,8|0,0:0|0:0,0:0:0:0:
216,232,134290,2,0,L|204:322,1,90,6|0,0:0|0:0,0:0:0:0:
294,290,134627,1,8,0:0:0:0:
165,148,134795,6,0,P|103:130|38:175,1,135,4|0,0:0|0:0,0:0:0:0:
115,216,135132,1,8,0:0:0:0:
211,77,135301,1,2,0:0:0:0:
328,144,135469,1,8,0:0:0:0:
351,166,135554,1,8,0:0:0:0:
382,167,135638,1,10,0:0:0:0:
412,155,135722,1,8,0:0:0:0:
437,174,135806,1,8,0:0:0:0:
415,196,135891,5,8,0:0:0:0:
386,208,135975,1,10,0:0:0:0:
355,210,136059,1,8,0:0:0:0:
323,206,136143,1,8,0:0:0:0:
296,194,136228,1,8,0:0:0:0:
292,162,136312,6,0,L|278:315,1,135,4|0,0:0|0:0,0:0:0:0:
279,296,136649,1,8,0:0:0:0:
188,222,136818,1,0,0:0:0:0:
188,222,136986,2,0,L|84:195,1,90,2|0,0:0|0:0,0:0:0:0:
105,281,137323,1,8,0:0:0:0:
214,143,137492,1,0,0:0:0:0:
214,329,137660,6,0,L|392:315,1,135,4|0,0:0|0:0,0:0:0:0:
427,309,137997,1,8,0:0:0:0:
385,161,138166,1,0,0:0:0:0:
305,239,138334,1,2,0:0:0:0:
427,309,138503,1,0,0:0:0:0:
294,155,138672,2,0,P|302:111|315:67,1,90,8|0,0:0|0:0,0:0:0:0:
214,239,139009,6,0,B|175:222|175:222|55:232,1,135,4|0,0:0|0:0,0:0:0:0:
2,251,139346,2,0,L|0:343,1,90,8|0,0:0|0:0,0:0:0:0:
98,147,139683,2,0,L|84:55,1,90
1,118,140020,1,0,0:0:0:0:
108,231,140188,1,0,0:0:0:0:
224,103,140357,6,0,P|276:71|371:110,1,135,4|0,0:0|0:0,0:0:0:0:
396,151,140694,1,8,0:0:0:0:
333,305,140863,1,0,0:0:0:0:
450,232,141031,1,2,0:0:0:0:
407,364,141200,1,0,0:0:0:0:
250,353,141368,1,8,0:0:0:0:
250,353,141452,1,8,0:0:0:0:
250,353,141537,1,8,0:0:0:0:
250,353,141621,1,8,0:0:0:0:
250,353,141705,6,0,B|196:336|196:336|96:344,1,135,4|0,0:0|0:0,0:0:0:0:
96,261,142042,2,0,L|195:253,1,90,8|0,0:0|0:0,0:0:0:0:
151,82,142379,2,0,P|145:126|137:170,1,90,2|0,0:0|0:0,0:0:0:0:
56,107,142717,1,8,0:0:0:0:
235,48,142885,1,0,0:0:0:0:
294,124,143054,6,0,P|282:176|269:284,1,135,4|0,0:0|0:0,0:0:0:0:
334,317,143391,1,8,0:0:0:0:
169,358,143559,1,0,0:0:0:0:
176,159,143728,2,0,P|186:201|196:284,1,90,2|0,0:0|0:0,0:0:0:0:
90,227,144065,1,8,0:0:0:0:
102,25,144233,1,0,0:0:0:0:
102,25,144402,6,0,L|251:50,1,135,4|0,0:0|0:0,0:0:0:0:
383,108,144739,2,0,L|294:124,1,90,8|0,0:0|0:0,0:0:0:0:
234,200,145076,1,2,0:0:0:0:
387,209,145245,1,0,0:0:0:0:
295,124,145413,1,8,0:0:0:0:
465,223,145582,6,0,P|428:278|338:272,1,135,4|0,0:0|0:0,0:0:0:0:
302,344,145919,2,0,L|254:332,1,45,8|8,0:3|0:3,0:0:0:0:
192,280,146087,2,0,L|127:309,1,45,4|4,0:3|0:3,0:0:0:0:
69,327,146256,1,8,0:0:0:0:
69,327,146340,1,2,0:0:0:0:
69,327,146424,1,2,0:0:0:0:
41,311,146509,1,2,0:0:0:0:
25,283,146593,1,2,0:0:0:0:
20,251,146677,1,2,0:0:0:0:
31,221,146761,1,8,0:0:0:0:
55,200,146846,1,8,0:0:0:0:
74,175,146930,1,8,0:0:0:0:
76,143,147014,1,8,0:0:0:0:
58,116,147099,6,0,P|105:112|157:104,1,90,4|2,0:0|0:0,0:0:0:0:
356,203,147436,2,0,P|314:186|272:173,1,90,12|0,0:0|0:0,0:0:0:0:
271,173,147688,1,8,0:0:0:0:
271,173,147773,1,2,0:0:0:0:
350,100,147941,1,0,0:0:0:0:
454,139,148110,1,8,0:0:0:0:
446,246,148278,1,0,0:0:0:0:
325,91,148447,6,0,P|366:74|409:60,1,90,4|2,0:0|0:0,0:0:0:0:
249,189,148784,2,0,P|206:177|163:163,1,90,12|2,0:0|0:0,0:0:0:0:
163,163,149037,1,8,0:0:0:0:
163,163,149121,1,2,0:0:0:0:
39,151,149290,1,0,0:0:0:0:
91,306,149458,2,0,L|208:294,1,90,8|0,0:0|0:0,0:0:0:0:
249,189,149795,5,4,0:0:0:0:
181,296,149964,1,0,0:0:0:0:
324,240,150132,1,8,0:0:0:0:
327,70,150301,1,0,0:0:0:0:
394,164,150469,1,2,0:0:0:0:
249,189,150638,1,0,0:0:0:0:
132,127,150806,1,8,0:0:0:0:
181,296,150975,1,0,0:0:0:0:
132,127,151143,5,2,0:0:0:0:
100,132,151228,1,8,0:0:0:0:
75,151,151312,1,8,0:0:0:0:
66,181,151396,1,8,0:0:0:0:
76,211,151481,1,8,0:0:0:0:
75,242,151565,1,8,0:0:0:0:
66,272,151649,1,8,0:0:0:0:
94,259,151733,1,8,0:0:0:0:
124,248,151818,1,8,0:0:0:0:
152,234,151902,1,8,0:0:0:0:
200,216,152042,6,0,L|272:228,3,60,10|8|8|4,0:0|0:3|0:3|0:3,0:0:0:0:
313,289,152492,6,0,P|337:209|292:151,1,135.000005149842,4|0,0:0|0:0,0:3:0:0:
440,127,154514,6,0,L|498:140,2,45.0000017166138,0|0|0,0:0|0:0|0:0,0:0:0:0:
382,186,154851,2,0,L|391:317,1,90.0000034332277,2|0,0:0|0:0,0:0:0:0:
341,343,155188,6,0,L|229:334,1,90,4|8,0:0|0:3,0:0:0:0:
165,349,155441,2,0,L|150:281,1,45,4|8,0:3|0:0,0:0:0:0:
228,178,155694,2,0,L|205:248,2,45,8|8|2,0:0|0:0|0:0,0:0:0:0:
119,67,156031,1,4,0:0:0:0:
165,349,156368,1,4,0:0:0:0:
294,269,156705,5,2,0:0:0:0:
294,269,156874,2,2,P|343:271|401:268,1,90,8|0,0:0|0:0,0:0:0:0:
198,255,157211,1,2,0:0:0:0:
327,178,157379,1,2,0:0:0:0:
232,35,157548,2,0,L|244:158,1,90,8|0,0:0|0:0,0:0:0:0:
294,269,157885,6,0,P|336:255|381:249,1,90,2|2,0:0|0:0,0:0:0:0:
243,354,158222,1,8,0:0:0:0:
209,238,158391,2,0,P|253:250|294:269,1,90,0|2,0:0|0:0,0:0:0:0:
346,90,158728,2,0,L|327:178,1,90
380,300,159065,1,4,0:0:0:0:
250,122,159402,5,2,0:0:0:0:
250,122,159570,2,0,L|130:113,1,90,8|0,0:0|0:0,0:0:0:0:
105,191,159908,1,2,0:0:0:0:
196,38,160076,1,2,0:0:0:0:
81,173,160245,2,0,P|94:217|103:281,1,90,8|0,0:0|0:0,0:0:0:0:
33,345,160582,5,2,0:0:0:0:
33,345,160750,1,2,0:0:0:0:
189,213,160919,2,0,B|223:206|223:206|293:224,1,90,8|0,0:0|0:0,0:0:0:0:
332,286,161172,1,4,0:3:0:0:
332,286,161256,2,0,L|426:276,1,90,8|0,0:0|0:0,0:0:0:0:
494,319,161481,2,0,L|514:380,2,60,2|0|8,0:0|0:0|0:3,0:0:0:0:
413,82,161930,5,4,0:0:0:0:
400,112,167880,6,0,L|389:257,1,135.000005149842,4|2,0:0|0:0,0:0:0:0:
364,347,168480,1,0,0:0:0:0:
364,347,168680,2,0,P|402:333|447:327,1,67.5000025749208,2|0,0:0|0:0,0:0:0:0:
261,360,169080,1,2,0:0:0:0:
194,287,169280,1,8,0:0:0:0:
314,175,169480,5,2,0:0:0:0:
281,272,169680,1,8,0:0:0:0:
371,254,169880,1,2,0:0:0:0:
225,195,170080,1,0,0:0:0:0:
304,108,170280,2,0,P|307:141|314:175,1,67.5000025749208,2|8,0:0|0:0,0:0:0:0:
403,140,170680,1,2,0:0:0:0:
225,195,170880,1,4,0:3:0:0:
225,195,170980,1,4,0:3:0:0:
225,195,171080,6,0,P|179:187|138:185,2,67.5000025749208,4|0|8,0:0|0:0|0:0,0:0:0:0:
54,299,171680,2,0,P|87:295|120:289,1,67.5000025749208,0|2,0:0|0:0,0:0:0:0:
79,202,172080,1,0,0:0:0:0:
220,348,172280,2,0,P|222:314|228:281,1,67.5000025749208,8|0,0:0|0:0,0:0:0:0:
307,250,172580,1,2,0:0:0:0:
307,250,172680,6,0,L|291:88,1,135.000005149842,4|2,0:0|0:0,0:0:0:0:
396,165,173280,1,0,0:0:0:0:
396,165,173480,2,0,P|434:160|494:164,1,67.5000025749208,0|8,0:0|0:3,0:0:0:0:
488,322,173880,1,4,0:3:0:0:
400,286,174080,1,0,0:0:0:0:
267,338,174280,6,0,P|188:341|144:278,1,135.000005149842,4|0,0:0|0:0,0:0:0:0:
151,79,175080,2,0,P|201:37|267:46,1,135.000005149842,8|0,0:0|0:0,0:0:0:0:
396,152,175680,1,0,0:0:0:0:
229,118,175880,5,2,0:0:0:0:
256,206,176080,1,8,0:0:0:0:
370,63,176280,1,0,0:0:0:0:
308,135,176480,1,2,0:0:0:0:
481,168,176680,1,12,0:0:0:0:
370,63,176880,1,0,0:0:0:0:
354,157,177080,1,0,0:0:0:0:
338,250,177280,1,0,0:0:0:0:
432,347,177480,6,0,B|435:309|435:309|419:283|419:283|435:244|403:193,2,135.000005149842,4|8|8,0:0|0:0|0:0,0:0:0:0:
317,344,178480,1,2,0:0:0:0:
271,191,178680,2,0,P|233:181|198:176,1,67.5000025749208,8|2,0:0|0:0,0:0:0:0:
102,291,179080,5,8,0:0:0:0:
92,260,179180,1,8,0:0:0:0:
103,230,179280,1,2,0:0:0:0:
108,198,179380,1,2,0:0:0:0:
89,172,179480,1,8,0:3:0:0:
68,147,179580,1,8,0:3:0:0:
67,115,179680,1,2,0:0:0:0:
84,89,179780,1,2,0:0:0:0:
114,81,179880,5,12,0:0:0:0:
365,93,180680,6,0,P|325:90|266:77,1,90,12|0,0:0|0:0,0:0:0:0:
362,192,181080,2,0,P|389:227|413:265,1,90,8|0,0:0|0:0,0:0:0:0:
413,266,181380,1,0,0:0:0:0:
413,266,181480,1,2,0:0:0:0:
289,343,181680,1,0,0:0:0:0:
362,192,181880,1,8,0:0:0:0:
367,358,182080,1,0,0:0:0:0:
435,113,182280,5,2,0:0:0:0:
435,113,182480,2,0,P|454:153|463:197,1,90,0|8,0:0|0:0,0:0:0:0:
464,197,182780,1,0,0:0:0:0:
464,197,182880,1,0,0:0:0:0:
267,203,183080,1,2,0:0:0:0:
332,277,183280,1,0,0:0:0:0:
262,107,183480,1,8,0:0:0:0:
179,245,183680,1,0,0:0:0:0:
332,277,183880,6,0,P|376:284|419:295,1,90,6|0,0:0|0:0,0:0:0:0:
420,296,184180,1,0,0:0:0:0:
420,296,184280,1,8,0:0:0:0:
262,107,184480,2,0,P|217:114|174:125,1,90,0|2,0:0|0:0,0:0:0:0:
96,226,184880,1,0,0:0:0:0:
127,43,185080,1,8,0:0:0:0:
273,188,185280,6,0,P|317:170|342:123,1,90,0|6,0:0|0:0,0:0:0:0:
291,313,185680,2,0,L|195:289,1,90,0|8,0:0|0:0,0:0:0:0:
110,351,186080,1,0,0:0:0:0:
86,126,186280,2,0,P|105:166|116:210,1,90,2|0,0:0|0:0,0:0:0:0:
116,210,186580,1,8,0:0:0:0:
116,210,186680,1,2,0:0:0:0:
207,336,186880,1,8,0:0:0:0:
207,336,186980,1,8,0:0:0:0:
207,336,187080,6,0,P|215:271|325:232,2,180,4|8|0,0:0|0:0|0:0,0:0:0:0:
205,162,188080,1,0,0:0:0:0:
205,162,188180,1,0,0:0:0:0:
205,162,188280,2,0,P|211:118|223:75,1,90,8|0,0:0|0:0,0:0:0:0:
276,237,188680,5,2,0:0:0:0:
86,145,188880,2,0,P|87:199|115:233,1,90,0|8,0:0|0:0,0:0:0:0:
107,369,189280,2,0,L|5:357,1,90,0|2,0:0|0:0,0:0:0:0:
182,277,189680,1,0,0:0:0:0:
253,374,189880,1,8,0:0:0:0:
277,149,190080,1,0,0:0:0:0:
277,149,190180,1,0,0:0:0:0:
277,149,190280,5,6,0:0:0:0:
341,224,190480,2,0,P|384:213|441:218,1,90,0|8,0:0|0:0,0:0:0:0:
265,290,190880,1,0,0:0:0:0:
196,180,191080,1,2,0:0:0:0:
96,350,191280,1,0,0:0:0:0:
237,302,191480,1,8,0:0:0:0:
114,149,191680,6,0,P|168:96|234:105,1,135,4|0,0:0|0:0,0:0:0:0:
307,135,192080,2,0,P|321:92|326:47,1,90,8|8,0:0|0:0,0:0:0:0:
405,138,192480,1,8,0:0:0:0:
364,258,192680,2,0,P|380:299|405:337,1,90,8|8,0:0|0:0,0:0:0:0:
363,320,192980,5,8,0:0:0:0:
325,295,193080,1,8,0:0:0:0:
280,288,193180,1,8,0:0:0:0:
235,284,193280,1,8,0:0:0:0:
190,299,193380,1,8,0:0:0:0:
157,329,193480,6,0,L|169:129,1,180,4|8,0:0|0:0,0:0:0:0:
257,59,194080,1,0,0:0:0:0:
257,59,194280,2,0,L|368:51,1,90,2|0,0:0|0:0,0:0:0:0:
287,162,194680,1,8,0:0:0:0:
432,43,194880,1,0,0:3:0:0:
432,43,194980,1,0,0:3:0:0:
432,43,195080,5,4,0:0:0:0:
374,158,195280,2,0,P|385:194|393:281,1,90,0|8,0:0|0:0,0:0:0:0:
332,317,195680,1,0,0:0:0:0:
144,348,195880,1,2,0:0:0:0:
232,261,196080,1,0,0:0:0:0:
160,336,196280,1,8,0:0:0:0:
219,85,196480,1,2,0:0:0:0:
219,85,196580,1,2,0:0:0:0:
219,85,196680,6,0,B|231:112|231:112|229:145|229:145|237:173|237:173|242:229|232:261,1,180,4|8,0:0|0:0,0:0:0:0:
292,354,197280,2,0,P|336:356|394:315,1,90,0|2,0:0|0:0,0:0:0:0:
106,263,197680,2,0,P|79:297|71:341,1,90,0|2,0:0|0:0,0:0:0:0:
72,117,198080,1,2,0:0:0:0:
72,117,198180,1,2,0:0:0:0:
72,117,198280,5,12,0:0:0:0:
166,187,198480,1,0,0:0:0:0:
42,326,198680,1,12,0:0:0:0:
192,273,198880,1,2,0:0:0:0:
53,199,199080,1,12,0:0:0:0:
203,294,199280,2,0,P|235:270|262:259,1,45,8|8,0:0|0:0,0:0:0:0:
321,242,199480,2,0,P|351:242|370:248,1,45,12|8,0:0|0:0,0:0:0:0:
442,287,199680,2,0,P|452:306|462:347,1,45,8|8,0:0|0:0,0:0:0:0:
283,321,199880,6,0,P|237:217|297:154,1,180,4|8,0:0|0:0,0:0:0:0:
364,161,200480,1,0,0:0:0:0:
147,218,200680,2,0,P|128:177|120:132,1,90,2|0,0:0|0:0,0:0:0:0:
190,62,201080,1,8,0:0:0:0:
42,213,201280,1,2,0:0:0:0:
42,213,201380,1,2,0:0:0:0:
42,213,201480,5,4,0:0:0:0:
226,164,201680,2,0,P|266:180|292:238,1,90,0|8,0:0|0:0,0:0:0:0:
242,330,202080,1,0,0:0:0:0:
226,164,202280,1,2,0:0:0:0:
342,279,202480,1,0,0:0:0:0:
174,257,202680,1,8,0:0:0:0:
322,185,202880,1,0,0:0:0:0:
174,257,203080,5,4,0:0:0:0:
174,257,203280,2,0,L|65:241,1,90,0|8,0:0|0:0,0:0:0:0:
240,375,203680,2,0,L|349:359,1,90,0|2,0:0|0:0,0:0:0:0:
273,268,204080,1,0,0:0:0:0:
423,334,204280,1,8,0:0:0:0:
440,165,204480,6,0,P|377:149|321:188,1,135,4|0,0:0|0:0,0:0:0:0:
393,232,204880,1,10,0:0:0:0:
309,81,205080,1,10,0:0:0:0:
344,299,205280,1,10,0:0:0:0:
302,80,205480,1,10,0:0:0:0:
94,96,206280,6,0,L|103:292,1,180,4|8,0:0|0:0,0:0:0:0:
213,351,206880,1,0,0:0:0:0:
213,351,207080,2,0,P|215:300|228:241,1,90,2|0,0:0|0:0,0:0:0:0:
186,84,207480,1,8,0:0:0:0:
311,193,207680,1,2,0:0:0:0:
311,193,207780,1,2,0:0:0:0:
311,193,207880,6,0,P|323:236|329:280,1,90,4|0,0:0|0:0,0:0:0:0:
367,119,208280,2,0,B|366:72|366:72|391:20,2,90,8|0|2,0:0|0:0|0:0,0:0:0:0:
252,101,208880,1,8,0:0:0:0:
418,206,209080,1,8,0:0:0:0:
451,95,209280,1,4,0:3:0:0:
311,193,209480,6,0,L|326:295,1,90,4|0,0:0|0:0,0:0:0:0:
246,343,209880,1,8,0:0:0:0:
147,285,210080,1,0,0:0:0:0:
252,101,210280,1,2,0:0:0:0:
311,194,210480,1,0,0:0:0:0:
231,251,210680,1,8,0:0:0:0:
265,84,210880,1,8,0:0:0:0:
265,84,210980,1,8,0:0:0:0:
265,84,211080,6,0,P|321:83|386:72,1,90,4|0,0:0|0:0,0:0:0:0:
158,180,211480,2,0,P|117:161|74:147,1,90,4|2,0:0|0:0,0:0:0:0:
234,332,211880,2,0,P|276:317|303:282,1,90,4|0,0:0|0:0,0:0:0:0:
306,200,212180,2,0,L|295:122,1,45,8|8,0:0|0:0,0:0:0:0:
366,101,212380,2,0,L|376:40,1,45,8|8,0:0|0:0,0:0:0:0:
451,31,212580,1,8,0:0:0:0:
451,31,212680,6,0,P|389:81|472:123,1,180,4|8,0:0|0:0,0:0:0:0:
306,200,213280,1,0,0:0:0:0:
374,271,213480,2,0,L|466:253,1,90,2|0,0:0|0:0,0:0:0:0:
301,357,213880,2,0,L|184:340,1,90,8|0,0:0|0:0,0:0:0:0:
211,344,214180,1,0,0:0:0:0:
211,344,214280,5,4,0:0:0:0:
202,193,214480,1,0,0:0:0:0:
302,279,214680,1,8,0:0:0:0:
126,329,214880,1,0,0:0:0:0:
293,171,215080,2,0,L|303:75,1,90,2|0,0:0|0:0,0:0:0:0:
381,25,215480,1,8,0:0:0:0:
210,101,215680,1,0,0:0:0:0:
210,101,215780,1,0,0:0:0:0:
210,101,215880,6,0,P|165:91|101:83,1,90,4|0,0:0|0:0,0:0:0:0:
381,25,216280,2,0,P|424:15|469:8,1,90,8|0,0:0|0:0,0:0:0:0:
293,171,216680,2,0,L|274:291,1,90,2|0,0:0|0:0,0:0:0:0:
298,63,217080,1,8,0:0:0:0:
392,216,217280,1,8,0:0:0:0:
392,216,217380,1,8,0:0:0:0:
392,216,217480,6,0,P|435:205|482:200,1,90,8|2,0:0|0:0,0:0:0:0:
361,308,217880,1,0,0:0:0:0:
415,127,218080,1,2,0:0:0:0:
361,312,218280,1,8,0:0:0:0:
299,63,218480,1,8,0:0:0:0:
292,93,218580,1,8,0:0:0:0:
286,123,218680,1,8,0:0:0:0:
279,153,218780,1,8,0:0:0:0:
272,183,218880,1,8,0:0:0:0:
264,213,218980,1,2,0:0:0:0:
258,243,219080,5,4,0:0:0:0:
256,188,224905,5,6,0:0:0:0:
265,212,225715,6,0,L|257:276,1,45
326,321,226040,2,0,P|355:316|382:314,1,45
201,362,226364,2,0,P|178:359|156:355,1,45
346,320,226688,2,0,P|375:315|402:313,1,45
181,362,227013,2,0,P|158:359|136:355,1,45
92,213,227337,1,2,0:0:0:0:
92,213,227418,1,2,0:0:0:0:
92,213,227499,5,12,0:0:0:0:
159,362,227661,1,0,0:0:0:0:
218,114,227823,1,0,0:0:0:0:
174,274,227986,1,2,0:0:0:0:
174,274,228067,1,2,0:0:0:0:
174,274,228148,1,12,0:0:0:0:
311,50,228310,1,0,0:0:0:0:
248,204,228472,1,0,0:0:0:0:
122,121,228634,1,0,0:0:0:0:
300,34,228796,5,0,0:0:0:0:
289,18,229445,5,0,0:0:0:0:
248,204,230094,6,0,L|256:299,1,90,4|8,0:0|0:0,0:0:0:0:
167,334,230418,1,2,0:0:0:0:
343,237,230580,1,8,0:0:0:0:
187,140,230742,1,2,0:0:0:0:
352,251,230905,2,0,P|399:239|464:237,1,90,8|2,0:0|0:0,0:0:0:0:
325,47,231229,6,0,P|313:90|309:135,1,90,8|2,0:0|0:0,0:0:0:0:
451,162,231553,1,8,0:0:0:0:
261,274,231715,1,2,0:0:0:0:
337,337,231877,2,0,P|377:328|437:323,1,90,8|2,0:0|0:0,0:0:0:0:
255,371,232202,1,8,0:0:0:0:
172,231,232364,1,2,0:0:0:0:
337,337,232526,1,8,0:0:0:0:
159,222,232688,6,0,P|115:211|70:209,1,90,6|8,0:0|0:0,0:0:0:0:
100,319,233013,1,0,0:0:0:0:
152,115,233175,2,0,L|241:103,1,90,8|2,0:0|0:0,0:0:0:0:
329,183,233499,2,0,P|302:228|283:294,1,90,8|2,0:0|0:0,0:0:0:0:
241,103,233823,6,0,P|234:58|219:16,1,90,8|2,0:0|0:0,0:0:0:0:
254,229,234148,1,8,0:0:0:0:
333,90,234310,1,2,0:0:0:0:
345,276,234472,1,8,0:0:0:0:
241,103,234634,2,0,P|219:106|182:101,3,45,8|8|8|8,0:0|0:0|0:0|0:0,0:0:0:0:
164,100,234959,1,8,0:0:0:0:
135,112,235040,1,8,0:0:0:0:
122,141,235121,1,8,0:0:0:0:
125,172,235202,1,8,0:0:0:0:
146,196,235283,6,0,P|139:240|129:284,1,90,6|8,0:0|0:0,0:0:0:0:
53,333,235607,1,2,0:0:0:0:
254,229,235769,2,0,L|359:247,1,90,8|2,0:0|0:0,0:0:0:0:
284,334,236094,1,8,0:0:0:0:
297,148,236256,1,2,0:0:0:0:
266,359,236418,6,0,L|176:366,1,90,12|2,0:0|0:0,0:0:0:0:
104,266,236742,1,8,0:0:0:0:
104,266,236905,1,2,0:0:0:0:
156,93,237067,2,0,L|177:213,1,90,8|2,0:0|0:0,0:0:0:0:
307,305,237391,2,0,P|361:284|375:226,1,90,8|2,0:0|0:0,0:0:0:0:
428,32,237715,1,8,0:0:0:0:
372,101,237877,6,0,P|392:140|418:177,1,90,6|8,0:0|0:0,0:0:0:0:
492,244,238121,1,8,0:3:0:0:
492,244,238202,2,2,P|458:271|445:320,1,90,0|12,0:0|0:0,0:0:0:0:
243,365,238688,2,0,L|143:355,1,90,2|8,0:0|0:0,0:0:0:0:
37,338,239013,1,2,0:0:0:0:
37,338,239094,1,8,0:0:0:0:
37,338,239175,5,8,0:0:0:0:
229,237,239337,1,2,0:0:0:0:
243,365,239499,1,2,0:0:0:0:
209,211,239661,2,0,B|209:167|209:167|223:122|223:122|222:67,1,135,12|0,0:0|0:0,0:0:0:0:
172,18,239986,1,2,0:0:0:0:
264,266,240148,1,8,0:0:0:0:
346,98,240472,5,0,0:0:0:0:
346,98,240796,6,0,P|387:74|439:87,1,90,12|2,0:0|0:0,0:0:0:0:
272,172,241121,2,0,P|224:159|157:144,1,90,0|2,0:0|0:0,0:0:0:0:
334,317,241445,2,0,P|377:306|421:294,1,90,8|0,0:0|0:0,0:0:0:0:
249,263,241769,6,0,B|200:250|200:250|104:268,1,135,2|0,0:0|0:0,0:0:0:0:
183,308,242094,2,0,P|191:264|178:221,1,90,8|0,0:0|0:0,0:0:0:0:
153,89,242418,2,0,L|179:222,1,135,2|0,0:0|0:0,0:0:0:0:
249,263,242742,2,0,L|361:244,1,90,8|0,0:0|0:0,0:0:0:0:
449,150,243067,6,0,P|444:191|451:310,1,135,2|0,0:0|0:0,0:0:0:0:
371,359,243391,1,8,0:0:0:0:
249,263,243553,1,8,0:0:0:0:
312,156,243715,1,8,0:0:0:0:
286,349,243877,1,10,0:0:0:0:
339,140,244040,1,10,0:0:0:0:
221,269,244202,1,10,0:0:0:0:
385,222,244364,5,6,0:0:0:0:
222,174,244526,1,2,0:0:0:0:
335,286,244688,1,8,0:0:0:0:
368,122,244850,1,2,0:0:0:0:
368,122,244932,1,8,0:0:0:0:
368,122,245013,1,2,0:0:0:0:
221,269,245175,1,2,0:0:0:0:
268,97,245337,1,12,0:0:0:0:
216,279,245499,1,2,0:0:0:0:
279,27,245661,6,0,B|264:65|264:65|274:102|274:102|253:153|275:224,2,180,6|8|2,0:0|0:0|0:0,0:0:0:0:
368,122,246472,1,2,0:0:0:0:
186,92,246634,2,0,P|137:103|97:108,1,90,8|0,0:0|0:0,0:0:0:0:
140,204,246959,6,0,P|131:257|121:358,1,135,2|0,0:0|0:0,0:0:0:0:
200,360,247283,2,0,P|247:353|313:349,1,90,8|0,0:0|0:0,0:0:0:0:
379,237,247607,1,6,0:0:0:0:
323,353,247769,1,2,0:0:0:0:
469,317,247932,1,8,0:0:0:0:
460,187,248094,1,0,0:0:0:0:
273,246,248256,6,0,L|389:269,1,90,12|2,0:0|0:0,0:0:0:0:
364,63,248580,2,0,P|350:101|318:163,1,90,0|2,0:0|0:0,0:0:0:0:
176,255,248904,2,0,P|195:295|211:337,1,90,0|2,0:0|0:0,0:0:0:0:
211,337,249148,1,2,0:0:0:0:
211,337,249229,1,12,0:0:0:0:
224,147,249391,1,2,0:0:0:0:
113,97,249553,6,0,L|95:196,1,101.250003862381,4|0,0:0|0:0,0:0:0:0:
32,262,249877,2,0,L|-16:280,2,33.7500012874604,0|0|0,0:0|0:0|0:0,0:0:0:0:
211,337,250202,2,0,P|266:266|257:223,1,135.000005149842
224,147,250634,6,0,P|214:119|209:83,2,45.0000017166138,8|8|2,0:0|0:0|0:0,0:0:0:0:
117,82,256813,6,0,L|112:255,1,135,4|0,0:0|0:0,0:0:0:0:
113,216,257188,2,0,L|233:188,1,90,8|0,0:0|0:0,0:0:0:0:
290,180,257563,1,2,0:0:0:0:
186,292,257750,1,0,0:0:0:0:
277,201,257938,2,0,P|291:243|299:288,1,90,8|0,0:0|0:0,0:0:0:0:
400,43,258313,6,0,P|386:85|378:130,1,90,2|0,0:0|0:0,0:0:0:0:
443,199,258688,1,8,0:0:0:0:
303,60,258875,2,0,L|193:74,1,90,0|2,0:0|0:0,0:0:0:0:
353,190,259250,2,0,L|443:199,1,90,0|8,0:0|0:0,0:0:0:0:
254,181,259625,1,0,0:0:0:0:
321,307,259813,5,12,0:0:0:0:
372,110,260000,1,2,0:0:0:0:
413,253,260188,1,8,0:0:0:0:
229,261,260375,1,2,0:0:0:0:
321,336,260563,1,8,0:0:0:0:
209,246,260750,1,2,0:0:0:0:
443,166,260938,1,8,0:0:0:0:
328,207,261125,1,2,0:0:0:0:
488,293,261313,5,8,0:0:0:0:
407,367,261500,1,2,0:0:0:0:
363,127,261688,1,8,0:0:0:0:
489,293,261875,1,2,0:0:0:0:
321,336,262063,2,0,P|275:323|222:316,1,90,8|2,0:0|0:0,0:0:0:0:
417,221,262438,2,0,P|461:214|504:201,1,90,8|2,0:0|0:0,0:0:0:0:
428,56,262813,5,4,0:0:0:0:
428,56,263000,1,0,0:0:0:0:
321,211,263188,1,8,0:0:0:0:
499,107,263375,1,8,0:0:0:0:
488,259,263563,1,8,0:0:0:0:
344,183,263750,1,8,0:0:0:0:
374,352,263938,1,8,0:0:0:0:
369,157,264125,1,8,0:0:0:0:
266,333,264313,6,0,L|353:311,1,90,8|8,0:0|0:0,0:0:0:0:
203,215,264688,2,0,L|113:203,1,90,8|8,0:0|0:0,0:0:0:0:
65,120,265063,2,0,P|55:83|84:16,1,90,8|8,0:0|0:0,0:0:0:0:
279,177,265438,2,0,P|289:214|260:281,1,90,8|8,0:0|0:0,0:0:0:0:
419,155,265813,6,0,L|436:53,1,90,4|8,0:0|0:0,0:0:0:0:
332,251,266188,2,0,L|349:353,1,90,2|8,0:0|0:0,0:0:0:0:
181,347,266563,1,2,0:0:0:0:
254,289,266750,1,8,0:0:0:0:
152,154,266938,1,2,0:0:0:0:
164,326,267125,1,8,0:0:0:0:
180,176,267313,6,0,P|184:123|195:81,1,90,4|8,0:0|0:0,0:0:0:0:
40,186,267688,2,0,P|66:232|80:273,1,90,2|8,0:0|0:0,0:0:0:0:
254,289,268063,2,0,L|319:274,2,45,2|2|8,0:0|0:0|0:0,0:0:0:0:
353,154,268438,1,2,0:0:0:0:
353,154,268531,1,2,0:0:0:0:
353,154,268625,1,8,0:0:0:0:
296,361,268813,5,4,0:0:0:0:
430,254,269000,1,8,0:0:0:0:
271,196,269188,2,0,L|171:184,1,90,2|8,0:0|0:0,0:0:0:0:
29,285,269563,2,0,P|60:305|121:363,1,90,2|8,0:0|0:0,0:0:0:0:
89,197,269938,2,0,P|78:161|68:77,1,90,2|8,0:0|0:0,0:0:0:0:
178,258,270313,5,4,0:0:0:0:
259,115,270500,1,8,0:0:0:0:
289,282,270688,1,2,0:0:0:0:
319,286,270781,1,2,0:0:0:0:
349,277,270875,1,8,0:0:0:0:
367,251,270969,1,0,0:0:0:0:
376,221,271063,2,0,L|369:105,1,90,4|8,0:0|0:0,0:0:0:0:
488,240,271438,2,0,L|479:344,1,90,2|8,0:0|0:0,0:0:0:0:
300,208,271813,5,4,0:0:0:0:
227,350,272000,1,8,0:0:0:0:
184,166,272188,1,2,0:0:0:0:
313,80,272375,1,8,0:0:0:0:
213,253,272563,1,2,0:0:0:0:
382,163,272750,1,8,0:0:0:0:
228,80,272938,1,2,0:0:0:0:
365,265,273125,1,8,0:0:0:0:
397,76,273313,6,0,P|446:98|465:138,1,90,4|8,0:0|0:0,0:0:0:0:
286,286,273688,2,0,P|285:232|313:198,1,90,2|8,0:0|0:0,0:0:0:0:
454,215,274063,1,2,0:0:0:0:
454,215,274156,1,2,0:0:0:0:
454,215,274250,1,8,0:0:0:0:
265,148,274438,2,0,L|200:164,2,45,2|2|8,0:0|0:0|0:0,0:0:0:0:
381,162,274813,5,4,0:0:0:0:
295,34,275000,1,8,0:0:0:0:
184,175,275188,1,2,0:0:0:0:
301,67,275375,1,8,0:0:0:0:
258,238,275563,2,0,P|273:285|283:332,1,90,2|8,0:0|0:0,0:0:0:0:
119,242,275938,1,2,0:0:0:0:
332,170,276125,6,0,P|372:199|407:231,1,90,2|8,0:0|0:0,0:0:0:0:
304,317,276500,1,2,0:0:0:0:
467,278,276688,1,8,0:0:0:0:
332,170,276875,1,2,0:0:0:0:
225,358,277063,2,0,P|164:337|143:305,1,90,8|8,0:0|0:0,0:0:0:0:
183,189,277438,1,8,0:0:0:0:
49,294,277625,1,8,0:0:0:0:
89,61,277813,6,0,L|101:181,1,90,4|8,0:0|0:0,0:0:0:0:
147,262,278188,1,2,0:0:0:0:
216,113,278375,1,8,0:0:0:0:
242,318,278563,2,0,L|367:293,1,90,2|8,0:0|0:0,0:0:0:0:
414,340,278938,1,2,0:0:0:0:
242,318,279125,1,8,0:0:0:0:
345,132,279313,6,0,L|327:227,1,90,2|8,0:0|0:0,0:0:0:0:
151,53,279688,2,0,P|190:29|241:32,1,90,2|8,0:0|0:0,0:0:0:0:
256,153,280063,1,2,0:0:0:0:
256,153,280156,1,2,0:0:0:0:
256,153,280250,1,8,0:0:0:0:
388,52,280438,2,0,L|441:68,2,45,2|2|8,0:0|0:0|0:0,0:0:0:0:
177,207,280813,5,4,0:0:0:0:
239,71,281000,1,8,0:0:0:0:
250,270,281188,1,2,0:0:0:0:
166,121,281375,1,8,0:0:0:0:
273,266,281563,2,0,P|251:315|238:358,1,90,2|8,0:0|0:0,0:0:0:0:
341,380,281938,1,2,0:0:0:0:
347,218,282125,1,8,0:0:0:0:
82,237,282313,6,0,P|115:268|152:295,1,90,2|8,0:0|0:0,0:0:0:0:
16,328,282688,1,2,0:0:0:0:
16,328,282781,1,2,0:0:0:0:
16,328,282875,1,8,0:0:0:0:
51,152,283063,2,0,P|69:193|82:237,1,90,4|8,0:0|0:0,0:0:0:0:
232,338,283438,2,0,P|244:294|262:253,1,90,2|8,0:0|0:0,0:0:0:0:
345,142,283813,5,4,0:0:0:0:
214,158,284000,1,8,0:0:0:0:
263,254,284188,1,2,0:0:0:0:
131,109,284375,1,8,0:0:0:0:
247,66,284563,1,2,0:0:0:0:
171,242,284750,1,8,0:0:0:0:
231,42,284938,1,2,0:0:0:0:
182,278,285125,1,8,0:0:0:0:
345,141,285313,6,0,L|437:156,2,90,4|8|2,0:0|0:0|0:0,0:0:0:0:
263,254,285875,1,8,0:0:0:0:
331,42,286063,1,2,0:0:0:0:
331,42,286156,1,2,0:0:0:0:
331,42,286250,1,8,0:0:0:0:
178,120,286438,2,0,L|118:103,2,45,2|2|8,0:0|0:0|0:0,0:0:0:0:
455,196,286813,6,0,P|448:248|416:277,1,90,4|8,0:0|0:0,0:0:0:0:
185,246,287188,2,0,P|198:203|233:177,1,90,2|8,0:0|0:0,0:0:0:0:
329,313,287563,1,2,0:0:0:0:
234,178,287750,1,8,0:0:0:0:
242,348,287938,1,2,0:0:0:0:
320,141,288125,1,8,0:0:0:0:
156,323,288313,6,0,L|55:304,1,90,2|2,0:0|0:0,0:0:0:0:
328,227,288688,2,0,L|443:214,1,90,2|2,0:0|0:0,0:0:0:0:
242,349,289063,1,8,0:0:0:0:
253,188,289250,1,8,0:0:0:0:
412,264,289438,1,8,0:0:0:0:
388,120,289625,1,8,0:0:0:0:
222,320,289813,5,4,0:0:0:0:
123,77,292813,6,0,L|132:223,1,135,4|0,0:0|0:0,0:0:0:0:
195,270,293188,1,2,0:0:0:0:
41,195,293375,1,2,0:0:0:0:
205,141,293563,1,2,0:0:0:0:
105,318,293750,1,2,0:0:0:0:
52,159,293938,1,8,0:0:0:0:
217,245,294125,1,8,0:0:0:0:
202,52,294313,5,8,0:0:0:0:
140,188,294500,1,8,0:0:0:0:
298,141,294688,1,8,0:0:0:0:
188,323,294875,1,8,0:0:0:0:
369,269,295063,1,8,0:0:0:0:
267,371,295250,1,8,0:0:0:0:
298,141,295438,1,8,0:0:0:0:
364,362,295625,1,8,0:0:0:0:
328,165,295813,6,0,L|311:82,1,80.9999975280763
350,21,296188,5,12,0:0:0:0:
42,154,302685,6,0,P|108:88|206:144,1,180,4|8,0:0|0:0,0:0:0:0:
330,79,303158,1,0,0:0:0:0:
330,79,303316,2,0,L|293:270,1,180,2|8,0:0|0:0,0:0:0:0:
202,324,303790,1,0,0:0:0:0:
396,237,303948,6,0,L|489:279,1,90,2|0,0:0|0:0,0:0:0:0:
222,118,304263,2,0,L|126:128,1,90,8|0,0:0|0:0,0:0:0:0:
311,266,304579,2,0,P|309:194|371:148,1,135,2|0,0:0|0:0,0:0:0:0:
379,75,304895,2,0,L|282:54,1,90,8|0,0:0|0:0,0:0:0:0:
216,246,305211,6,0,L|396:237,1,180,2|8,0:0|0:0,0:0:0:0:
473,297,305685,1,0,0:0:0:0:
478,70,305842,2,0,P|468:103|459:173,1,90,2|0,0:0|0:0,0:0:0:0:
392,343,306158,2,0,L|286:320,1,90,8|0,0:0|0:0,0:0:0:0:
195,166,306474,5,2,0:0:0:0:
118,339,306632,1,0,0:0:0:0:
110,175,306790,1,8,0:0:0:0:
216,247,306948,1,0,0:0:0:0:
295,147,307106,2,0,L|278:6,1,135,2|0,0:0|0:0,0:0:0:0:
192,41,307421,2,0,P|139:32|95:45,1,90,8|0,0:0|0:0,0:0:0:0:
373,193,307737,6,0,P|415:180|450:151,1,90,2|0,0:0|0:0,0:0:0:0:
179,322,308053,2,0,B|140:303|140:303|118:234|164:174,1,180,8|2,0:0|0:0,0:0:0:0:
300,285,308527,1,0,0:0:0:0:
373,105,308685,2,0,L|348:8,1,90,8|0,0:0|0:0,0:0:0:0:
456,215,309000,6,0,L|435:305,1,90,2|0,0:0|0:0,0:0:0:0:
292,144,309316,2,0,P|250:131|192:118,1,90,8|0,0:0|0:0,0:0:0:0:
92,82,309632,2,0,P|147:19|214:26,1,135,2|0,0:0|0:0,0:0:0:0:
277,45,309948,2,0,L|388:39,1,90,8|0,0:0|0:0,0:0:0:0:
400,271,310263,6,0,P|352:237|244:235,1,135,2|0,0:0|0:0,0:0:0:0:
236,300,310579,2,0,P|195:329|142:356,1,90,8|0,0:0|0:0,0:0:0:0:
170,87,310895,2,0,P|194:124|213:165,1,90,2|2,0:0|0:0,0:0:0:0:
133,248,311211,1,8,0:0:0:0:
299,219,311369,5,8,0:0:0:0:
299,219,311448,1,8,0:0:0:0:
299,219,311527,1,2,0:0:0:0:
83,127,311685,2,0,L|14:141,2,45,8|8|8,0:0|0:0|0:0,0:0:0:0:
230,168,312000,2,0,L|255:112,1,45,8|8,0:0|0:0,0:0:0:0:
344,70,312158,2,0,L|350:126,1,45,8|0,0:0|0:0,0:0:0:0:
461,187,312316,2,0,L|448:141,1,45,8|8,0:0|0:0,0:0:0:0:
436,53,312474,1,8,0:0:0:0:
436,53,312553,1,8,0:0:0:0:
436,53,312632,1,8,0:0:0:0:
436,53,312711,1,8,0:0:0:0:
436,53,312790,6,0,L|250:29,1,180,4|8,0:0|0:0,0:0:0:0:
328,161,313263,1,0,0:0:0:0:
172,88,313421,1,2,0:0:0:0:
247,274,313579,1,2,0:0:0:0:
104,153,313737,2,0,P|59:142|10:125,1,90,8|0,0:0|0:0,0:0:0:0:
268,252,314053,6,0,P|311:242|356:236,1,90,2|0,0:0|0:0,0:0:0:0:
231,355,314369,1,8,0:0:0:0:
154,248,314527,1,0,0:0:0:0:
319,327,314685,2,0,L|440:305,2,90,2|2|8,0:0|0:0|0:0,0:0:0:0:
271,106,315158,1,0,0:0:0:0:
359,78,315316,6,0,P|373:132|377:251,1,135,2|0,0:0|0:0,0:0:0:0:
418,290,315632,2,0,L|506:271,1,90,8|0,0:0|0:0,0:0:0:0:
485,85,315948,1,2,0:0:0:0:
458,183,316106,1,2,0:0:0:0:
461,366,316263,1,8,0:0:0:0:
506,272,316421,1,0,0:0:0:0:
331,233,316579,6,0,P|317:278|312:338,1,90,2|0,0:0|0:0,0:0:0:0:
218,156,316895,2,0,P|210:109|187:53,1,90,8|0,0:0|0:0,0:0:0:0:
187,272,317211,1,2,0:0:0:0:
125,136,317369,1,2,0:0:0:0:
283,64,317527,2,0,L|254:207,1,135,8|0,0:0|0:0,0:0:0:0:
331,233,317842,6,0,L|438:226,1,90,2|0,0:0|0:0,0:0:0:0:
280,333,318158,1,8,0:0:0:0:
389,306,318316,1,0,0:0:0:0:
220,181,318474,1,2,0:0:0:0:
280,333,318632,1,2,0:0:0:0:
335,138,318790,2,0,L|391:48,1,90,8|0,0:0|0:0,0:0:0:0:
221,181,319106,6,0,L|230:270,1,90,2|0,0:0|0:0,0:0:0:0:
461,259,319421,2,0,P|439:238|350:233,1,90,8|0,0:0|0:0,0:0:0:0:
280,333,319737,1,2,0:0:0:0:
221,181,319895,2,0,P|177:188|142:216,1,90,2|8,0:0|0:0,0:0:0:0:
300,238,320211,1,0,0:0:0:0:
189,302,320369,6,0,L|222:125,1,180,2|8,0:0|0:0,0:0:0:0:
300,238,320842,1,0,0:0:0:0:
96,244,321000,2,0,P|44:222|22:192,1,90,2|2,0:0|0:0,0:0:0:0:
297,160,321316,2,0,P|323:124|328:79,1,90,8|0,0:0|0:0,0:0:0:0:
235,20,321632,5,2,0:0:0:0:
377,196,321790,1,8,0:0:0:0:
377,196,321869,1,8,0:0:0:0:
377,196,321948,1,8,0:0:0:0:
416,69,322106,2,8,L|403:-1,2,45,8|8|8,0:0|0:0|0:0,0:0:0:0:
398,226,322421,2,8,L|386:306,1,45
289,326,322579,2,8,L|282:244,1,45,8|0,0:0|0:0,0:0:0:0:
167,250,322737,2,8,L|178:308,1,45
102,355,322895,6,0,L|15:319,1,90,2|8,0:0|0:3,0:0:0:0:
40,234,323132,2,0,L|86:206,1,45,8|2,0:3|0:0,0:0:0:0:
176,293,323369,1,8,0:3:0:0:
48,121,323527,1,8,0:3:0:0:
129,58,323685,1,2,0:0:0:0:
129,58,323763,1,2,0:0:0:0:
129,58,323842,2,0,P|186:67|284:74,1,135,4|0,0:0|0:0,0:0:0:0:
342,35,324158,6,0,P|364:75|366:119,1,90,2|0,0:0|0:0,0:0:0:0:
294,233,324474,1,8,0:0:0:0:
367,120,324632,1,8,0:0:0:0:
340,309,324790,1,8,0:0:0:0:
176,291,324948,1,8,0:0:0:0:
285,145,325106,1,8,0:0:0:0:
258,362,325263,5,4,0:0:0:0:
66,120,331340,6,0,B|115:84|159:100|159:100|191:155,1,135.000005149842
265,181,331896,1,0,0:0:0:0:
265,181,332081,2,0,L|350:173,1,67.5000025749208
336,314,332451,2,0,L|267:308,1,67.5000025749208
93,211,332821,5,0,0:0:0:0:
166,157,333007,2,0,P|177:192|178:257,1,101.250003862381
208,338,333377,2,0,P|233:323|283:303,1,67.5000025749208
98,305,333747,2,0,P|66:293|37:276,1,67.5000025749208
37,276,334303,6,0,L|32:121,1,135.000005149842
147,42,334859,2,0,B|186:68|185:126|185:126|204:68,1,135.000005149842
257,178,335414,2,0,L|232:262,1,67.5000025749208
103,109,335784,2,0,L|236:87,1,135.000005149842
374,268,336340,2,0,L|308:250,1,67.5000025749208
309,251,336896,1,0,0:0:0:0:
196,76,337266,6,0,L|202:171,1,90,12|8,0:0|0:0,0:0:0:0:
155,247,337636,1,8,0:0:0:0:
76,166,337821,1,8,0:0:0:0:
275,98,338007,1,8,0:0:0:0:
243,206,338192,1,8,0:0:0:0:
363,168,338377,2,0,L|453:148,1,90,8|8,0:0|0:0,0:0:0:0:
328,317,338747,6,0,L|217:303,1,90,8|8,0:0|0:0,0:0:0:0:
111,350,339118,1,8,0:0:0:0:
146,157,339303,2,0,P|154:202|155:247,1,90,8|8,0:0|0:0,0:0:0:0:
42,267,339673,1,8,0:0:0:0:
207,88,339859,2,0,P|248:104|287:126,1,90,8|8,0:0|0:0,0:0:0:0:
381,262,340229,6,0,P|421:239|444:162,1,90,8|8,0:0|0:0,0:0:0:0:
364,24,340599,2,0,L|271:37,1,90,8|8,0:0|0:0,0:0:0:0:
412,116,340970,2,0,L|501:126,1,90,8|8,0:0|0:0,0:0:0:0:
502,260,341340,1,8,0:0:0:0:
501,127,341525,1,8,0:0:0:0:
381,262,341710,6,0,P|375:322|382:366,1,90,8|8,0:0|0:0,0:0:0:0:
243,362,342081,1,8,0:0:0:0:
320,183,342267,1,8,0:0:0:0:
381,262,342451,2,0,L|439:242,2,45,0|2|0,0:0|0:0|0:0,0:0:0:0:
320,183,342821,6,0,L|311:62,1,101.250003862381
252,30,343192,6,0,P|208:23|159:49,1,90,4|0,0:0|0:0,0:0:0:0:
399,136,343562,2,0,P|443:143|492:117,1,90,8|0,0:0|0:0,0:0:0:0:
431,67,343840,2,0,P|426:45|424:-1,2,45,8|2|8,0:0|0:0|0:0,0:0:0:0:
493,217,344303,2,0,L|467:375,1,135,2|0,0:0|0:0,0:0:0:0:
390,353,344673,6,0,L|408:245,1,90,8|0,0:0|0:0,0:0:0:0:
317,182,345044,1,8,0:0:0:0:
213,215,345229,1,0,0:0:0:0:
213,215,345321,2,0,L|155:194,1,45,8|2,0:0|0:0,0:0:0:0:
90,235,345507,2,0,L|49:253,2,45,8|2|0,0:0|0:0|0:0,0:0:0:0:
110,140,345784,2,0,L|122:39,1,90,8|0,0:0|0:0,0:0:0:0:
228,44,346155,6,0,B|269:28|269:28|359:34,1,135,4|0,0:0|0:0,0:0:0:0:
360,34,346525,2,0,L|341:122,1,90,8|0,0:0|0:0,0:0:0:0:
302,198,346803,2,0,L|315:246,2,45,8|2|8,0:0|0:0|0:0,0:0:0:0:
237,333,347173,1,0,0:0:0:0:
237,333,347266,2,0,L|136:311,1,90,8|0,0:0|0:0,0:0:0:0:
46,322,347636,6,0,B|36:270|36:270|63:178,1,135,4|0,0:0|0:0,0:0:0:0:
33,111,348007,2,0,P|71:92|127:102,1,90,8|0,0:0|0:0,0:0:0:0:
245,134,348377,2,0,P|286:116|323:91,1,90,8|0,0:0|0:0,0:0:0:0:
334,47,348655,1,2,0:0:0:0:
372,24,348747,1,8,0:0:0:0:
417,25,348840,1,2,0:0:0:0:
450,55,348933,1,8,0:0:0:0:
462,98,349025,1,8,0:0:0:0:
435,134,349118,6,0,P|429:178|434:223,1,90,4|0,0:0|0:0,0:0:0:0:
370,350,349488,2,0,L|251:333,1,90,8|0,0:0|0:0,0:0:0:0:
222,275,349766,1,8,0:0:0:0:
222,275,349859,1,2,0:0:0:0:
222,275,349951,2,0,L|115:293,1,90,8|0,0:0|0:0,0:0:0:0:
50,269,350229,2,0,P|38:221|58:161,1,90,8|0,0:0|0:0,0:0:0:0:
143,95,350599,6,0,P|187:88|260:63,1,90,2|0,0:0|0:0,0:0:0:0:
293,10,350970,1,8,0:0:0:0:
358,138,351155,2,0,L|348:190,1,45,0|8,0:0|0:0,0:0:0:0:
410,251,351340,2,0,L|428:309,1,45,2|8,0:0|0:0,0:0:0:0:
363,363,351525,2,0,L|254:344,1,90,2|8,0:0|0:0,0:0:0:0:
177,360,351896,1,0,0:0:0:0:
282,241,352081,6,0,P|278:173|257:106,1,135,4|0,0:0|0:0,0:0:0:0:
259,109,352451,2,0,P|306:99|348:115,1,90,8|0,0:0|0:0,0:0:0:0:
430,109,352729,2,0,P|458:93|478:67,2,45,8|2|8,0:0|0:0|0:0,0:0:0:0:
282,242,353192,2,0,L|179:223,1,90,8|0,0:0|0:0,0:0:0:0:
46,351,353562,6,0,L|153:335,1,90,12|0,0:0|0:0,0:0:0:0:
179,327,353840,1,2,0:0:0:0:
203,288,353933,1,8,0:0:0:0:
193,244,354025,1,2,0:0:0:0:
205,200,354118,1,8,0:3:0:0:
234,166,354210,2,0,P|256:161|293:164,3,45,8|8|2|0,0:3|0:3|0:0|0:0,0:0:0:0:
362,212,354581,1,8,0:0:0:0:
397,184,354673,1,8,0:0:0:0:
407,139,354766,1,2,0:0:0:0:
402,94,354859,1,0,0:0:0:0:
377,56,354951,1,2,0:0:0:0:
357,96,355044,6,0,P|408:99|450:84,1,90,4|0,0:0|0:0,0:0:0:0:
212,75,355414,2,0,P|169:104|145:141,1,90,8|0,0:0|0:0,0:0:0:0:
163,217,355692,1,8,0:0:0:0:
163,217,355784,1,2,0:0:0:0:
163,217,355877,2,0,L|179:299,1,45,8|0,0:0|0:0,0:0:0:0:
319,326,356155,2,0,L|337:222,1,90,8|0,0:0|0:0,0:0:0:0:
142,126,356525,6,0,P|87:161|82:259,1,135,8|0,0:0|0:0,0:0:0:0:
123,300,356896,2,0,L|222:291,1,90,8|0,0:0|0:0,0:0:0:0:
319,326,357173,2,8,L|349:362,3,45,0|2|8|2,0:0|0:0|0:0|0:0,0:0:0:0:
285,209,357636,2,0,L|296:103,1,90,8|0,0:0|0:0,0:0:0:0:
501,231,358007,6,0,P|434:223|361:260,1,135,2|0,0:0|0:0,0:0:0:0:
373,249,358377,2,0,L|383:153,1,90,8|0,0:0|0:0,0:0:0:0:
361,78,358655,1,8,0:0:0:0:
361,78,358747,1,2,0:0:0:0:
361,78,358840,2,0,P|311:57|245:80,1,90,8|0,0:0|0:0,0:0:0:0:
303,135,359118,1,8,0:0:0:0:
418,17,359303,1,0,0:0:0:0:
188,42,359488,6,0,L|277:61,1,90,4|0,0:0|0:0,0:0:0:0:
391,157,359858,1,8,0:0:0:0:
252,218,360044,1,0,0:0:0:0:
440,92,360229,2,0,P|472:106|523:160,1,90,8|2,0:0|0:0,0:0:0:0:
494,184,360507,1,8,0:0:0:0:
476,225,360599,1,8,0:0:0:0:
481,269,360692,1,8,0:0:0:0:
508,304,360784,1,8,0:0:0:0:
508,304,360877,1,8,0:0:0:0:
508,304,360970,6,0,B|469:295|469:295|442:306|442:306|380:301,1,101.250003862381
344,254,361340,1,12,0:0:0:0:
278,356,361525,1,0,0:0:0:0:
262,186,361710,1,2,0:0:0:0:
252,218,361803,1,8,0:0:0:0:
278,356,362081,1,8,0:0:0:0:
273,153,362266,1,0,0:0:0:0:
201,311,362451,6,0,L|64:293,1,135,8|0,0:0|0:0,0:0:0:0:
5,235,362821,2,0,B|1:191|1:191|25:147,1,90,8|0,0:0|0:0,0:0:0:0:
114,130,363099,1,8,0:0:0:0:
114,130,363192,1,2,0:0:0:0:
114,130,363284,1,8,0:0:0:0:
114,130,363377,2,0,L|107:11,1,90,2|8,0:0|0:0,0:0:0:0:
18,77,363747,1,0,0:0:0:0:
178,217,363933,6,0,P|212:158|293:164,1,135,4|0,0:0|0:0,0:0:0:0:
273,152,364303,2,0,L|245:50,1,90,8|0,0:0|0:0,0:0:0:0:
355,89,364581,2,0,L|358:157,2,45,8|2|8,0:0|0:0|0:0,0:0:0:0:
461,232,365044,2,0,L|447:338,1,90,8|0,0:0|0:0,0:0:0:0:
278,344,365414,6,0,B|321:335|321:335|367:356,2,90,8|0|8,0:0|0:0|0:0,0:0:0:0:
236,247,366155,6,0,B|247:210|230:190|230:190|234:159|234:159|216:143|206:124|209:75|238:59,1,188.999994232178
289,109,366896,5,4,0:0:0:0:
394,71,372869,6,0,L|386:216,1,135.000005149842,4|8,0:0|0:0,0:0:0:0:
368,229,373575,1,8,0:0:0:0:
368,229,373928,2,0,B|269:212,1,90.0000034332277,2|2,0:0|0:0,0:0:0:0:
239,283,374281,6,0,P|232:220|144:186,2,135.000005149842,8|8|2,0:0|0:0|0:0,0:0:0:0:
184,123,375222,1,2,0:0:0:0:
184,123,375340,2,0,P|181:190|171:257,1,135.000005149842,8|8,0:0|0:0,0:0:0:0:
104,314,376046,6,0,P|42:315|38:254,2,135.000005149842,2|8|8,0:0|0:3|0:0,0:0:0:0:
174,265,377105,6,0,L|326:289,1,135.000005149842,4|0,0:0|0:0,0:0:0:0:
440,124,377810,2,0,P|398:147|386:183,1,67.5000025749208,0|2,0:0|0:0,0:0:0:0:
322,212,378075,1,2,0:0:0:0:
322,212,378163,2,0,L|332:355,2,135.000005149842,8|0|0,0:0|0:0|0:0,0:0:0:0:
246,59,379046,5,2,0:0:0:0:
246,59,379134,1,2,0:0:0:0:
246,59,379222,1,12,0:0:0:0:
190,198,379399,1,2,0:0:0:0:
158,31,379575,1,2,0:0:0:0:
191,198,379752,1,2,0:0:0:0:
330,29,379928,5,12,0:0:0:0:
172,115,380105,1,2,0:0:0:0:
366,158,380281,1,8,0:3:0:0:
419,27,380458,1,8,0:3:0:0:
456,187,380634,1,8,0:0:0:0:
419,27,380810,1,8,0:0:0:0:
273,127,380987,1,8,0:0:0:0:
456,187,381163,1,8,0:0:0:0:
273,127,381340,6,0,P|280:189|283:246,1,90,4|2,0:0|0:0,0:0:0:0:
227,293,381693,1,8,0:0:0:0:
385,312,381869,2,0,P|370:228|367:160,1,135,4|0,0:0|0:0,0:0:0:0:
367,178,382222,2,0,L|464:187,1,90,2|8,0:0|0:0,0:0:0:0:
227,293,382575,1,8,0:0:0:0:
227,293,382663,1,8,0:0:0:0:
227,293,382752,6,0,L|134:278,1,90,2|2,0:0|0:0,0:0:0:0:
51,327,383105,1,8,0:0:0:0:
205,201,383281,2,0,L|188:20,1,180,4|2,0:0|0:0,0:0:0:0:
91,81,383810,1,8,0:0:0:0:
206,201,383987,1,8,0:0:0:0:
206,201,384075,1,8,0:0:0:0:
206,201,384163,5,2,0:0:0:0:
296,124,384340,2,0,L|346:141,2,45,2|2|8,0:0|0:0|0:0,0:0:0:0:
373,252,384693,2,0,L|470:225,1,90,4|0,0:0|0:0,0:0:0:0:
397,49,385046,1,2,0:0:0:0:
397,49,385134,1,2,0:0:0:0:
397,49,385222,1,8,0:0:0:0:
206,201,385399,1,8,0:0:0:0:
206,201,385487,1,8,0:0:0:0:
206,201,385575,6,0,P|157:190|103:183,1,90,2|0,0:0|0:0,0:0:0:0:
437,195,385928,1,8,0:0:0:0:
436,195,386105,2,0,P|383:126|296:124,1,180,4|2,0:0|0:0,0:0:0:0:
148,286,386634,2,0,L|32:258,1,90,12|0,0:0|0:0,0:0:0:0:
27,360,386987,5,4,0:0:0:0:
112,172,387163,1,2,0:0:0:0:
112,172,387252,1,2,0:0:0:0:
112,172,387340,1,8,0:0:0:0:
219,344,387516,2,0,B|261:323|261:323|361:325,1,135,4|0,0:0|0:0,0:0:0:0:
413,267,387869,2,0,B|389:228|389:228|398:168,1,90,2|12,0:0|0:0,0:0:0:0:
334,46,388222,1,8,0:0:0:0:
334,46,388310,1,8,0:0:0:0:
334,46,388399,6,0,P|284:48|250:80,1,90,2|2,0:0|0:0,0:0:0:0:
281,270,388752,1,8,0:0:0:0:
190,195,388928,2,0,L|89:213,1,90,2|0,0:0|0:0,0:0:0:0:
379,345,389281,2,0,L|492:351,1,90,2|8,0:0|0:0,0:0:0:0:
281,270,389634,1,8,0:0:0:0:
281,270,389722,1,8,0:0:0:0:
281,270,389810,5,2,0:0:0:0:
208,361,389987,1,8,0:0:0:0:
190,195,390163,1,8,0:0:0:0:
310,357,390340,1,0,0:0:0:0:
310,357,390428,2,0,L|412:347,1,90,8|0,0:0|0:0,0:0:0:0:
195,279,390693,1,2,0:0:0:0:
363,221,390869,1,8,0:0:0:0:
208,361,391046,1,8,0:0:0:0:
268,145,391222,6,0,L|254:49,1,90,2|8,0:0|0:0,0:0:0:0:
405,147,391575,1,8,0:0:0:0:
171,92,391752,1,8,0:0:0:0:
171,92,391840,1,8,0:0:0:0:
171,92,391928,1,2,0:0:0:0:
195,279,392105,1,8,0:0:0:0:
62,250,392281,1,8,0:0:0:0:
264,50,392458,1,8,0:0:0:0:
165,186,392634,5,8,0:0:0:0:
296,295,392810,1,8,0:0:0:0:
290,310,393163,5,8,0:0:0:0:
368,157,393340,1,8,0:0:0:0:
373,172,393693,5,8,0:0:0:0:
231,74,393869,1,8,0:0:0:0:
218,84,394222,5,8,0:0:0:0:
381,31,394399,1,8,0:0:0:0:
279,221,394752,6,0,L|291:314,2,90,0|0|0,0:0|0:0|0:0,0:0:0:0:
308,113,395281,1,0,0:0:0:0:
180,274,395458,5,4,0:0:0:0:
171,71,399693,5,8,0:0:0:0:
257,244,399869,1,8,0:0:0:0:
326,137,400046,1,8,0:0:0:0:
144,321,400222,1,8,0:0:0:0:
179,185,400399,1,2,0:0:0:0:
261,332,400575,1,12,0:0:0:0:
243,121,400928,1,8,0:0:0:0:
243,121,401016,1,8,0:0:0:0:
243,121,401105,6,0,L|266:28,1,67.5000025749208,2|0,0:0|0:0,0:0:0:0:
98,169,401458,2,0,P|99:199|119:253,1,67.5000025749208
202,265,401810,1,8,0:0:0:0:
27,265,401987,1,0,0:0:0:0:
111,103,402163,2,0,L|93:196,1,67.5000025749208,2|8,0:0|0:0,0:0:0:0:
202,333,402516,6,0,L|202:243,1,67.5000025749208,2|8,0:0|0:0,0:0:0:0:
53,362,402869,1,0,0:0:0:0:
110,228,403046,1,2,0:0:0:0:
202,333,403222,1,8,0:0:0:0:
34,158,403399,1,8,0:0:0:0:
122,309,403575,1,8,0:0:0:0:
214,224,403752,1,8,0:0:0:0:
362,337,403928,5,0,0:0:0:0:
421,269,404634,1,8,0:0:0:0:
361,193,404987,2,0,L|283:203,2,67.5000025749208,0|8|0,0:0|0:0|0:0,0:0:0:0:
270,313,405516,6,0,L|184:301,1,67.5000025749208,8|0,0:0|0:0,0:0:0:0:
164,294,406046,1,8,0:0:0:0:
80,142,406399,2,0,P|86:114|97:91,3,33.7500012874604,0|0|0|0,0:0|0:0|0:0|0:0,0:0:0:0:
146,54,406752,6,0,P|191:63|248:68,1,90,4|2,0:0|0:0,0:0:0:0:
302,34,407016,1,2,0:0:0:0:
302,34,407105,1,8,0:0:0:0:
176,193,407281,2,0,P|134:212|85:241,1,90,2|0,0:0|0:0,0:0:0:0:
92,348,407634,1,2,0:0:0:0:
237,133,407810,2,0,P|254:165|256:220,1,90,8|8,0:0|0:0,0:0:0:0:
196,285,408075,1,8,0:0:0:0:
196,285,408163,5,2,0:0:0:0:
328,104,408340,1,2,0:0:0:0:
396,177,408516,2,0,L|490:159,2,90,8|2|0,0:0|0:0|0:0,0:0:0:0:
432,76,409046,1,2,0:0:0:0:
384,278,409222,2,0,L|296:256,1,90,8|8,0:0|0:0,0:0:0:0:
297,256,409487,1,8,0:0:0:0:
297,256,409575,5,2,0:0:0:0:
145,354,409752,1,2,0:0:0:0:
145,354,409840,1,2,0:0:0:0:
145,354,409928,1,8,0:0:0:0:
209,209,410105,2,0,L|191:90,1,90,2|0,0:0|0:0,0:0:0:0:
302,44,410458,1,2,0:0:0:0:
306,167,410634,1,8,0:0:0:0:
196,120,410810,1,8,0:0:0:0:
196,120,410899,1,8,0:0:0:0:
196,120,410987,5,10,0:0:0:0:
226,309,411163,1,10,0:0:0:0:
226,309,411516,1,8,0:0:0:0:
226,309,411605,1,8,0:0:0:0:
226,309,411693,1,2,0:0:0:0:
140,353,411869,2,0,L|78:327,2,45,0|2|0,0:0|0:0|0:0,0:0:0:0:
71,147,412222,1,2,0:0:0:0:
71,147,412310,1,2,0:0:0:0:
71,147,412399,6,0,P|84:189|92:234,1,90,4|2,0:0|0:0,0:0:0:0:
24,292,412663,1,2,0:0:0:0:
24,291,412752,2,0,P|56:260|92:234,1,90,8|2,0:0|0:0,0:0:0:0:
226,309,413105,1,0,0:0:0:0:
186,211,413281,2,2,L|204:99,1,90,2|8,0:0|0:0,0:0:0:0:
127,46,413634,1,0,0:0:0:0:
297,152,413810,6,0,L|401:134,1,90,2|2,0:0|0:0,0:0:0:0:
347,54,414163,1,8,0:0:0:0:
315,239,414340,2,0,L|340:333,1,90,2|0,0:0|0:0,0:0:0:0:
338,325,414693,1,2,0:0:0:0:
450,187,414869,1,8,0:0:0:0:
241,296,415046,1,8,0:0:0:0:
241,296,415134,1,8,0:0:0:0:
241,296,415222,6,0,L|172:277,3,45,0|0|2|0,0:0|0:0|0:0|0:0,0:0:0:0:
88,287,415575,2,0,L|78:224,3,45,8|0|2|0,0:0|0:0|0:0|0:0,0:0:0:0:
45,143,415928,2,0,L|73:99,3,45,8|0|2|0,0:0|0:0|0:0|0:0,0:0:0:0:
167,37,416281,2,0,L|202:88,3,45,4|0|8|8,0:3|0:0|0:0|0:0,0:0:0:0:
208,166,416634,6,0,B|256:159|278:122|278:122|337:109|389:171,1,180,12|8,0:0|0:0,0:0:0:0:
390,293,417163,1,8,0:0:0:0:
366,331,417252,1,8,0:0:0:0:
321,336,417340,1,8,0:0:0:0:
276,330,417428,1,8,0:0:0:0:
255,289,417516,1,8,0:0:0:0:
213,270,417605,1,8,0:0:0:0:
168,278,417693,1,2,0:0:0:0:
137,310,417781,1,8,0:0:0:0:
139,354,417869,1,8,0:0:0:0:
177,377,417958,1,8,0:0:0:0:
210,375,418046,6,0,L|231:307,1,67.5000025749208,6|0,0:0|0:0,0:0:0:0:
322,249,418399,2,0,L|308:178,1,67.5000025749208,2|0,0:0|0:0,0:0:0:0:
156,86,418752,2,0,L|135:154,1,67.5000025749208,2|0,0:0|0:0,0:0:0:0:
44,212,419105,2,0,L|58:283,1,67.5000025749208,2|0,0:0|0:0,0:0:0:0:
272,186,419458,6,0,P|307:169|359:171,1,67.5000025749208,2|0,0:0|0:0,0:0:0:0:
232,315,419810,2,0,P|198:310|168:295,1,67.5000025749208,2|0,0:0|0:0,0:0:0:0:
83,343,420163,1,2,0:0:0:0:
127,175,420340,1,0,0:0:0:0:
232,315,420516,2,0,L|326:290,1,67.5000025749208,2|0,0:0|0:0,0:0:0:0:
388,174,420869,6,0,P|377:204|375:271,1,67.5000025749208,2|0,0:0|0:0,0:0:0:0:
487,136,421222,2,0,P|476:105|434:53,1,67.5000025749208,2|0,0:0|0:0,0:0:0:0:
431,324,421575,2,0,P|462:328|528:316,1,67.5000025749208,2|0,0:0|0:0,0:0:0:0:
431,324,421928,1,2,0:0:0:0:
319,371,422105,1,0,0:0:0:0:
343,174,422281,6,0,L|352:241,1,67.5000025749208,2|0,0:0|0:0,0:0:0:0:
187,359,422634,2,0,L|195:276,1,67.5000025749208
199,261,423163,5,8,0:0:0:0:
280,100,423340,1,8,0:0:0:0:
181,48,423516,1,8,0:0:0:0:
270,201,423693,6,0,P|310:210|352:235,1,90,4|2,0:0|0:0,0:0:0:0:
292,321,424046,1,8,0:0:0:0:
162,181,424222,2,0,L|181:48,1,135
89,55,424575,2,0,P|43:38|-1:46,1,90,2|8,0:0|0:0,0:0:0:0:
83,160,424928,1,8,0:0:0:0:
83,160,425016,1,8,0:0:0:0:
83,160,425105,5,2,0:0:0:0:
181,48,425281,2,0,L|281:68,1,90,2|8,0:0|0:0,0:0:0:0:
445,123,425634,2,0,L|337:160,1,90,2|0,0:0|0:0,0:0:0:0:
253,274,425987,1,2,0:0:0:0:
282,119,426163,2,0,L|258:0,1,90,8|0,0:0|0:0,0:0:0:0:
193,180,426516,5,2,0:0:0:0:
337,245,426693,1,8,0:0:0:0:
169,285,426869,1,8,0:0:0:0:
326,347,427046,1,8,0:0:0:0:
326,347,427134,1,8,0:0:0:0:
326,347,427222,1,2,0:0:0:0:
169,285,427399,1,2,0:0:0:0:
349,156,427575,2,0,P|342:187|337:252,1,90,8|2,0:0|0:0,0:0:0:0:
252,92,427928,6,0,P|222:58|188:28,1,90,0|2,0:0|0:0,0:0:0:0:
113,106,428281,1,8,0:0:0:0:
292,23,428457,2,0,L|293:157,1,135,4|0,0:0|0:0,0:0:0:0:
343,238,428810,2,0,P|397:225|424:192,1,90,2|12,0:0|0:0,0:0:0:0:
265,314,429163,1,0,0:0:0:0:
349,156,429340,6,0,L|365:62,2,90,4|2|8,0:0|0:0|0:0,0:0:0:0:
458,334,429869,2,0,L|441:246,1,90,0|8,0:0|0:0,0:0:0:0:
510,168,430222,1,2,0:0:0:0:
510,168,430310,1,2,0:0:0:0:
510,168,430399,1,8,0:0:0:0:
362,332,430575,1,2,0:0:0:0:
285,222,430752,6,0,P|241:224|179:276,1,90,8|2,0:0|0:0,0:0:0:0:
270,331,431105,1,8,0:0:0:0:
366,171,431281,2,0,L|337:70,1,90,2|8,0:0|0:0,0:0:0:0:
409,16,431634,1,2,0:0:0:0:
409,16,431722,1,2,0:0:0:0:
409,16,431810,1,8,0:0:0:0:
261,118,431987,1,8,0:0:0:0:
261,118,432075,1,8,0:0:0:0:
261,118,432163,6,0,L|145:95,1,90,8|2,0:0|0:0,0:0:0:0:
105,137,432428,2,0,P|97:172|95:212,1,45,2|8,0:0|0:0,0:0:0:0:
151,252,432693,2,0,P|112:199|86:172,1,90,4|8,0:0|0:0,0:0:0:0:
16,246,433046,1,8,0:0:0:0:
178,81,433222,1,2,0:0:0:0:
208,317,433399,1,8,0:0:0:0:
208,317,433487,1,8,0:0:0:0:
208,317,433575,6,0,L|307:305,1,90,2|2,0:0|0:0,0:0:0:0:
103,365,433928,2,0,L|-14:345,1,90,8|6,0:0|0:0,0:0:0:0:
160,231,434281,1,8,0:0:0:0:
103,365,434457,1,2,0:0:0:0:
76,176,434634,1,8,0:3:0:0:
285,143,434810,1,8,0:0:0:0:
285,143,434899,1,8,0:0:0:0:
285,143,434987,6,0,L|263:240,1,90,4|0,0:0|0:0,0:0:0:0:
217,76,435340,1,8,0:0:0:0:
357,228,435516,2,0,L|373:354,1,90,0|8,0:0|0:0,0:0:0:0:
271,361,435869,1,2,0:0:0:0:
271,361,435957,1,2,0:0:0:0:
271,361,436046,1,8,0:0:0:0:
443,252,436222,1,2,0:0:0:0:
297,342,436399,6,0,L|186:317,1,90,8|2,0:0|0:0,0:0:0:0:
104,369,436752,1,8,0:0:0:0:
291,232,436928,2,0,L|285:143,1,90,2|8,0:0|0:0,0:0:0:0:
349,65,437281,1,2,0:0:0:0:
349,65,437369,1,2,0:0:0:0:
349,65,437457,1,8,0:0:0:0:
199,116,437634,1,8,0:0:0:0:
199,116,437722,1,8,0:0:0:0:
199,116,437810,6,0,P|149:92|98:93,1,90,2|0,0:0|0:0,0:0:0:0:
209,211,438163,1,2,0:0:0:0:
263,58,438340,2,0,L|254:-14,2,45,2|8|2,0:0|0:0|0:0,0:0:0:0:
288,179,438693,1,2,0:0:0:0:
137,262,438869,2,0,L|47:234,1,90,8|0,0:0|0:0,0:0:0:0:
186,339,439222,5,2,0:0:0:0:
133,171,439399,1,8,0:0:0:0:
252,281,439575,1,8,0:0:0:0:
74,342,439752,1,8,0:0:0:0:
305,357,439928,1,8,0:0:0:0:
212,123,440105,1,8,0:0:0:0:
186,339,440281,1,8,0:0:0:0:
276,191,440457,1,8,0:0:0:0:
103,259,440634,5,4,0:0:0:0:
374,91,441693,6,0,L|437:98,4,45,0|0|0|0|0,0:0|0:0|0:0|0:0|0:0,0:0:0:0:
164,178,443457,5,4,0:0:0:0:
232,41,443634,1,2,0:0:0:0:
232,41,443722,1,2,0:0:0:0:
232,41,443810,1,8,0:0:0:0:
147,185,443987,2,0,L|248:175,1,90,2|0,0:0|0:0,0:0:0:0:
308,239,444340,1,2,0:0:0:0:
464,144,444516,2,0,P|469:115|471:49,1,90,8|8,0:0|0:0,0:0:0:0:
404,13,444781,1,8,0:0:0:0:
404,13,444869,5,2,0:0:0:0:
388,193,445046,1,2,0:0:0:0:
326,80,445222,1,8,0:0:0:0:
308,239,445399,2,0,P|325:288|333:332,1,90,2|0,0:0|0:0,0:0:0:0:
233,309,445752,1,2,0:0:0:0:
419,268,445928,2,0,L|507:282,1,90,8|8,0:0|0:0,0:0:0:0:
508,282,446193,1,8,0:0:0:0:
508,282,446281,6,0,L|484:161,1,90,2|2,0:0|0:0,0:0:0:0:
510,118,446546,1,2,0:0:0:0:
510,118,446634,1,8,0:0:0:0:
419,268,446810,2,0,P|346:294|294:210,1,180,2|2,0:0|0:0,0:0:0:0:
352,132,447340,1,8,0:0:0:0:
204,267,447516,1,8,0:0:0:0:
204,267,447605,1,8,0:0:0:0:
204,267,447693,6,0,P|153:256|99:252,1,90,2|2,0:0|0:0,0:0:0:0:
340,309,448046,2,0,P|381:290|419:267,1,90,8|2,0:0|0:0,0:0:0:0:
352,132,448399,1,8,0:0:0:0:
340,309,448575,1,2,0:0:0:0:
437,191,448752,1,8,0:3:0:0:
437,366,448928,1,2,0:0:0:0:
437,366,449016,1,2,0:0:0:0:
437,366,449105,5,4,0:0:0:0:
247,255,449281,2,0,L|204:267,2,45,2|2|8,0:0|0:0|0:0,0:0:0:0:
191,361,449634,2,0,L|57:342,1,135,2|0,0:0|0:0,0:0:0:0:
8,264,449987,2,0,B|-2:220|-2:220|10:174,1,90,2|8,0:0|0:0,0:0:0:0:
9,86,450340,1,8,0:0:0:0:
9,86,450428,1,8,0:0:0:0:
9,86,450516,6,0,L|10:209,1,90,2|2,0:0|0:0,0:0:0:0:
102,312,450869,2,0,L|118:212,1,90,8|2,0:0|0:0,0:0:0:0:
95,43,451222,1,0,0:0:0:0:
44,180,451399,1,2,0:0:0:0:
185,128,451575,1,8,0:0:0:0:
207,251,451752,1,8,0:0:0:0:
247,270,451840,1,8,0:0:0:0:
290,260,451928,5,2,0:0:0:0:
327,235,452016,1,8,0:0:0:0:
332,189,452105,1,8,0:0:0:0:
304,360,452281,1,8,0:0:0:0:
255,189,452457,1,0,0:0:0:0:
255,189,452546,2,0,L|271:33,1,135,8|2,0:0|0:0,0:0:0:0:
194,12,452987,1,8,0:0:0:0:
357,104,453163,1,2,0:0:0:0:
185,128,453340,6,0,P|136:148|104:183,1,90,2|2,0:0|0:0,0:0:0:0:
174,285,453693,1,8,0:0:0:0:
259,91,453869,1,2,0:0:0:0:
259,91,453957,1,8,0:0:0:0:
259,91,454046,1,2,0:0:0:0:
326,282,454222,1,8,0:0:0:0:
125,195,454399,1,8,0:0:0:0:
247,220,454575,1,8,0:0:0:0:
83,341,454752,5,4,0:0:0:0:
256,192,454840,12,0,457575,0:0:0:0:
