osu file format v14

[General]
AudioFilename: 06. ubd.mp3
AudioLeadIn: 0
PreviewTime: 57797
Countdown: 1
SampleSet: Soft
StackLeniency: 0.6
Mode: 0
LetterboxInBreaks: 1
WidescreenStoryboard: 1

[Editor]
Bookmarks: 16493
DistanceSpacing: 1.2
BeatDivisor: 4
GridSize: 4
TimelineZoom: 2.6

[Metadata]
Title:Miraizu
TitleUnicode:Miraizu
Artist:Sana
ArtistUnicode:Sana
Creator:MrPotato
Version:Extra
Source:
Tags:honeyworks, avishay, sana, suki ni naru shunkan wo.
BeatmapID:769322
BeatmapSetID:338109

[Difficulty]
HPDrainRate:6
CircleSize:4
OverallDifficulty:8.5
ApproachRate:9.2
SliderMultiplier:1.7
SliderTickRate:1

[Events]
//Background and Video events
0,0,"Konachan.com - 172150 sample.jpg",0,0
//Break Periods
//Storyboard Layer 0 (Background)
//Storyboard Layer 1 (Fail)
//Storyboard Layer 2 (Pass)
//Storyboard Layer 3 (Foreground)
//Storyboard Sound Samples

[TimingPoints]
383.458042721136,337.078651685393,4,2,1,30,1,0
5776,-133.333333333333,4,2,1,30,0,0
11169,-153.846153846154,4,2,1,30,0,0
12349,-100,4,2,1,30,0,0
13445,-100,4,2,1,5,0,0
13529,-100,4,2,1,50,0,0
15383,-100,4,2,1,50,0,0
23978,-100,4,2,1,50,0,0
35945,-100,4,2,1,50,0,0
38810,-66.6666666666667,4,2,1,50,0,0
40832,-100,4,2,1,50,0,0
42181,-133.333333333333,4,2,1,50,0,0
50102,-200,4,2,1,50,0,0
50608,-133.333333333333,4,2,1,50,0,0
55664,-100,4,2,1,50,0,0
58192,-100,4,2,1,50,0,0
58360,-100,4,2,1,50,0,1
79934,-100,4,2,1,50,0,0
81956,-100,4,2,1,50,0,1
83978,-100,4,2,1,50,0,0
88950,-133.333333333333,4,2,1,50,0,0
89203,-153.846153846154,4,2,1,50,0,0
107574,-80,4,2,1,50,0,0
129821,-111.111111111111,4,2,1,50,0,0
130158,-80,4,2,1,50,0,0
139259,-133.333333333333,4,2,1,50,0,0
147391,-133.333333333333,4,2,1,5,0,0
148698,-200,4,2,1,50,0,0
150046,-166.666666666667,4,2,1,50,0,0
151394,-100,4,2,1,50,0,1
154765,-90.9090909090909,4,2,1,50,0,1
155271,-100,4,2,1,50,0,1
165551,-133.333333333333,4,2,1,50,0,1
165973,-100,4,2,1,50,0,1
172967,-100,4,2,1,50,0,0
174990,-100,4,2,1,50,0,1
179287,-133.333333333333,4,2,1,50,0,0
179709,340.522133938706,4,2,1,30,1,0
180390,375,4,2,1,30,1,0
181890,326.086956521739,4,2,1,30,1,0
181890,-166.666666666667,4,2,1,30,0,0
182542,391.900718484651,4,2,1,30,1,0
183717,-166.666666666667,4,2,1,30,0,0
185308,337.078651685393,4,2,1,20,1,0
188004,375,4,2,1,20,1,0
188004,-166.666666666667,4,2,1,20,0,0
189770,333.333333333333,4,2,1,20,1,0
189770,-166.666666666667,4,2,1,20,0,0
191520,571.428571428571,4,2,1,20,1,0
191710,-125,4,2,1,20,0,0
193369,681.818181818182,4,2,1,20,1,0
196522,312.5,4,2,1,20,1,0
196678,545.454545454546,4,2,1,20,1,0
197223,375,4,2,1,20,1,0
197410,400,4,2,1,20,1,0
197810,447.761194029851,4,2,1,20,1,0
198257,508.474576271186,4,2,1,20,1,0
198765,495.867768595041,4,2,1,20,1,0
199012,560.747663551402,4,2,1,20,1,0
199292,645.161290322581,4,2,1,20,1,0
199614,845.070422535211,4,2,1,20,1,0
200459,923.076923076923,4,2,1,20,1,0
201382,666.666666666667,4,2,1,20,1,0

[HitObjects]
256,192,383,12,0,5102,0:0:0:0:
256,96,5776,6,0,P|208:76|104:76,1,127.5,2|2,0:0|0:0,0:0:0:0:
44,108,6282,1,2,0:0:0:0:
116,172,6450,2,0,P|144:188|183:196,1,63.7500024318696,2|2,0:0|0:0,0:0:0:0:
376,240,6787,6,0,P|380:157|356:93,1,127.5,2|2,0:0|0:0,0:0:0:0:
320,40,7293,1,2,0:0:0:0:
232,48,7462,2,0,P|216:76|206:119,1,63.7500024318696,2|2,0:0|0:0,0:0:0:0:
184,296,7799,5,2,0:0:0:0:
264,304,7967,1,2,0:0:0:0:
340,280,8136,1,2,0:0:0:0:
396,224,8304,1,2,0:0:0:0:
406,144,8473,6,0,L|426:60,1,63.7500024318696,2|2,0:0|0:0,0:0:0:0:
306,85,8810,2,0,L|283:3,1,63.7500024318696,2|2,0:0|0:0,0:0:0:0:
204,154,9147,1,2,0:0:0:0:
174,32,9316,1,2,0:0:0:0:
76,223,9484,1,2,0:0:0:0:
106,101,9653,1,2,0:0:0:0:
191,285,9821,1,6,0:0:0:0:
438,184,11169,6,0,B|277:225|277:138|111:184,1,331.499984825135,14|0,0:0|0:0,0:0:0:0:
112,184,12349,1,2,0:0:0:0:
112,184,12855,1,2,0:0:0:0:
33,197,13192,2,0,P|60:121|128:108,1,127.5,2|0,0:0|0:0,0:0:0:0:
124,104,13529,2,0,P|180:140|188:220,1,127.5,2|0,0:0|0:0,0:0:0:0:
317,311,13866,5,10,0:0:0:0:
428,232,14035,1,0,0:0:0:0:
299,187,14203,1,10,0:0:0:0:
419,123,14372,1,0,0:0:0:0:
308,67,14540,2,0,P|365:8|464:9,1,170,2|0,0:0|0:0,0:0:0:0:
480,161,15046,1,2,0:0:0:0:
156,208,15383,6,0,L|116:164,1,42.5,8|0,0:0|0:0,0:0:0:0:
104,40,15551,2,0,L|136:68,1,42.5,8|0,0:0|0:0,0:0:0:0:
206,126,15720,1,0,0:0:0:0:
243,154,15804,1,0,0:0:0:0:
286,171,15889,1,2,0:0:0:0:
333,174,15973,1,0,0:0:0:0:
378,164,16057,1,2,0:0:0:0:
419,141,16141,1,0,0:0:0:0:
456,112,16226,5,2,0:0:0:0:
433,137,16310,1,0,0:0:0:0:
420,168,16394,1,0,0:0:0:0:
416,202,16478,1,0,0:0:0:0:
423,235,16563,1,2,0:0:0:0:
331,357,16731,5,0,0:0:0:0:
186,314,16900,1,8,0:0:0:0:
329,239,17068,1,0,0:0:0:0:
224,104,17237,1,2,0:0:0:0:
168,248,17405,1,2,0:0:0:0:
334,138,17574,1,10,0:0:0:0:
145,150,17743,1,2,0:0:0:0:
269,299,17911,1,2,0:0:0:0:
29,347,18080,5,0,0:0:0:0:
197,254,18249,1,8,0:0:0:0:
22,199,18417,1,0,0:0:0:0:
197,124,18585,1,2,0:0:0:0:
112,312,18753,1,0,0:0:0:0:
0,152,18922,1,8,0:0:0:0:
112,312,19091,1,0,0:0:0:0:
68,196,19259,6,0,L|176:232,1,85,2|0,0:0|0:0,0:0:0:0:
148,222,19512,1,0,0:0:0:0:
148,222,19596,1,8,0:0:0:0:
260,284,19765,1,0,0:0:0:0:
376,340,19934,1,0,0:0:0:0:
372,172,20102,1,0,0:0:0:0:
268,368,20271,1,8,0:0:0:0:
288,132,20439,1,0,0:0:0:0:
176,368,20608,1,2,0:0:0:0:
56,116,20776,5,0,0:0:0:0:
56,116,20945,1,8,0:0:0:0:
212,44,21282,2,4,L|312:72,2,56.6666666666667,4|4|4,0:0|0:0|0:0,0:0:0:0:
268,140,21619,2,4,L|213:155,2,56.6666666666667,4|4|4,0:0|0:0|0:0,0:0:0:0:
264,220,21956,1,14,0:0:0:0:
400,176,23978,6,12,L|324:168,2,56.6666666666667,12|0|12,0:0|0:0|0:0,0:0:0:0:
248,160,24316,1,0,0:0:0:0:
104,60,24653,6,0,P|103:102|118:141,1,85,2|0,0:0|0:0,0:0:0:0:
118,141,24905,1,0,0:0:0:0:
125,148,24990,1,10,0:0:0:0:
184,252,25158,1,0,0:0:0:0:
184,83,25327,1,2,0:0:0:0:
340,277,25495,1,2,0:0:0:0:
312,160,25664,1,8,0:0:0:0:
426,194,25832,1,6,0:0:0:0:
256,192,25917,12,0,27012,0:0:0:0:
369,99,27181,5,0,0:0:0:0:
369,99,27265,1,0,0:0:0:0:
369,99,27349,2,0,B|331:178|331:178|337:273,1,170,0|0,0:0|0:0,0:0:0:0:
257,351,27855,2,0,P|179:328|159:250,1,170,0|0,0:0|0:0,0:0:0:0:
239,272,28360,1,0,0:0:0:0:
187,117,28529,2,0,B|133:110|133:110|83:129|83:129|22:117,1,170,0|0,0:0|0:0,0:0:0:0:
61,51,29035,1,0,0:0:0:0:
136,37,29203,1,0,0:0:0:0:
212,42,29372,2,0,P|258:90|221:189,1,170,0|0,0:0|0:0,0:0:0:0:
99,240,29877,1,0,0:0:0:0:
99,240,29962,1,0,0:0:0:0:
99,240,30046,6,0,L|199:275,1,85,0|0,0:0|0:0,0:0:0:0:
268,293,30383,1,0,0:0:0:0:
230,199,30551,1,0,0:0:0:0:
310,135,30720,2,0,L|390:106,1,85,0|0,0:0|0:0,0:0:0:0:
390,106,30973,1,0,0:0:0:0:
390,106,31057,1,0,0:0:0:0:
264,48,31226,1,0,0:0:0:0:
264,48,31310,1,0,0:0:0:0:
264,48,31394,6,0,L|169:86,1,85,0|0,0:0|0:0,0:0:0:0:
185,79,31731,1,0,0:0:0:0:
118,156,31900,2,0,L|202:193,1,85,0|0,0:0|0:0,0:0:0:0:
296,208,32237,1,0,0:0:0:0:
296,208,32405,1,0,0:0:0:0:
428,151,32574,1,0,0:0:0:0:
428,151,32743,5,0,0:0:0:0:
428,151,33248,2,0,B|359:225|436:225|378:309,1,170,0|0,0:0|0:0,0:0:0:0:
380,307,33754,1,0,0:0:0:0:
379,306,34091,5,0,0:0:0:0:
283,306,34259,1,0,0:0:0:0:
339,230,34428,1,0,0:0:0:0:
243,226,34596,1,0,0:0:0:0:
299,146,34765,2,0,P|337:103|448:104,1,170,0|0,0:0|0:0,0:0:0:0:
392,192,35271,1,0,0:0:0:0:
392,192,35945,2,0,B|394:255|394:255|348:287|344:360,1,170,0|0,0:0|0:0,0:0:0:0:
345,346,36366,1,0,0:0:0:0:
345,346,36450,1,0,0:0:0:0:
228,188,36787,5,0,0:0:0:0:
212,308,36956,1,0,0:0:0:0:
120,232,37125,1,0,0:0:0:0:
280,260,37293,1,0,0:0:0:0:
128,320,37462,1,0,0:0:0:0:
160,164,37630,1,0,0:0:0:0:
352,184,37799,6,0,B|384:208|384:208|404:248,1,85,0|0,0:0|0:0,0:0:0:0:
193,300,38136,1,0,0:0:0:0:
189,78,38304,1,0,0:0:0:0:
381,192,38473,1,0,0:0:0:0:
193,300,38641,1,0,0:0:0:0:
148,208,38810,6,0,L|112:80,1,127.500004863739,0|0,0:0|0:0,0:0:0:0:
224,84,39147,2,0,L|258:206,1,127.500004863739,0|0,0:0|0:0,0:0:0:0:
353,174,39484,2,0,L|476:140,1,127.500004863739,0|0,0:0|0:0,0:0:0:0:
474,29,39821,2,0,L|352:64,1,127.500004863739,0|0,0:0|0:0,0:0:0:0:
408,252,40158,1,0,0:0:0:0:
276,60,40327,1,0,0:0:0:0:
144,252,40495,1,0,0:0:0:0:
276,60,40664,1,0,0:0:0:0:
244,328,40832,5,0,0:0:0:0:
244,328,40945,2,0,L|227:255,2,56.6666666666667,0|0|0,0:0|0:0|0:0,0:0:0:0:
196,70,41394,5,0,0:0:0:0:
196,70,41507,2,0,L|141:82,2,56.6666666666667,0|0|0,0:0|0:0|0:0,0:0:0:0:
328,175,41844,2,0,L|383:187,2,56.6666666666667,0|0|0,0:0|0:0|0:0,0:0:0:0:
272,252,42181,5,0,0:0:0:0:
212,192,42349,1,0,0:0:0:0:
152,252,42518,1,0,0:0:0:0:
92,192,42686,1,0,0:0:0:0:
160,140,42855,1,0,0:0:0:0:
220,80,43023,1,0,0:0:0:0:
280,140,43192,1,0,0:0:0:0:
335,75,43360,1,0,0:0:0:0:
387,139,43529,6,0,L|337:217,1,63.7500024318696,0|0,0:0|0:0,0:0:0:0:
303,260,43866,1,0,0:0:0:0:
236,200,44035,1,0,0:0:0:0:
315,178,44203,1,0,0:0:0:0:
379,230,44372,1,0,0:0:0:0:
303,260,44540,1,0,0:0:0:0:
228,295,44709,1,0,0:0:0:0:
289,350,44877,6,0,P|328:348|365:324,1,63.7500024318696,0|0,0:0|0:0,0:0:0:0:
404,275,45214,1,0,0:0:0:0:
282,234,45383,1,0,0:0:0:0:
399,185,45551,1,0,0:0:0:0:
280,139,45720,1,0,0:0:0:0:
400,96,45889,1,0,0:0:0:0:
281,50,46057,1,0,0:0:0:0:
160,91,46226,5,0,0:0:0:0:
160,91,46394,1,0,0:0:0:0:
156,218,46563,1,0,0:0:0:0:
156,218,46731,1,0,0:0:0:0:
273,150,46900,1,0,0:0:0:0:
124,272,47574,5,0,0:0:0:0:
100,185,47743,1,0,0:0:0:0:
187,162,47911,1,0,0:0:0:0:
210,248,48080,1,0,0:0:0:0:
288,300,48248,6,0,B|311:278|311:278|320:236,1,63.7500024318696
324,148,48585,2,0,B|319:120|319:120|295:90,1,63.7500024318696
206,93,48922,1,0,0:0:0:0:
132,114,49091,1,0,0:0:0:0:
100,185,49259,1,0,0:0:0:0:
121,258,49428,1,0,0:0:0:0:
168,318,49596,2,0,L|221:280,1,63.7500024318696,0|0,0:0|0:0,0:0:0:0:
288,222,49934,1,0,0:0:0:0:
347,161,50102,6,0,P|371:125|383:81,1,85,0|0,0:0|0:0,0:0:0:0:
288,72,50608,6,0,L|227:66,2,42.5000016212464,0|0|0,0:0|0:0|0:0,0:0:0:0:
169,59,50945,1,0,0:0:0:0:
243,182,51282,6,0,L|286:187,2,42.5000016212464,0|0|0,0:0|0:0|0:0,0:0:0:0:
362,196,51619,1,0,0:0:0:0:
274,297,51956,6,0,L|220:293,2,42.5000016212464,0|0|0,0:0|0:0|0:0,0:0:0:0:
155,285,52293,1,0,0:0:0:0:
92,176,52462,1,0,0:0:0:0:
92,176,52630,1,0,0:0:0:0:
92,176,52799,1,0,0:0:0:0:
112,72,52967,5,0,0:0:0:0:
112,72,53136,1,0,0:0:0:0:
368,248,54316,5,0,0:0:0:0:
368,248,54484,1,0,0:0:0:0:
60,312,54990,5,0,0:0:0:0:
60,312,55158,1,0,0:0:0:0:
160,296,55664,5,0,0:0:0:0:
124,132,55832,1,0,0:0:0:0:
304,296,56001,1,0,0:0:0:0:
340,132,56169,1,0,0:0:0:0:
208,236,56338,1,0,0:0:0:0:
379,236,56507,1,0,0:0:0:0:
292,384,56675,1,0,0:0:0:0:
252,80,56844,1,0,0:0:0:0:
424,344,57012,1,0,0:0:0:0:
256,192,57181,12,0,58192,0:0:0:0:
50,146,58360,6,0,P|78:106|127:74,1,85,0|0,0:0|0:0,0:0:0:0:
260,75,58698,1,0,0:0:0:0:
172,200,58866,1,0,0:0:0:0:
311,264,59035,2,0,P|288:298|243:332,1,85,0|0,0:0|0:0,0:0:0:0:
174,115,59372,2,0,P|197:80|230:53,1,85,0|0,0:0|0:0,0:0:0:0:
417,99,59709,6,0,P|335:102|277:184,1,170,0|0,0:0|0:0,0:0:0:0:
344,303,60214,1,0,0:0:0:0:
380,198,60383,1,0,0:0:0:0:
270,217,60551,1,0,0:0:0:0:
456,284,60720,1,0,0:0:0:0:
482,140,60889,1,0,0:0:0:0:
482,140,61057,6,0,P|458:100|418:64,1,85,0|0,0:0|0:0,0:0:0:0:
240,132,61394,1,0,0:0:0:0:
160,24,61563,1,0,0:0:0:0:
160,24,61647,1,0,0:0:0:0:
160,24,61731,1,0,0:0:0:0:
80,145,61900,2,0,P|56:211|82:279,1,127.5,0|0,0:0|0:0,0:0:0:0:
97,278,62237,2,0,P|181:288|235:205,1,170,0|0,0:0|0:0,0:0:0:0:
237,61,62743,5,0,0:0:0:0:
150,211,62911,1,0,0:0:0:0:
319,211,63080,1,0,0:0:0:0:
409,130,63248,5,0,0:0:0:0:
367,120,63332,1,0,0:0:0:0:
326,128,63417,1,0,0:0:0:0:
287,145,63501,1,0,0:0:0:0:
246,156,63585,1,0,0:0:0:0:
204,151,63669,1,0,0:0:0:0:
166,131,63754,1,0,0:0:0:0:
237,61,63922,5,0,0:0:0:0:
319,210,64091,1,0,0:0:0:0:
194,324,64259,1,0,0:0:0:0:
72,204,64428,2,0,P|72:155|96:93,1,85,0|0,0:0|0:0,0:0:0:0:
177,29,64765,1,0,0:0:0:0:
177,29,64934,1,0,0:0:0:0:
160,296,65102,2,0,P|147:214|180:101,1,170,0|0,0:0|0:0,0:0:0:0:
301,26,65608,1,0,0:0:0:0:
467,201,65776,6,0,P|472:243|460:284,1,85,0|0,0:0|0:0,0:0:0:0:
308,236,66113,1,0,0:0:0:0:
448,124,66282,1,0,0:0:0:0:
280,60,66450,1,0,0:0:0:0:
460,284,66619,1,0,0:0:0:0:
188,276,66787,2,0,P|172:200|228:120,1,170,0|0,0:0|0:0,0:0:0:0:
280,60,67293,1,0,0:0:0:0:
360,192,67462,1,0,0:0:0:0:
280,60,67630,1,0,0:0:0:0:
416,316,67799,6,0,P|420:272|412:208,1,85,0|0,0:0|0:0,0:0:0:0:
416,231,68051,1,0,0:0:0:0:
416,231,68136,1,0,0:0:0:0:
215,239,68304,6,0,P|211:196|214:154,1,85,0|0,0:0|0:0,0:0:0:0:
211,143,68557,1,0,0:0:0:0:
209,121,68641,1,0,0:0:0:0:
200,102,68726,1,0,0:0:0:0:
184,72,68810,1,0,0:0:0:0:
225,63,68894,1,0,0:0:0:0:
265,74,68978,1,0,0:0:0:0:
297,102,69063,1,0,0:0:0:0:
314,142,69147,6,0,P|328:188|325:240,1,85,0|0,0:0|0:0,0:0:0:0:
235,200,69484,1,0,0:0:0:0:
397,60,69653,1,0,0:0:0:0:
487,221,69821,2,0,P|485:263|475:305,1,85,0|0,0:0|0:0,0:0:0:0:
260,44,70158,1,0,0:0:0:0:
358,183,70327,1,0,0:0:0:0:
303,342,70495,6,0,P|237:293|231:211,1,170,0|0,0:0|0:0,0:0:0:0:
331,241,71001,1,0,0:0:0:0:
434,271,71169,2,0,P|423:184|350:137,1,170,0|0,0:0|0:0,0:0:0:0:
111,321,71675,1,0,0:0:0:0:
111,321,71844,6,0,L|69:231,1,85,0|0,0:0|0:0,0:0:0:0:
75,243,72096,1,0,0:0:0:0:
75,243,72181,1,0,0:0:0:0:
47,38,72349,1,0,0:0:0:0:
47,38,72434,1,0,0:0:0:0:
47,38,72518,2,0,L|121:79,1,85,0|0,0:0|0:0,0:0:0:0:
216,60,72855,5,0,0:0:0:0:
439,242,73023,2,0,P|448:283|442:348,1,85,0|0,0:0|0:0,0:0:0:0:
362,314,73360,1,0,0:0:0:0:
318,240,73529,1,0,0:0:0:0:
323,154,73698,1,0,0:0:0:0:
359,77,73866,6,0,P|399:94|442:158,1,85,0|0,0:0|0:0,0:0:0:0:
438,164,74119,1,0,0:0:0:0:
423,203,74203,1,0,0:0:0:0:
390,229,74287,1,0,0:0:0:0:
347,237,74372,1,0,0:0:0:0:
304,232,74456,1,0,0:0:0:0:
266,213,74540,6,0,P|244:166|243:121,1,85,0|0,0:0|0:0,0:0:0:0:
265,29,74877,1,0,0:0:0:0:
364,319,75046,1,0,0:0:0:0:
279,305,75214,1,0,0:0:0:0:
216,246,75383,1,0,0:0:0:0:
198,163,75551,1,0,0:0:0:0:
225,82,75720,1,0,0:0:0:0:
419,39,75889,6,0,P|434:77|435:125,1,85
330,255,76226,1,0,0:0:0:0:
243,109,76394,1,0,0:0:0:0:
162,259,76563,2,0,P|146:216|145:147,1,85
222,26,76900,1,0,0:0:0:0:
304,174,77068,1,0,0:0:0:0:
466,56,77237,5,0,0:0:0:0:
392,270,77405,1,0,0:0:0:0:
187,86,77574,1,0,0:0:0:0:
392,270,77743,1,0,0:0:0:0:
335,1,77911,1,0,0:0:0:0:
223,252,78080,1,0,0:0:0:0:
461,114,78248,1,0,0:0:0:0:
187,86,78417,1,0,0:0:0:0:
392,270,78585,5,0,0:0:0:0:
187,86,78922,1,0,0:0:0:0:
79,160,79259,6,0,L|148:171,2,56.6666666666667,0|0|0,0:0|0:0|0:0,0:0:0:0:
237,246,79596,6,0,L|181:254,2,56.6666666666667,0|0|0,0:0|0:0|0:0,0:0:0:0:
96,289,79934,1,0,0:0:0:0:
356,127,81956,6,0,L|293:159,2,56.6666666666667,0|0|0,0:0|0:0|0:0,0:0:0:0:
234,198,82293,1,0,0:0:0:0:
470,337,82630,6,0,P|426:338|351:310,1,85,0|0,0:0|0:0,0:0:0:0:
386,328,82883,1,0,0:0:0:0:
386,328,82967,1,0,0:0:0:0:
473,141,83136,1,0,0:0:0:0:
369,214,83304,1,0,0:0:0:0:
241,212,83473,1,0,0:0:0:0:
130,149,83641,1,0,0:0:0:0:
179,312,83810,1,0,0:0:0:0:
256,192,83978,12,0,85158,0:0:0:0:
368,76,85327,6,0,P|364:156|280:176,1,170,0|0,0:0|0:0,0:0:0:0:
312,284,85832,1,0,0:0:0:0:
312,284,85917,1,0,0:0:0:0:
312,284,86001,2,0,L|408:224,1,85,0|0,0:0|0:0,0:0:0:0:
448,304,86338,1,0,0:0:0:0:
307,109,86507,6,0,P|245:74|161:138,1,170,0|0,0:0|0:0,0:0:0:0:
92,76,87012,1,0,0:0:0:0:
240,153,87181,1,0,0:0:0:0:
220,190,87265,1,0,0:0:0:0:
201,228,87349,1,0,0:0:0:0:
367,215,87518,1,0,0:0:0:0:
342,291,87686,2,0,P|429:264|444:201,1,127.5,0|0,0:0|0:0,0:0:0:0:
443,164,88023,5,0,0:0:0:0:
323,81,88192,1,0,0:0:0:0:
452,17,88360,1,0,0:0:0:0:
433,284,88529,1,0,0:0:0:0:
419,274,88698,6,0,L|418:182,1,85,0|0,0:0|0:0,0:0:0:0:
396,269,88950,6,0,L|384:152,1,95.6250036478044,0|0,0:0|0:0,0:0:0:0:
323,81,89372,5,0,0:0:0:0:
136,120,90046,2,0,P|79:164|86:254,1,165.749992412568,0|0,0:0|0:0,0:0:0:0:
148,301,90720,2,0,P|209:297|246:243,1,110.499994941712,0|0,0:0|0:0,0:0:0:0:
289,141,91394,1,0,0:0:0:0:
367,181,91731,1,0,0:0:0:0:
455,138,92068,2,0,P|448:232|324:270,1,220.999989883423,0|0,0:0|0:0,0:0:0:0:
253,222,93080,1,0,0:0:0:0:
251,122,93417,6,0,P|166:172|186:295,1,220.999989883423
420,71,94428,1,0,0:0:0:0:
417,272,94765,2,0,B|368:227|314:272|314:272|322:208|262:176,1,220.999989883423,0|0,0:0|0:0,0:0:0:0:
179,150,95776,1,0,0:0:0:0:
266,134,96113,2,0,P|217:230|103:195,1,220.999989883423,0|0,0:0|0:0,0:0:0:0:
131,302,97125,1,0,0:0:0:0:
48,269,97462,2,0,B|34:190|84:154|84:154|63:41,1,220.999989883423,0|0,0:0|0:0,0:0:0:0:
146,369,98473,1,0,0:0:0:0:
136,286,98641,1,0,0:0:0:0:
195,227,98810,5,0,0:0:0:0:
148,159,98978,1,0,0:0:0:0:
195,92,99147,1,0,0:0:0:0:
266,134,99316,1,0,0:0:0:0:
348,127,99484,1,0,0:0:0:0:
416,81,99653,1,0,0:0:0:0:
464,14,99821,1,0,0:0:0:0:
506,85,99990,1,0,0:0:0:0:
324,307,100158,6,0,B|386:321|413:261|413:261|480:253|497:182,1,220.999989883423,0|0,0:0|0:0,0:0:0:0:
408,168,101169,1,0,0:0:0:0:
492,136,101507,2,0,B|412:84|412:84|372:116|268:84,1,220.999989883423,0|0,0:0|0:0,0:0:0:0:
219,143,102518,1,0,0:0:0:0:
140,183,102855,2,0,P|123:242|137:306,1,110.499994941712,0|0,0:0|0:0,0:0:0:0:
217,303,103529,1,0,0:0:0:0:
297,266,103866,1,0,0:0:0:0:
222,219,104203,5,0,0:0:0:0:
142,258,104540,1,0,0:0:0:0:
143,169,104877,1,0,0:0:0:0:
218,215,105214,1,0,0:0:0:0:
215,126,105551,2,0,B|289:102|289:102|367:136|367:136|443:104,1,220.999989883423,0|0,0:0|0:0,0:0:0:0:
431,201,106563,1,0,0:0:0:0:
395,281,106900,6,0,B|337:220|363:126|363:126|314:186,1,220.999989883423,0|0,0:0|0:0,0:0:0:0:
270,101,107911,1,0,0:0:0:0:
178,292,108080,1,0,0:0:0:0:
175,264,108164,1,0,0:0:0:0:
171,237,108248,6,0,L|157:77,1,159.375,0|0,0:0|0:0,0:0:0:0:
80,127,108585,1,0,0:0:0:0:
344,125,108754,1,0,0:0:0:0:
72,170,109091,1,0,0:0:0:0:
344,86,109259,1,0,0:0:0:0:
472,240,109596,5,0,0:0:0:0:
425,240,109681,1,0,0:0:0:0:
380,240,109765,2,0,L|262:242,1,106.25,0|0,0:0|0:0,0:0:0:0:
257,63,110102,1,0,0:0:0:0:
257,111,110186,1,0,0:0:0:0:
257,160,110271,1,0,0:0:0:0:
97,337,110439,1,0,0:0:0:0:
62,321,110523,1,0,0:0:0:0:
38,292,110608,1,0,0:0:0:0:
30,255,110692,1,0,0:0:0:0:
39,218,110776,1,0,0:0:0:0:
64,190,110860,1,0,0:0:0:0:
97,170,110945,6,0,P|130:143|195:126,1,106.25,0|0,0:0|0:0,0:0:0:0:
161,49,111282,1,0,0:0:0:0:
200,289,111450,1,0,0:0:0:0:
345,115,111619,2,0,P|385:99|457:93,1,106.25,0|0,0:0|0:0,0:0:0:0:
426,333,111956,2,0,P|373:328|323:310,1,106.25,0|0,0:0|0:0,0:0:0:0:
96,193,112293,6,0,P|137:186|200:160,1,106.25,0|0,0:0|0:0,0:0:0:0:
286,34,112630,1,0,0:0:0:0:
253,259,112799,1,0,0:0:0:0:
443,136,112967,2,0,P|458:176|464:240,1,106.25,0|0,0:0|0:0,0:0:0:0:
240,363,113304,2,0,P|199:350|153:305,1,106.25,0|0,0:0|0:0,0:0:0:0:
179,109,113641,6,0,P|210:81|276:64,1,106.25,0|0,0:0|0:0,0:0:0:0:
310,307,113978,1,0,0:0:0:0:
382,97,114147,1,0,0:0:0:0:
130,311,114316,2,0,P|95:212|184:134,1,212.5,0|0,0:0|0:0,0:0:0:0:
448,61,114821,2,0,B|432:129|432:129|371:164|371:164|354:234,1,212.5,0|0,0:0|0:0,0:0:0:0:
278,280,115327,6,0,P|367:324|438:255,1,212.5
234,48,115832,1,0,0:0:0:0:
186,45,115917,1,0,0:0:0:0:
140,58,116001,1,0,0:0:0:0:
101,84,116085,1,0,0:0:0:0:
72,122,116169,1,0,0:0:0:0:
56,167,116254,1,0,0:0:0:0:
56,215,116338,6,0,P|53:273|145:335,1,159.375,0|0,0:0|0:0,0:0:0:0:
206,308,116675,2,0,B|278:234|278:234|391:198,1,212.5,0|0,0:0|0:0,0:0:0:0:
469,241,117181,1,0,0:0:0:0:
256,79,117349,1,0,0:0:0:0:
286,334,117518,1,0,0:0:0:0:
232,320,117602,1,0,0:0:0:0:
187,287,117686,6,0,P|142:252|93:189,1,106.25,0|0,0:0|0:0,0:0:0:0:
160,55,118023,1,0,0:0:0:0:
370,121,118192,1,0,0:0:0:0:
406,163,118276,1,0,0:0:0:0:
423,214,118360,2,0,P|438:264|444:317,1,106.25,0|0,0:0|0:0,0:0:0:0:
229,357,118698,1,0,0:0:0:0:
321,227,118866,1,0,0:0:0:0:
209,112,119035,5,0,0:0:0:0:
168,265,119203,1,0,0:0:0:0:
321,227,119372,2,0,B|358:186|358:186|367:130,1,106.25,0|0,0:0|0:0,0:0:0:0:
389,10,119709,1,0,0:0:0:0:
227,146,119877,1,0,0:0:0:0:
436,186,120046,2,0,B|428:241|428:241|381:298,1,106.25,0|0,0:0|0:0,0:0:0:0:
372,292,120299,1,0,0:0:0:0:
347,301,120383,5,0,0:0:0:0:
205,189,120551,1,0,0:0:0:0:
386,189,120720,1,0,0:0:0:0:
268,326,120889,1,0,0:0:0:0:
292,147,121057,1,0,0:0:0:0:
416,281,121226,1,0,0:0:0:0:
374,302,121310,1,0,0:0:0:0:
329,318,121394,1,0,0:0:0:0:
282,328,121478,1,0,0:0:0:0:
235,332,121563,1,0,0:0:0:0:
187,328,121647,1,0,0:0:0:0:
140,318,121731,6,0,P|90:299|47:268,1,106.25,0|0,0:0|0:0,0:0:0:0:
23,186,122068,1,0,0:0:0:0:
74,117,122237,1,0,0:0:0:0:
311,72,122405,2,0,P|364:103|381:169,1,106.25
300,154,122743,2,0,P|253:129|242:21,1,159.375,0|0,0:0|0:0,0:0:0:0:
404,78,123080,6,0,L|464:91,1,53.125,0|0,0:0|0:0,0:0:0:0:
504,169,123248,1,0,0:0:0:0:
403,161,123417,2,0,B|374:209|374:209|367:280,1,106.25,0|0,0:0|0:0,0:0:0:0:
291,293,123754,1,0,0:0:0:0:
362,371,123922,1,0,0:0:0:0:
456,322,124091,1,0,0:0:0:0:
381,247,124259,1,0,0:0:0:0:
199,283,124428,6,0,B|166:326|166:326|118:348,1,106.25,0|0,0:0|0:0,0:0:0:0:
103,223,124765,1,0,0:0:0:0:
194,354,124934,1,0,0:0:0:0:
35,351,125102,1,0,0:0:0:0:
221,247,125271,1,0,0:0:0:0:
221,247,125355,1,0,0:0:0:0:
221,247,125439,1,0,0:0:0:0:
92,135,125608,2,0,B|114:90|114:90|164:65,1,106.25,0|0,0:0|0:0,0:0:0:0:
331,197,125945,5,0,0:0:0:0:
193,276,126113,1,0,0:0:0:0:
201,116,126282,1,0,0:0:0:0:
273,255,126450,2,0,P|312:292|360:315,1,106.25,0|0,0:0|0:0,0:0:0:0:
359,283,126703,1,0,0:0:0:0:
356,251,126787,1,0,0:0:0:0:
361,219,126872,1,0,0:0:0:0:
373,190,126956,1,0,0:0:0:0:
392,164,127040,1,0,0:0:0:0:
416,144,127125,6,0,P|444:106|499:75,1,106.25,0|0,0:0|0:0,0:0:0:0:
292,69,127462,1,0,0:0:0:0:
275,96,127546,1,0,0:0:0:0:
260,124,127630,2,0,P|232:162|177:193,1,106.25,0|0,0:0|0:0,0:0:0:0:
189,342,127967,2,0,P|217:304|272:273,1,106.25,0|0,0:0|0:0,0:0:0:0:
336,243,128304,2,0,L|336:69,1,159.375,0|0,0:0|0:0,0:0:0:0:
325,56,128641,5,0,0:0:0:0:
297,45,128726,1,0,0:0:0:0:
268,45,128810,2,0,L|215:58,1,53.125,0|0,0:0|0:0,0:0:0:0:
76,125,128978,2,0,L|128:137,1,53.125,0|0,0:0|0:0,0:0:0:0:
268,209,129147,2,0,L|215:222,1,53.125,0|0,0:0|0:0,0:0:0:0:
76,289,129316,2,0,L|128:301,1,53.125,0|0,0:0|0:0,0:0:0:0:
179,316,129484,1,0,0:0:0:0:
228,333,129568,1,0,0:0:0:0:
280,327,129653,1,0,0:0:0:0:
325,299,129737,1,0,0:0:0:0:
349,252,129821,6,0,B|358:197|334:166|334:166|346:98,1,152.999995330811,0|0,0:0|0:0,0:0:0:0:
269,219,130495,2,0,B|197:197|197:197|184:158|141:164|141:164|86:90,1,212.5,0|0,0:0|0:0,0:0:0:0:
31,185,131001,1,0,0:0:0:0:
31,185,131085,1,0,0:0:0:0:
31,185,131169,2,0,P|7:76|82:12,1,212.5,0|0,0:0|0:0,0:0:0:0:
153,134,131675,1,0,0:0:0:0:
255,271,131844,2,0,P|326:200|299:115,1,141.666666666667
295,100,132181,5,0,0:0:0:0:
235,59,132293,5,0,0:0:0:0:
164,59,132405,5,0,0:0:0:0:
106,101,132518,2,0,P|65:136|40:192,1,106.25,0|0,0:0|0:0,0:0:0:0:
44,246,132855,1,0,0:0:0:0:
173,314,133023,1,0,0:0:0:0:
194,170,133192,1,0,0:0:0:0:
396,324,133529,2,0,L|408:196,1,106.25,0|0,0:0|0:0,0:0:0:0:
477,135,133866,5,0,0:0:0:0:
352,164,134035,1,0,0:0:0:0:
447,248,134203,1,0,0:0:0:0:
406,105,134372,1,0,0:0:0:0:
362,248,134540,2,0,B|372:300|372:300|408:340,1,106.25,0|0,0:0|0:0,0:0:0:0:
228,243,134877,2,0,B|256:200|256:200|260:144,1,106.25,0|0,0:0|0:0,0:0:0:0:
240,62,135214,5,0,0:0:0:0:
154,157,135383,1,0,0:0:0:0:
280,173,135551,1,0,0:0:0:0:
158,75,135720,1,0,0:0:0:0:
211,219,135889,1,0,0:0:0:0:
240,62,136057,1,0,0:0:0:0:
361,246,136226,2,0,B|372:192|372:192|408:152,1,106.25,0|0,0:0|0:0,0:0:0:0:
461,199,136563,5,0,0:0:0:0:
467,60,136731,1,0,0:0:0:0:
348,137,136900,1,0,0:0:0:0:
511,136,137068,1,0,0:0:0:0:
370,57,137237,1,0,0:0:0:0:
426,133,137574,1,0,0:0:0:0:
283,277,137911,5,0,0:0:0:0:
283,106,138080,1,0,0:0:0:0:
182,245,138248,1,0,0:0:0:0:
346,192,138417,1,0,0:0:0:0:
182,138,138585,1,0,0:0:0:0:
283,277,138754,1,0,0:0:0:0:
408,304,138922,2,0,P|452:264|476:212,1,106.25,0|0,0:0|0:0,0:0:0:0:
424,52,139259,6,0,B|408:96|372:120|372:120|376:176,1,127.500004863739,0|0,0:0|0:0,0:0:0:0:
448,160,139765,1,0,0:0:0:0:
368,248,139934,1,0,0:0:0:0:
300,151,140102,1,0,0:0:0:0:
383,66,140271,1,0,0:0:0:0:
368,248,140439,1,0,0:0:0:0:
292,66,140608,6,0,P|233:120|227:197,1,127.500004863739,0|0,0:0|0:0,0:0:0:0:
220,222,141057,5,0,0:0:0:0:
224,281,141169,1,0,0:0:0:0:
267,321,141282,2,0,P|333:346|407:335,1,127.500004863739,0|0,0:0|0:0,0:0:0:0:
444,320,141731,5,0,0:0:0:0:
485,276,141844,1,0,0:0:0:0:
493,217,141956,2,0,P|497:147|473:78,1,127.500004863739,0|0,0:0|0:0,0:0:0:0:
413,57,142405,2,0,L|340:47,1,42.5000016212464,0|0,0:0|0:0,0:0:0:0:
274,39,142630,1,0,0:0:0:0:
168,85,142799,1,0,0:0:0:0:
145,197,142967,1,0,0:0:0:0:
195,300,143136,1,0,0:0:0:0:
326,192,143304,5,0,0:0:0:0:
326,192,143473,1,0,0:0:0:0:
89,57,144653,5,0,0:0:0:0:
89,57,144821,1,0,0:0:0:0:
433,70,145327,5,0,0:0:0:0:
433,70,145495,1,0,0:0:0:0:
256,215,146001,5,0,0:0:0:0:
159,57,146169,1,0,0:0:0:0:
256,289,146338,1,0,0:0:0:0:
386,57,146507,1,0,0:0:0:0:
128,197,146675,1,0,0:0:0:0:
407,197,146844,1,0,0:0:0:0:
159,57,147012,1,0,0:0:0:0:
386,57,147181,1,0,0:0:0:0:
256,289,147349,6,0,L|256:315,1,15.9375006079674,0|0,0:0|0:0,0:0:0:0:
481,233,148698,6,0,B|387:226|387:226|321:157|265:174|265:174|202:113,1,318.75,0|0,0:0|0:0,0:0:0:0:
139,58,150046,2,0,B|104:154|104:154|158:240|158:240|143:341,1,305.999990661621,0|0,0:0|0:0,0:0:0:0:
424,56,151394,6,0,L|372:136,1,85,0|0,0:0|0:0,0:0:0:0:
290,212,151731,1,0,0:0:0:0:
238,76,151900,1,0,0:0:0:0:
238,76,151984,1,0,0:0:0:0:
238,76,152068,2,0,L|186:156,1,85,0|0,0:0|0:0,0:0:0:0:
279,272,152405,1,0,0:0:0:0:
359,98,152574,1,0,0:0:0:0:
270,300,152743,5,0,0:0:0:0:
118,70,152911,1,0,0:0:0:0:
337,177,153080,1,0,0:0:0:0:
137,214,153248,1,0,0:0:0:0:
244,45,153417,2,0,B|268:71|268:71|290:115,1,85,0|0,0:0|0:0,0:0:0:0:
209,254,153754,1,0,0:0:0:0:
64,56,153922,1,0,0:0:0:0:
362,302,154091,6,0,B|302:270|302:270|269:220,1,127.5
230,160,154428,2,0,P|256:123|279:58,1,85,0|0,0:0|0:0,0:0:0:0:
415,39,154765,2,0,P|387:173|293:177,1,233.750007133484,0|0,0:0|0:0,0:0:0:0:
336,92,155271,2,0,P|249:109|204:197,1,170
178,274,155692,5,0,0:0:0:0:
216,292,155776,1,0,0:0:0:0:
257,285,155860,1,0,0:0:0:0:
292,260,155945,1,0,0:0:0:0:
325,234,156029,1,0,0:0:0:0:
358,208,156113,1,0,0:0:0:0:
400,200,156198,1,0,0:0:0:0:
442,205,156282,1,0,0:0:0:0:
506,225,156366,5,0,0:0:0:0:
499,284,156450,1,0,0:0:0:0:
468,334,156535,1,0,0:0:0:0:
416,362,156619,1,0,0:0:0:0:
357,360,156703,1,0,0:0:0:0:
303,318,156787,6,0,P|266:296|241:263,1,85
140,88,157125,1,0,0:0:0:0:
92,331,157293,1,0,0:0:0:0:
82,288,157377,1,0,0:0:0:0:
72,246,157462,2,0,B|52:182|52:182|67:118|67:118|58:54,1,170,0|0,0:0|0:0,0:0:0:0:
238,174,157967,1,0,0:0:0:0:
357,19,158136,5,0,0:0:0:0:
184,9,158304,1,0,0:0:0:0:
331,147,158473,1,0,0:0:0:0:
272,0,158641,1,0,0:0:0:0:
200,152,158810,1,0,0:0:0:0:
432,76,158978,1,0,0:0:0:0:
296,260,159147,2,0,B|259:262|259:262|215:242,1,85,0|0,0:0|0:0,0:0:0:0:
88,88,159484,5,0,0:0:0:0:
224,20,159653,1,0,0:0:0:0:
244,156,159821,1,0,0:0:0:0:
132,16,159990,1,0,0:0:0:0:
128,204,160158,2,0,P|156:236|224:260,1,85,0|0,0:0|0:0,0:0:0:0:
312,276,160495,1,0,0:0:0:0:
220,72,160664,1,0,0:0:0:0:
200,300,160832,6,0,L|200:244,1,42.5,0|0,0:0|0:0,0:0:0:0:
204,176,161001,1,0,0:0:0:0:
204,176,161085,1,0,0:0:0:0:
204,176,161169,1,0,0:0:0:0:
304,220,161338,6,0,L|304:164,1,42.5,0|0,0:0|0:0,0:0:0:0:
304,89,161507,1,0,0:0:0:0:
278,108,161591,1,0,0:0:0:0:
250,123,161675,1,0,0:0:0:0:
223,141,161759,1,0,0:0:0:0:
194,155,161844,2,0,L|126:155,1,42.5,0|0,0:0|0:0,0:0:0:0:
39,163,162012,1,0,0:0:0:0:
39,163,162096,1,0,0:0:0:0:
39,163,162181,6,0,B|33:210|33:210|49:270,1,85,0|0,0:0|0:0,0:0:0:0:
241,322,162518,1,0,0:0:0:0:
156,109,162686,1,0,0:0:0:0:
359,260,162855,2,0,P|384:221|401:170,1,85,0|0,0:0|0:0,0:0:0:0:
321,31,163192,1,0,0:0:0:0:
239,218,163360,1,0,0:0:0:0:
449,166,163529,6,0,B|448:125|448:125|421:62,1,85,0|0,0:0|0:0,0:0:0:0:
183,150,163866,1,0,0:0:0:0:
435,233,164035,1,0,0:0:0:0:
281,91,164203,1,0,0:0:0:0:
140,272,164372,1,0,0:0:0:0:
348,307,164540,1,0,0:0:0:0:
111,66,164709,2,0,L|125:133,1,42.5,0|0,0:0|0:0,0:0:0:0:
131,198,164877,5,0,0:0:0:0:
164,223,164962,1,0,0:0:0:0:
204,238,165046,1,0,0:0:0:0:
246,232,165130,1,0,0:0:0:0:
282,211,165214,1,0,0:0:0:0:
312,181,165299,1,0,0:0:0:0:
316,218,165383,1,0,0:0:0:0:
331,257,165467,1,0,0:0:0:0:
365,283,165551,6,0,B|319:304|299:328|299:328|263:315|192:330,1,159.375006079674,0|0,0:0|0:0,0:0:0:0:
107,335,166057,2,0,P|67:270|67:213,1,127.5,0|0,0:0|0:0,0:0:0:0:
73,178,166394,1,0,0:0:0:0:
77,135,166478,1,0,0:0:0:0:
90,95,166563,1,0,0:0:0:0:
112,59,166647,1,0,0:0:0:0:
147,34,166731,1,0,0:0:0:0:
164,72,166816,5,0,0:0:0:0:
192,104,166900,1,0,0:0:0:0:
227,127,166984,1,0,0:0:0:0:
268,140,167068,1,0,0:0:0:0:
310,142,167153,1,0,0:0:0:0:
351,130,167237,1,0,0:0:0:0:
381,101,167321,1,0,0:0:0:0:
383,60,167405,1,0,0:0:0:0:
353,30,167490,1,0,0:0:0:0:
312,18,167574,6,0,P|263:9|210:20,1,85,0|0,0:0|0:0,0:0:0:0:
153,53,167911,1,0,0:0:0:0:
261,215,168080,1,0,0:0:0:0:
325,29,168248,1,0,0:0:0:0:
141,182,168417,1,0,0:0:0:0:
363,38,168585,1,0,0:0:0:0:
136,217,168754,1,0,0:0:0:0:
368,305,168922,6,0,P|401:270|416:218,1,85,0|0,0:0|0:0,0:0:0:0:
433,93,169259,1,0,0:0:0:0:
246,207,169428,1,0,0:0:0:0:
446,184,169596,1,0,0:0:0:0:
223,108,169765,1,0,0:0:0:0:
406,258,169934,1,0,0:0:0:0:
289,55,170102,1,0,0:0:0:0:
316,272,170271,5,0,0:0:0:0:
377,160,170439,1,0,0:0:0:0:
250,177,170608,1,0,0:0:0:0:
421,228,170776,1,0,0:0:0:0:
209,253,170945,1,0,0:0:0:0:
428,106,171113,1,0,0:0:0:0:
152,177,171282,1,0,0:0:0:0:
416,20,171450,1,0,0:0:0:0:
106,295,171619,5,0,0:0:0:0:
419,175,171956,1,0,0:0:0:0:
159,78,172293,2,0,L|181:238,2,127.5,0|0|0,0:0|0:0|0:0,0:0:0:0:
87,28,172967,1,0,0:0:0:0:
379,86,174990,6,0,L|332:149,2,56.6666666666667,0|0|0,0:0|0:0|0:0,0:0:0:0:
290,202,175327,1,0,0:0:0:0:
201,326,175664,5,0,0:0:0:0:
104,239,175832,1,0,0:0:0:0:
238,151,176001,1,0,0:0:0:0:
105,83,176169,1,0,0:0:0:0:
241,253,176338,1,0,0:0:0:0:
341,60,176507,1,0,0:0:0:0:
135,158,176675,1,0,0:0:0:0:
135,158,176844,6,0,B|173:293|297:219|297:219|304:289|394:307,1,340,0|0,0:0|0:0,0:0:0:0:
378,304,177602,1,0,0:0:0:0:
378,304,177686,1,0,0:0:0:0:
461,103,177855,1,0,0:0:0:0:
343,126,178023,1,0,0:0:0:0:
465,222,178192,1,0,0:0:0:0:
345,246,178360,2,0,B|294:251|265:275|265:275|234:248|168:247,1,170,0|0,0:0|0:0,0:0:0:0:
166,130,178866,1,0,0:0:0:0:
140,129,179035,6,0,L|133:13,1,85,0|0,0:0|0:0,0:0:0:0:
122,126,179287,6,0,L|108:13,1,95.6250036478044,0|0,0:0|0:0,0:0:0:0:
52,214,179709,5,0,0:0:0:0:
184,295,180390,1,0,0:0:0:0:
299,195,181140,1,0,0:0:0:0:
146,309,181890,6,0,L|255:264,1,101.999996887207,0|0,0:0|0:0,0:0:0:0:
304,152,182542,1,0,0:0:0:0:
227,63,182933,1,0,0:0:0:0:
176,168,183325,1,0,0:0:0:0:
199,278,183717,2,0,B|254:233|325:278|325:278|200:198|215:81,1,356.999989105225,0|0,0:0|0:0,0:0:0:0:
126,102,185308,2,0,L|124:144,2,42.5,0|0|0,0:0|0:0|0:0,0:0:0:0:
49,183,188004,6,0,B|172:148|172:231|305:190,1,254.999992218018,0|0,0:0|0:0,0:0:0:0:
347,318,189770,2,0,L|347:154,1,152.999995330811,0|0,0:0|0:0,0:0:0:0:
355,67,190436,6,0,P|276:99|249:170,1,152.999995330811,0|0,0:0|0:0,0:0:0:0:
159,177,191710,6,0,B|222:186|276:127|276:127|332:108,1,181.333333333333,0|0,0:0|0:0,0:0:0:0:
233,38,193369,6,0,B|218:75|190:96|190:96|235:121|357:147|341:293|267:360|159:348,1,467.5,0|0,0:0|0:0,0:0:0:0:
256,192,196522,12,0,201507,0:0:0:0:
