osu file format v14

[General]
AudioFilename: 06. ubd.mp3
AudioLeadIn: 0
PreviewTime: 57797
Countdown: 1
SampleSet: Soft
StackLeniency: 0.6
Mode: 0
LetterboxInBreaks: 1
WidescreenStoryboard: 1

[Editor]
Bookmarks: 16493,21561,78527,108022,121673,122179,123190,132460
DistanceSpacing: 1
BeatDivisor: 4
GridSize: 4
TimelineZoom: 2.699999

[Metadata]
Title:Miraizu
TitleUnicode:Miraizu
Artist:Sana
ArtistUnicode:Sana
Creator:MrPotato
Version:A
Source:
Tags:honeyworks, avishay, sana, suki ni naru shunkan wo.
BeatmapID:771534
BeatmapSetID:338109

[Difficulty]
HPDrainRate:6
CircleSize:4
OverallDifficulty:8
ApproachRate:9
SliderMultiplier:1.7
SliderTickRate:1

[Events]
//Background and Video events
0,0,"Konachan.com - 172150 sample.jpg",0,0
//Break Periods
//Storyboard Layer 0 (Background)
//Storyboard Layer 1 (Fail)
//Storyboard Layer 2 (Pass)
//Storyboard Layer 3 (Foreground)
//Storyboard Sound Samples

[TimingPoints]
383.458042721136,337.078651685393,4,2,0,20,1,0
2321,-100,4,2,0,5,0,0
2405,-100,4,2,0,20,0,0
7799,-125,4,2,0,20,0,0
8473,-111.111111111111,4,2,0,20,0,0
8978,-111.111111111111,4,2,0,10,0,0
9316,-111.111111111111,4,2,0,25,0,0
10495,-200,4,2,0,28,0,0
11085,-200,4,2,0,5,0,0
11169,-133.333333333333,4,2,0,35,0,0
13866,-66.6666666666667,4,2,0,50,0,0
14540,-66.6666666666667,4,2,0,50,0,0
14709,-100,4,2,0,50,0,0
14962,-100,4,2,0,5,0,0
15046,-80,4,2,0,50,0,0
15383,-100,4,2,0,50,0,0
15551,-90.9090909090909,4,2,0,50,0,0
15720,-83.3333333333333,4,2,0,50,0,0
23978,-100,4,2,0,50,0,0
28529,-83.3333333333333,4,2,0,50,0,0
29035,-100,4,2,0,50,0,0
31394,-133.333333333333,4,2,0,40,0,0
32743,-100,4,2,0,40,0,0
33080,-133.333333333333,4,2,0,40,0,0
35945,-100,4,2,0,50,0,0
36282,-66.6666666666667,4,2,0,50,0,0
36450,-100,4,2,0,50,0,0
36787,-80,4,2,0,50,0,0
40832,-100,4,2,0,45,0,0
42518,-117.647058823529,4,2,0,45,0,0
55664,-100,4,2,0,50,0,0
57012,-400,4,2,0,50,0,0
57855,-133.333333333333,4,2,0,5,0,0
58192,-100,4,2,0,5,0,0
58360,-83.3333333333333,4,2,0,50,0,1
62237,-71.4285714285714,4,2,0,50,0,1
62743,-83.3333333333333,4,2,0,50,0,1
73023,-71.4285714285714,4,2,0,50,0,1
79934,-133.333333333333,4,2,0,30,0,0
81956,-100,4,2,0,50,0,1
83978,-100,4,2,0,50,0,0
89372,-133.333333333333,4,2,0,35,0,0
108248,-100,4,2,0,45,0,0
108754,-86.9565217391304,4,2,0,55,0,0
109259,-76.9230769230769,4,2,0,65,0,0
110945,-71.4285714285714,4,2,0,70,0,0
114484,-83.3333333333333,4,2,0,70,0,0
114821,-71.4285714285714,4,2,0,70,0,0
115832,-83.3333333333333,4,2,0,70,0,0
116338,-71.4285714285714,4,2,0,70,0,0
121731,-142.857142857143,4,2,0,70,0,0
122237,-105.263157894737,4,2,0,70,0,0
122743,-76.9230769230769,4,2,0,70,0,0
123417,-71.4285714285714,4,2,0,70,0,0
132518,-100,4,2,0,70,0,0

[HitObjects]
96,136,271,5,0,0:0:0:0:
96,136,327,1,0,0:0:0:0:
96,136,383,2,0,L|192:132,2,85
128,224,889,2,0,L|212:220,1,85
308,188,1226,1,0,0:0:0:0:
199,107,1394,1,0,0:0:0:0:
128,224,1563,1,0,0:0:0:0:
315,215,1731,6,0,L|308:300,1,85
440,220,2068,2,0,L|452:88,1,127.5
451,92,2405,2,0,P|433:130|401:157,1,85
264,150,2743,2,0,P|282:188|314:215,1,85
80,156,3080,5,0,0:0:0:0:
116,232,3248,1,0,0:0:0:0:
200,232,3417,1,0,0:0:0:0:
158,155,3585,1,0,0:0:0:0:
116,232,3754,2,0,L|108:328,2,85
158,155,4259,1,0,0:0:0:0:
261,255,4428,5,0,0:0:0:0:
160,176,4596,1,0,0:0:0:0:
296,116,4765,1,0,0:0:0:0:
161,200,4934,1,0,0:0:0:0:
228,332,5102,6,0,P|284:344|348:324,1,85
361,234,5439,2,0,P|324:255|283:262,1,85
430,170,5776,6,0,P|444:262|408:328,1,170
316,364,6282,1,0,0:0:0:0:
140,284,6450,2,0,P|214:247|296:263,1,170
228,332,6956,1,0,0:0:0:0:
240,152,7125,6,0,P|288:164|332:152,1,85
504,56,7462,1,0,0:0:0:0:
408,24,7630,1,0,0:0:0:0:
347,102,7799,6,0,P|334:195|424:223,1,204
424,223,8473,6,0,B|348:247|348:247|260:223|260:223|203:238,1,229.499992996216
203,237,9147,1,0,0:0:0:0:
256,328,9316,1,0,0:0:0:0:
104,232,9484,1,0,0:0:0:0:
280,144,9653,1,0,0:0:0:0:
148,332,9821,1,0,0:0:0:0:
123,88,10495,6,0,P|131:161|97:226,1,148.75
97,226,11169,6,0,P|252:303|332:150,1,382.500014591218,4|0,0:0|0:0,0:0:0:0:
332,150,12349,1,0,0:0:0:0:
272,48,12518,2,0,B|331:30|331:30|396:48,1,127.500004863739
484,78,13023,1,0,0:0:0:0:
332,112,13192,1,0,0:0:0:0:
484,48,13360,1,0,0:0:0:0:
408,176,13529,1,0,0:0:0:0:
219,307,13866,6,0,P|263:335|339:331,1,127.5
144,240,14203,1,0,0:0:0:0:
72,352,14372,1,0,0:0:0:0:
84,168,14540,1,0,0:0:0:0:
219,307,14709,6,0,P|263:335|339:331,1,127.5
408,308,15046,2,0,B|408:240|408:240|441:186|440:136,1,159.375
448,68,15383,2,0,L|492:68,1,42.5
328,80,15551,2,0,L|376:40,1,46.7500014266968
224,136,15720,2,0,L|240:80,1,50.9999984436036
34,289,15889,1,0,0:0:0:0:
83,282,15973,1,0,0:0:0:0:
126,254,16057,1,0,0:0:0:0:
145,208,16141,1,0,0:0:0:0:
139,157,16226,5,0,0:0:0:0:
144,134,16310,1,0,0:0:0:0:
149,110,16394,1,0,0:0:0:0:
155,86,16478,1,0,0:0:0:0:
160,62,16563,5,0,0:0:0:0:
328,80,16731,1,0,0:0:0:0:
144,134,16900,1,0,0:0:0:0:
276,4,17068,1,0,0:0:0:0:
361,200,17237,5,8,0:0:0:0:
408,68,17405,1,0,0:0:0:0:
167,293,17574,1,0,0:0:0:0:
135,181,17743,1,0,0:0:0:0:
276,336,17911,5,8,0:0:0:0:
376,232,18080,1,0,0:0:0:0:
168,312,18248,1,0,0:0:0:0:
361,200,18417,1,0,0:0:0:0:
361,200,18501,1,0,0:0:0:0:
361,200,18585,1,0,0:0:0:0:
136,200,18754,1,0,0:0:0:0:
365,347,18922,2,0,P|315:345|272:320,1,101.999996887207
256,296,19175,1,0,0:0:0:0:
249,270,19259,5,0,0:0:0:0:
440,316,19428,1,0,0:0:0:0:
200,360,19596,1,0,0:0:0:0:
104,296,19765,1,0,0:0:0:0:
8,360,19934,1,0,0:0:0:0:
200,360,20102,1,0,0:0:0:0:
276,184,20271,1,0,0:0:0:0:
404,192,20439,1,0,0:0:0:0:
212,56,20608,6,0,P|161:51|114:30,1,101.999996887207
16,216,20945,1,0,0:0:0:0:
184,336,21282,6,0,P|144:348|104:352,2,67.9999979248048
248,280,21619,2,0,P|286:293|326:297,2,67.9999979248048
168,256,21956,1,0,0:0:0:0:
170,231,22293,1,0,0:0:0:0:
171,207,22630,1,0,0:0:0:0:
110,314,22967,1,0,0:0:0:0:
312,176,23136,2,0,P|362:178|409:160,1,101.999996887207
430,60,23473,1,0,0:0:0:0:
340,13,23641,1,0,0:0:0:0:
267,84,23810,1,0,0:0:0:0:
312,176,23978,6,0,L|396:168,2,56.6666666666667,0|0|0,3:0|3:0|3:0,3:0:0:0:
440,236,24316,1,0,1:0:0:0:
110,314,24653,2,0,P|69:324|27:324,1,85
156,124,24990,2,0,L|172:216,1,85
272,268,25327,1,0,0:0:0:0:
84,228,25495,1,0,0:0:0:0:
156,124,25664,1,0,0:0:0:0:
208,352,25832,2,0,L|396:348,1,170
452,280,26338,5,0,0:0:0:0:
400,148,26507,1,0,0:0:0:0:
400,148,26591,1,0,0:0:0:0:
400,148,26675,1,0,0:0:0:0:
452,280,26844,1,0,0:0:0:0:
320,120,27012,1,0,0:0:0:0:
240,92,27181,1,0,0:0:0:0:
240,92,27265,1,0,0:0:0:0:
240,92,27349,6,0,L|132:100,1,85
400,148,27686,1,0,0:0:0:0:
312,260,27855,2,0,L|308:217,1,42.5
236,184,28023,1,0,0:0:0:0:
224,208,28108,2,0,L|164:200,1,42.5,8|0,0:0|0:0,0:0:0:0:
64,256,28360,1,0,0:0:0:0:
152,344,28529,6,0,B|252:375|252:312|364:344,1,203.999993774414,4|0,0:0|0:0,0:0:0:0:
352,340,29035,5,0,0:0:0:0:
452,256,29203,1,0,0:0:0:0:
452,256,29287,1,0,0:0:0:0:
452,256,29372,1,0,0:0:0:0:
352,340,29540,1,0,0:0:0:0:
180,238,29709,2,0,P|220:249|263:247,1,85
288,228,29962,1,0,0:0:0:0:
288,228,30046,5,0,0:0:0:0:
168,272,30214,1,0,0:0:0:0:
276,112,30383,1,0,0:0:0:0:
388,156,30551,1,0,0:0:0:0:
216,204,30720,1,0,0:0:0:0:
112,184,30889,1,0,0:0:0:0:
65,154,30973,1,0,0:0:0:0:
10,151,31057,1,0,0:0:0:0:
276,112,31226,1,0,0:0:0:0:
237,72,31310,1,0,0:0:0:0:
184,57,31394,5,0,0:0:0:0:
216,204,31563,1,0,0:0:0:0:
376,32,31731,1,0,0:0:0:0:
388,156,31900,1,0,0:0:0:0:
409,154,31984,1,0,0:0:0:0:
427,151,32068,2,0,P|456:164|490:164,2,63.7500024318696
472,80,32574,1,0,0:0:0:0:
440,240,32743,6,0,B|440:286|440:286|395:354,1,127.5,4|0,0:0|0:0,0:0:0:0:
348,328,33080,2,0,L|260:328,1,63.7500024318696
248,328,33332,1,0,0:0:0:0:
212,340,33417,2,0,L|168:344,1,31.8750012159348
84,252,33585,2,0,L|128:256,1,31.8750012159348
20,352,33754,1,0,0:0:0:0:
32,364,34091,5,0,0:0:0:0:
248,328,34259,1,0,0:0:0:0:
76,236,34428,2,0,L|89:161,1,63.7500024318696
208,56,34765,2,0,L|218:118,1,63.7500024318696
304,148,35102,1,0,0:0:0:0:
390,119,35271,1,0,0:0:0:0:
256,236,35439,2,0,L|192:238,1,63.7500024318696
192,238,35692,1,0,0:0:0:0:
192,238,35776,1,0,0:0:0:0:
385,347,35945,6,0,L|400:308,1,42.5
465,245,36113,1,0,0:0:0:0:
368,179,36282,6,0,L|389:119,1,63.7500024318696
440,44,36450,2,0,L|324:48,1,85
255,334,36787,6,0,P|303:311|331:267,1,106.25
278,82,37125,2,0,B|256:108|256:108|248:180,1,106.25
64,268,37462,2,0,B|124:264|124:264|168:224,1,106.25
95,74,37799,5,0,0:0:0:0:
148,284,37967,1,0,0:0:0:0:
192,56,38136,1,0,0:0:0:0:
64,268,38304,1,0,0:0:0:0:
260,128,38473,1,0,0:0:0:0:
152,304,38641,1,0,0:0:0:0:
100,96,38810,1,0,0:0:0:0:
332,176,38978,1,0,0:0:0:0:
157,329,39147,1,0,0:0:0:0:
104,120,39316,1,0,0:0:0:0:
260,320,39484,6,0,L|396:328,1,106.25
252,64,39821,2,0,L|116:56,1,106.25
332,176,40158,1,0,0:0:0:0:
184,216,40327,1,0,0:0:0:0:
244,140,40495,1,0,0:0:0:0:
328,272,40664,1,0,0:0:0:0:
220,300,40832,6,0,P|168:320|92:320,1,113.333333333333
292,300,41169,2,0,P|344:320|420:320,1,113.333333333333
256,232,41507,2,0,L|256:168,1,56.6666666666667
256,39,41731,2,0,L|256:96,1,56.6666666666667
328,132,41970,1,0,0:0:0:0:
400,120,42054,1,0,0:0:0:0:
460,68,42181,5,0,0:0:0:0:
132,324,42518,2,0,L|52:320,1,72.2500013780594
200,279,42855,2,0,P|271:271|340:290,2,144.500002756119
132,324,43698,1,0,0:0:0:0:
263,183,43866,2,0,P|231:164|212:134,2,72.2500013780594
164,208,44372,1,0,0:0:0:0:
292,108,44540,2,0,L|302:36,1,72.2500013780594
336,312,44877,6,0,L|260:316,1,72.2500013780594
164,208,45214,2,0,L|240:212,1,72.2500013780594
164,300,45551,2,0,B|51:293|51:293|20:304,2,144.500002756119
264,344,46394,2,0,L|312:340,1,36.1250006890297
348,284,46563,2,0,P|344:232|328:196,1,72.2500013780594
264,112,46900,1,0,0:0:0:0:
344,143,47068,1,0,0:0:0:0:
420,100,47237,1,0,0:0:0:0:
420,100,47321,1,0,0:0:0:0:
420,100,47405,2,0,L|460:100,1,36.1250006890297
364,40,47574,6,0,B|308:36|308:36|260:40,1,72.2500013780594
191,109,47911,2,0,B|247:113|247:113|295:109,1,72.2500013780594
88,48,48248,2,0,P|88:104|80:128,1,72.2500013780594
194,181,48585,2,0,L|190:108,1,72.2500013780594
76,324,48922,6,0,P|148:308|212:348,1,144.500002756119
313,327,49428,1,0,0:0:0:0:
424,319,49596,1,0,0:0:0:0:
308,356,49765,1,0,0:0:0:0:
428,284,49934,2,0,L|432:208,1,72.2500013780594
431,211,50271,6,0,P|375:231|291:203,1,144.500002756119
219,127,50720,2,0,L|279:131,1,48.1666675853729
313,327,50945,2,0,P|257:347|173:319,1,144.500002756119
101,243,51394,2,0,L|161:247,1,48.1666675853729
412,164,51619,2,0,P|380:92|400:16,1,144.500002756119
484,12,52068,2,0,L|464:60,1,48.1666675853729
352,272,52293,2,0,P|393:270|452:244,2,72.2500013780594
472,328,52799,1,0,0:0:0:0:
472,328,52883,1,0,0:0:0:0:
472,328,52967,5,0,0:0:0:0:
352,272,53136,1,0,0:0:0:0:
44,32,54316,5,0,0:0:0:0:
164,88,54484,1,0,0:0:0:0:
468,32,54990,5,0,0:0:0:0:
348,88,55158,1,0,0:0:0:0:
163,273,55664,1,0,0:0:0:0:
348,88,55832,1,0,0:0:0:0:
164,88,56001,1,0,0:0:0:0:
344,276,56169,1,0,0:0:0:0:
97,192,56338,1,0,0:0:0:0:
413,191,56507,1,0,0:0:0:0:
256,33,56675,1,0,0:0:0:0:
255,348,56844,1,0,0:0:0:0:
195,197,57012,2,0,P|147:177|97:192,1,106.25
80,272,57939,2,0,B|144:292|144:292|212:268,1,127.500004863739
312,252,58360,6,0,L|480:248,1,152.999995330811
480,175,58698,2,0,P|440:152|376:156,1,101.999996887207
392,28,59035,1,0,0:0:0:0:
496,96,59203,1,0,0:0:0:0:
332,228,59372,2,0,L|200:224,1,101.999996887207
312,252,59625,1,0,0:0:0:0:
312,252,59709,6,0,P|400:288|468:252,1,152.999995330811
294,331,60046,2,0,P|248:310|198:311,1,101.999996887207
96,244,60383,1,0,0:0:0:0:
128,352,60551,1,0,0:0:0:0:
204,172,60720,2,0,L|176:56,1,101.999996887207
308,172,61057,5,0,0:0:0:0:
384,32,61226,1,0,0:0:0:0:
416,140,61394,1,0,0:0:0:0:
204,172,61563,1,0,0:0:0:0:
228,304,61731,1,0,0:0:0:0:
420,238,61900,2,0,P|427:188|415:139,1,101.999996887207
228,304,62237,6,0,B|316:300|316:300|376:332|376:332|460:328,1,237.999992736817,4|0,0:0|0:0,0:0:0:0:
260,228,62743,5,0,0:0:0:0:
136,344,62911,1,0,0:0:0:0:
28,212,63080,1,0,0:0:0:0:
92,60,63248,1,0,0:0:0:0:
139,78,63332,1,0,0:0:0:0:
189,79,63417,2,0,L|248:72,1,50.9999984436036
456,164,63585,1,0,0:0:0:0:
408,145,63669,1,0,0:0:0:0:
358,144,63754,6,0,L|244:160,1,101.999996887207,12|0,0:0|0:0,0:0:0:0:
368,220,64091,1,0,0:0:0:0:
256,158,64259,1,0,0:0:0:0:
500,200,64428,1,0,0:0:0:0:
500,200,64596,1,0,0:0:0:0:
308,256,64765,2,0,L|432:264,1,101.999996887207
204,256,65102,5,0,0:0:0:0:
204,256,65271,1,0,0:0:0:0:
176,68,65439,1,0,0:0:0:0:
176,68,65608,1,0,0:0:0:0:
324,152,65776,1,0,0:0:0:0:
324,152,65945,1,0,0:0:0:0:
32,276,66113,2,0,L|136:288,1,101.999996887207
170,274,66366,1,0,0:0:0:0:
204,256,66450,6,0,P|276:296|304:328,1,101.999996887207
409,205,66787,2,0,P|337:165|309:133,1,101.999996887207
324,152,67040,1,0,0:0:0:0:
324,152,67125,1,0,0:0:0:0:
388,296,67293,1,0,0:0:0:0:
492,88,67462,1,0,0:0:0:0:
392,72,67630,1,0,0:0:0:0:
324,152,67799,6,0,L|240:144,1,50.9999984436036
196,84,67967,1,0,0:0:0:0:
147,97,68051,1,0,0:0:0:0:
98,83,68136,1,0,0:0:0:0:
63,48,68220,1,0,0:0:0:0:
41,2,68304,2,0,L|34:58,1,50.9999984436036
44,172,68473,5,0,0:0:0:0:
140,336,68641,1,0,0:0:0:0:
177,338,68726,1,0,0:0:0:0:
215,341,68810,1,0,0:0:0:0:
416,244,68978,1,0,0:0:0:0:
378,246,69063,1,0,0:0:0:0:
340,249,69147,6,0,P|308:192|316:104,1,152.999995330811
376,68,69484,2,0,P|436:80|480:72,1,101.999996887207
136,68,69821,2,0,P|76:80|32:72,1,101.999996887207
136,232,70158,1,0,0:0:0:0:
256,96,70327,1,0,0:0:0:0:
376,232,70495,6,0,L|216:244,1,152.999995330811
136,232,70832,2,0,P|88:184|36:172,1,101.999996887207
124,336,71169,1,0,0:0:0:0:
228,168,71338,1,0,0:0:0:0:
420,320,71507,1,0,0:0:0:0:
424,336,71844,5,0,0:0:0:0:
428,352,72096,1,0,0:0:0:0:
428,352,72181,1,0,0:0:0:0:
468,200,72349,1,0,0:0:0:0:
468,178,72434,1,0,0:0:0:0:
469,157,72518,1,0,0:0:0:0:
432,48,72686,2,0,L|330:60,1,101.999996887207
424,72,73023,6,0,B|260:92|260:92|192:56,1,237.999992736817,4|0,0:0|0:0,0:0:0:0:
195,57,73529,5,0,0:0:0:0:
336,44,73698,1,0,0:0:0:0:
152,140,73866,1,0,0:0:0:0:
300,156,74035,1,0,0:0:0:0:
345,171,74119,1,0,0:0:0:0:
393,163,74203,1,0,0:0:0:0:
363,196,74287,1,0,0:0:0:0:
350,237,74372,1,0,0:0:0:0:
355,281,74456,1,0,0:0:0:0:
377,318,74540,5,0,0:0:0:0:
468,208,74709,1,0,0:0:0:0:
272,344,74877,2,0,P|188:304|64:344,1,178.499994552612
40,356,75214,1,0,0:0:0:0:
200,344,75383,1,0,0:0:0:0:
32,176,75551,1,0,0:0:0:0:
216,228,75720,1,0,0:0:0:0:
275,224,75804,1,0,0:0:0:0:
334,220,75889,5,0,0:0:0:0:
420,144,76057,1,0,0:0:0:0:
432,320,76226,1,0,0:0:0:0:
275,224,76394,1,0,0:0:0:0:
96,332,76563,1,0,0:0:0:0:
432,320,76731,1,0,0:0:0:0:
87,288,76900,1,0,0:0:0:0:
87,288,77068,1,0,0:0:0:0:
432,320,77237,5,0,0:0:0:0:
432,320,77405,1,0,0:0:0:0:
80,248,77574,1,0,0:0:0:0:
228,319,77743,1,0,0:0:0:0:
432,320,77911,5,0,0:0:0:0:
224,344,78080,1,0,0:0:0:0:
70,205,78248,1,0,0:0:0:0:
220,368,78417,1,0,0:0:0:0:
384,40,78585,1,0,0:0:0:0:
120,112,78754,1,0,0:0:0:0:
432,320,78922,1,0,0:0:0:0:
311,345,79259,5,0,0:0:0:0:
279,291,79386,1,0,0:0:0:0:
292,231,79470,1,0,0:0:0:0:
344,197,79596,1,0,0:0:0:0:
405,208,79723,1,0,0:0:0:0:
441,258,79807,1,0,0:0:0:0:
432,320,79934,6,0,L|448:200,1,95.6250036478044
423,134,80271,2,0,L|436:40,1,95.6250036478044
343,35,80608,2,0,P|278:43|234:11,1,95.6250036478044
208,0,80945,2,0,L|216:44,1,31.8750012159348
216,128,81113,2,0,P|169:119|122:126,1,95.6250036478044
88,136,81450,5,0,0:0:0:0:
160,260,81619,1,0,0:0:0:0:
76,224,81787,1,0,0:0:0:0:
188,348,81956,5,0,0:0:0:0:
188,348,82012,1,0,0:0:0:0:
188,348,82068,2,0,L|260:344,1,56.6666666666667
340,260,82293,1,0,0:0:0:0:
425,92,82630,5,0,0:0:0:0:
437,204,82799,1,0,0:0:0:0:
340,260,82967,2,0,P|300:296|240:316,1,85
437,204,83304,1,0,0:0:0:0:
348,120,83473,2,0,P|350:66|379:9,1,85
271,192,83810,2,0,P|189:193|128:136,1,170
64,40,84316,5,0,0:0:0:0:
80,228,84568,1,0,0:0:0:0:
104,244,84653,1,0,0:0:0:0:
12,128,84821,1,0,0:0:0:0:
24,308,84990,1,0,0:0:0:0:
152,328,85158,1,0,0:0:0:0:
152,328,85243,1,0,0:0:0:0:
152,328,85327,5,0,0:0:0:0:
8,348,85495,1,0,0:0:0:0:
224,360,85664,2,0,L|312:352,1,85
452,368,85917,1,0,0:0:0:0:
452,368,86001,2,0,L|410:368,1,42.5
364,292,86169,2,0,P|357:246|368:208,1,85
276,36,86507,2,0,P|278:98|204:200,1,170,4|0,0:0|0:0,0:0:0:0:
112,240,87012,5,0,0:0:0:0:
40,152,87181,1,0,0:0:0:0:
40,152,87265,1,0,0:0:0:0:
40,152,87349,1,0,0:0:0:0:
8,288,87518,1,0,0:0:0:0:
112,240,87686,2,0,B|168:236|220:236,1,85
256,248,87939,1,0,0:0:0:0:
256,248,88023,1,0,0:0:0:0:
296,356,88192,1,0,0:0:0:0:
356,152,88360,1,0,0:0:0:0:
412,356,88529,1,0,0:0:0:0:
454,242,88698,2,0,B|478:183|478:183|509:127,2,127.5
364,292,89372,5,0,0:0:0:0:
296,356,90046,1,0,0:0:0:0:
210,315,90720,2,0,P|156:236|76:340,1,255.000009727478
196,352,91731,1,0,0:0:0:0:
260,244,92068,2,0,B|300:252|300:252|340:244|368:212|368:212|400:232|400:232|424:208|460:212|500:224,2,255.000009727478
152,176,93754,5,0,0:0:0:0:
56,260,94091,2,0,B|24:308|24:308|36:384,2,127.500004863739
56,260,95439,1,0,0:0:0:0:
136,340,95776,1,0,0:0:0:0:
248,316,96113,1,0,0:0:0:0:
360,340,96450,2,0,L|404:292,1,63.7500024318696
391,181,96787,2,0,L|348:228,1,63.7500024318696
336,114,97125,2,0,L|380:68,1,63.7500024318696
240,188,97462,6,0,P|129:215|104:104,1,255.000009727478
43,300,98473,1,0,0:0:0:0:
135,327,98641,1,0,0:0:0:0:
231,326,98810,1,0,0:0:0:0:
322,298,98978,1,0,0:0:0:0:
375,218,99147,1,0,0:0:0:0:
384,124,99316,1,0,0:0:0:0:
461,178,99484,5,0,0:0:0:0:
375,218,99653,1,0,0:0:0:0:
283,198,99821,1,0,0:0:0:0:
223,126,99990,1,0,0:0:0:0:
200,36,100158,6,0,P|308:56|448:20,1,255.000009727478
480,208,101169,1,0,0:0:0:0:
332,332,101507,2,0,L|68:320,1,255.000009727478
48,192,102518,1,0,0:0:0:0:
168,160,102855,2,0,P|268:168|340:156,2,127.500004863739
84,64,103866,1,0,0:0:0:0:
212,48,104203,6,0,L|356:48,1,127.500004863739
443,148,104877,2,0,L|316:148,1,127.500004863739
164,240,105551,1,0,0:0:0:0:
280,256,105889,1,0,0:0:0:0:
208,344,106226,1,0,0:0:0:0:
164,240,106563,6,0,P|112:188|44:180,1,127.500004863739
279,256,107237,2,0,P|322:209|382:193,1,127.500004863739
484,312,107911,1,0,0:0:0:0:
375,339,108080,1,0,0:0:0:0:
343,337,108164,1,0,0:0:0:0:
312,336,108248,6,0,B|264:344|224:340|176:316|176:316|120:340,1,170
83,253,108754,2,0,P|115:164|66:83,1,195.500003728867
168,34,109259,2,0,B|248:44|248:44|312:24|312:24|411:37,1,220.999989883423
436,43,109681,1,0,0:0:0:0:
436,43,109765,1,0,0:0:0:0:
464,160,109934,1,0,0:0:0:0:
320,124,110102,1,0,0:0:0:0:
287,124,110186,1,0,0:0:0:0:
255,124,110271,1,0,0:0:0:0:
124,164,110439,5,0,0:0:0:0:
73,184,110523,1,0,0:0:0:0:
46,231,110608,1,0,0:0:0:0:
54,285,110692,1,0,0:0:0:0:
92,323,110776,1,0,0:0:0:0:
146,329,110860,1,0,0:0:0:0:
193,301,110945,6,0,P|292:320|428:296,1,237.999992736817
476,188,111450,1,0,0:0:0:0:
436,76,111619,2,0,L|316:80,1,118.999996368408
244,176,111956,1,0,0:0:0:0:
184,72,112125,1,0,0:0:0:0:
52,260,112293,6,0,P|164:260|304:264,1,237.999992736817
289,263,112799,1,0,0:0:0:0:
208,336,112967,1,0,0:0:0:0:
136,184,113136,1,0,0:0:0:0:
316,344,113304,2,0,P|384:348|436:332,1,118.999996368408
196,252,113641,2,0,P|88:256|104:360,1,237.999992736817
208,336,114147,1,0,0:0:0:0:
316,344,114316,1,0,0:0:0:0:
424,352,114484,2,0,P|440:284|444:244,1,101.999996887207
424,32,114821,6,0,B|267:104|267:104|203:88,1,237.999992736817,4|0,0:0|0:0,0:0:0:0:
104,64,115327,1,0,0:0:0:0:
260,24,115495,1,0,0:0:0:0:
264,192,115664,1,0,0:0:0:0:
64,163,115832,2,0,P|45:181|33:204,1,50.9999984436036
184,212,116001,2,0,P|177:187|163:166,1,50.9999984436036
79,275,116169,2,0,P|104:282|129:281,1,50.9999984436036
0,316,116338,6,0,P|107:354|224:324,1,237.999992736817,4|0,0:0|0:0,0:0:0:0:
304,256,116844,1,0,0:0:0:0:
368,348,117012,1,0,0:0:0:0:
444,224,117181,1,0,0:0:0:0:
216,352,117349,1,0,0:0:0:0:
160,140,117518,1,0,0:0:0:0:
160,140,117602,1,0,0:0:0:0:
160,140,117686,6,0,P|104:168|32:156,1,118.999996368408
228,276,118023,1,0,0:0:0:0:
336,92,118192,1,0,0:0:0:0:
375,89,118276,1,0,0:0:0:0:
415,86,118360,1,0,0:0:0:0:
400,240,118529,1,0,0:0:0:0:
240,72,118698,1,0,0:0:0:0:
216,312,118866,1,0,0:0:0:0:
376,144,119035,5,2,0:0:0:0:
376,144,119203,1,0,0:0:0:0:
192,136,119372,2,0,P|128:156|52:144,1,118.999996368408
76,152,119625,1,0,0:0:0:0:
76,152,119709,2,0,B|56:216|56:216|56:276,1,118.999996368408
192,136,120046,2,0,B|160:88|160:88|232:96,1,118.999996368408
260,92,120299,2,0,L|324:84,1,59.4999981842042
76,152,120551,1,0,0:0:0:0:
280,244,120720,5,0,0:0:0:0:
148,316,120889,2,0,L|152:384,1,59.4999981842042
73,296,121057,2,0,P|108:249|165:240,1,118.999996368408
223,258,121310,1,0,0:0:0:0:
280,244,121394,1,0,0:0:0:0:
306,191,121478,1,0,0:0:0:0:
355,159,121563,1,0,0:0:0:0:
414,159,121647,1,0,0:0:0:0:
463,190,121731,6,0,L|468:272,1,59.4999981842042
256,64,122068,1,0,0:0:0:0:
355,159,122237,6,0,L|361:273,1,80.7499978437424
312,332,122574,1,0,0:0:0:0:
240,96,122743,2,0,P|184:100|129:97,1,110.499994941712
92,80,122995,1,0,0:0:0:0:
92,80,123080,5,0,0:0:0:0:
104,260,123248,1,0,0:0:0:0:
58,49,123417,2,0,L|44:168,1,118.999996368408
24,292,123754,1,0,0:0:0:0:
4,136,123922,1,0,0:0:0:0:
212,72,124091,2,0,P|304:108|424:60,1,178.499994552612
444,44,124428,5,0,0:0:0:0:
164,8,124596,1,0,0:0:0:0:
164,8,124765,1,0,0:0:0:0:
205,285,124934,1,0,0:0:0:0:
205,285,125102,1,0,0:0:0:0:
444,144,125271,1,8,0:0:0:0:
453,142,125355,1,8,0:0:0:0:
462,141,125439,1,8,0:0:0:0:
433,314,125608,6,0,B|380:332|380:332|205:285,1,237.999992736817,4|0,0:0|0:0,0:0:0:0:
15,332,126113,2,0,P|74:325|132:339,1,118.999996368408
248,184,126450,1,0,0:0:0:0:
40,228,126619,1,0,0:0:0:0:
83,209,126703,1,0,0:0:0:0:
130,207,126787,2,0,L|156:140,1,59.4999981842042
285,37,126956,2,0,L|264:92,1,59.4999981842042
168,284,127125,5,0,0:0:0:0:
151,151,127293,1,0,0:0:0:0:
303,205,127462,2,0,L|248:184,1,59.4999981842042
363,318,127630,2,0,L|418:339,1,59.4999981842042
188,312,127799,1,0,0:0:0:0:
83,209,127967,1,0,0:0:0:0:
24,348,128136,1,0,0:0:0:0:
260,360,128304,1,0,0:0:0:0:
100,304,128473,6,0,P|172:316|232:268,1,118.999996368408
236,265,128726,1,0,0:0:0:0:
272,248,128810,1,0,0:0:0:0:
310,248,128894,1,0,0:0:0:0:
312,201,128978,1,0,0:0:0:0:
334,159,129063,1,0,0:0:0:0:
371,130,129147,5,0,0:0:0:0:
368,104,129231,1,0,0:0:0:0:
288,96,129316,1,0,0:0:0:0:
284,69,129400,1,0,0:0:0:0:
204,61,129484,1,0,0:0:0:0:
146,73,129568,1,0,0:0:0:0:
87,68,129653,1,0,0:0:0:0:
32,45,129737,1,0,0:0:0:0:
0,8,129821,6,0,B|4:36|4:36|4:68|-8:100|-32:120|-32:120|-20:168|36:180|80:168,1,237.999992736817
146,73,130327,1,0,0:0:0:0:
59,171,130495,1,0,0:0:0:0:
32,45,130664,1,0,0:0:0:0:
247,3,130832,2,0,P|305:18|364:16,1,118.999996368408
162,187,131169,6,0,B|168:136|168:136|146:73,1,118.999996368408
196,344,131507,1,0,0:0:0:0:
196,344,131844,2,0,P|108:348|48:300,1,158.666661824544
36,228,132181,1,0,0:0:0:0:
99,178,132293,1,0,0:0:0:0:
122,255,132405,1,0,0:0:0:0:
185,205,132518,6,0,L|272:212,1,85
332,120,132855,2,0,L|247:113,1,85
407,170,133192,2,0,P|417:88|356:32,1,170
488,56,133698,1,0,0:0:0:0:
468,224,133866,6,0,P|448:296|432:336,2,85
348,264,134372,1,0,0:0:0:0:
276,335,134540,2,0,P|234:344|192:340,1,85
216,240,134877,2,0,P|177:222|144:195,1,85
