osu file format v14

[General]
AudioFilename: Mirai Broccoly.mp3
AudioLeadIn: 0
PreviewTime: 58312
Countdown: 0
SampleSet: Normal
StackLeniency: 0.7
Mode: 0
LetterboxInBreaks: 0
WidescreenStoryboard: 1

[Editor]
Bookmarks: 11037,25868,31261,42048,52834,58228,79801,83846,89239,110812,132385,143172,151261,172834,176879,179576
DistanceSpacing: 1
BeatDivisor: 4
GridSize: 4
TimelineZoom: 1.4

[Metadata]
Title:Miraizu
TitleUnicode:未来図
Artist:Sana
ArtistUnicode:鎖那
Creator:Broccoly
Version:Promise
Source:
Tags:好きなひと。vocaloid
BeatmapID:672769
BeatmapSetID:299945

[Difficulty]
HPDrainRate:7
CircleSize:4
OverallDifficulty:8
ApproachRate:9
SliderMultiplier:1.76
SliderTickRate:1

[Events]
//Background and Video events
0,0,"Shibuya Rin.png",0,0
//Break Periods
2,22445,23330
2,83961,88723
//Storyboard Layer 0 (Background)
//Storyboard Layer 1 (Fail)
//Storyboard Layer 2 (Pass)
//Storyboard Layer 3 (Foreground)
//Storyboard Sound Samples

[TimingPoints]
335,337.078651685393,4,1,0,100,1,0
4379,-200,4,2,2,40,0,0
11121,-100,4,2,2,40,0,0
21908,-125,4,2,2,40,0,0
23930,-100,4,2,2,40,0,0
28059,-100,4,2,2,15,0,0
28143,-100,4,2,2,40,0,0
31346,-111.111111111111,4,2,2,40,0,0
36739,-83.3333333333333,4,2,2,40,0,0
41458,-90.9090909090909,4,2,2,40,0,0
42132,-100,4,2,2,40,0,0
50222,-133.333333333333,4,2,2,40,0,0
52919,-111.111111111111,4,2,2,40,0,0
57638,-200,4,2,2,40,0,0
58312,-100,4,1,2,40,0,1
68761,-100,4,1,2,40,0,0
69099,-100,4,1,2,40,0,1
79885,-86.9565217391304,4,1,2,40,0,0
81908,-100,4,1,2,40,0,0
89323,-200,4,2,2,40,0,0
108200,-250,4,2,2,25,0,0
108790,-250,4,2,2,7,0,0
108874,-300,4,2,2,25,0,0
109464,-300,4,2,2,7,0,0
109548,-350,4,2,2,25,0,0
110138,-350,4,2,2,7,0,0
110222,-400,4,2,2,25,0,0
110896,-90.9090909090909,4,1,2,40,0,0
115615,-83.3333333333333,4,1,2,40,0,0
116290,-90.9090909090909,4,1,2,40,0,0
132469,-100,4,1,2,40,0,0
140559,-133.333333333333,4,1,2,40,0,0
143256,-111.111111111111,4,1,2,40,0,0
147301,-200,4,2,2,40,0,0
148649,-300,4,2,2,40,0,0
149829,-300,4,2,2,10,0,0
149997,-300,4,2,2,40,0,0
150503,-300,4,2,2,10,0,0
150672,-300,4,2,2,40,0,0
151261,-300,4,2,2,10,0,0
151346,-100,4,1,2,40,0,1
161458,-100,4,1,2,40,0,0
162132,-100,4,1,2,40,0,1
172919,-86.9565217391304,4,1,2,40,0,0
174941,-100,4,1,2,40,0,0
179323,-100,4,2,2,40,0,0
179660,705.882352941176,4,2,0,40,1,0
179660,-100,4,2,2,40,0,0
183895,-100,4,2,2,20,0,0
188130,-100,4,2,2,15,0,0
191660,740.740740740741,4,2,0,40,1,0
196660,740.740740740741,4,2,0,40,1,0

[Colours]
Combo1 : 248,142,80
Combo2 : 102,225,247
Combo3 : 94,251,98
Combo4 : 249,219,51

[HitObjects]
148,56,5054,6,0,L|176:191,1,132
298,138,5728,6,0,L|390:129,1,88
408,285,6402,2,0,L|513:292,1,88
295,357,7076,1,0,0:0:0:0:
190,274,7413,1,0,0:0:0:0:
64,324,7750,2,0,P|51:295|67:234,1,88
26,70,8424,6,0,P|65:90|197:51,1,176
364,62,9604,1,0,0:0:0:0:
364,62,9773,2,0,L|382:161,1,88
175,326,10447,2,0,L|187:195,1,132
199,94,11121,5,0,0:0:0:0:
420,302,13818,1,0,0:0:0:0:
361,170,13986,1,0,0:0:0:0:
270,278,14155,1,0,0:0:0:0:
237,280,14239,1,0,0:0:0:0:
205,283,14323,1,0,0:0:0:0:
78,222,14492,1,0,0:0:0:0:
129,120,14660,2,0,P|123:79|153:33,1,88
418,49,14997,6,0,B|456:170|456:170|434:237,1,176
438,351,15503,1,0,0:0:0:0:
411,315,15587,1,0,0:0:0:0:
370,297,15672,1,0,0:0:0:0:
326,295,15756,1,0,0:0:0:0:
286,314,15840,1,0,0:0:0:0:
116,323,16009,5,0,0:0:0:0:
150,303,16093,1,0,0:0:0:0:
185,284,16177,2,0,L|176:219,1,44
246,103,16346,2,0,L|252:146,1,44
285,313,16514,5,0,0:0:0:0:
126,208,16683,1,0,0:0:0:0:
208,80,16851,2,0,L|322:67,1,88
471,152,17188,1,0,0:0:0:0:
393,29,17357,1,0,0:0:0:0:
318,171,17526,2,0,P|300:218|319:269,1,88
389,366,17863,5,0,0:0:0:0:
191,341,18031,1,0,0:0:0:0:
268,228,18200,1,0,0:0:0:0:
98,158,18368,1,0,0:0:0:0:
98,158,18452,1,0,0:0:0:0:
98,158,18537,2,0,L|87:253,1,88
280,142,18874,2,0,L|290:54,1,88
365,16,19127,5,0,0:0:0:0:
365,16,19211,2,0,P|403:6|455:30,1,88
489,253,19548,1,0,0:0:0:0:
300,179,19717,1,0,0:0:0:0:
300,179,19801,1,0,0:0:0:0:
300,179,19885,1,0,0:0:0:0:
198,346,20054,1,0,0:0:0:0:
164,131,20222,1,0,0:0:0:0:
333,296,20391,1,0,0:0:0:0:
81,284,20559,5,0,0:0:0:0:
164,131,20728,1,0,0:0:0:0:
164,131,20812,1,0,0:0:0:0:
164,131,20896,1,0,0:0:0:0:
195,106,20981,1,0,0:0:0:0:
234,100,21065,1,0,0:0:0:0:
272,107,21149,1,0,0:0:0:0:
304,129,21233,6,0,P|309:105|295:64,2,58.6666666666667
377,204,21570,2,0,P|397:180|402:125,2,58.6666666666667
304,297,21908,6,0,B|253:317|203:302|203:302|224:314|234:339,1,140.8
67,64,23930,5,0,0:0:0:0:
67,64,24042,1,0,0:0:0:0:
67,64,24155,1,0,0:0:0:0:
67,64,24267,2,0,P|39:117|98:136,1,132
131,115,24604,5,0,0:0:0:0:
364,172,24773,1,0,0:0:0:0:
364,172,24857,1,0,0:0:0:0:
364,172,24941,1,0,0:0:0:0:
193,249,25110,1,0,0:0:0:0:
187,266,25194,1,0,0:0:0:0:
182,280,25278,1,0,0:0:0:0:
265,111,25447,2,0,L|255:22,1,88
406,203,25784,6,0,L|425:337,1,132
424,333,26121,1,0,0:0:0:0:
233,337,26290,2,0,P|266:349|321:326,1,88
122,297,26627,1,0,0:0:0:0:
268,204,26795,1,0,0:0:0:0:
100,98,26964,2,0,L|88:210,1,88
297,112,27301,5,0,0:0:0:0:
297,112,27469,2,0,L|306:24,1,88
471,175,27806,2,0,B|466:265|466:265|429:294,1,132
398,324,28143,2,0,P|378:296|313:290,1,88
45,198,28481,6,0,L|242:176,1,176
297,112,28986,2,0,P|303:87|272:28,1,88
239,210,29323,1,0,0:0:0:0:
129,85,29492,1,0,0:0:0:0:
44,199,29660,2,0,L|23:310,1,88
211,172,29997,5,0,0:0:0:0:
191,329,30166,2,0,P|226:343|290:324,1,88
422,264,30503,1,0,0:0:0:0:
422,264,30587,1,0,0:0:0:0:
422,264,30672,2,0,L|411:161,1,88
446,68,31009,1,0,0:0:0:0:
255,147,31177,1,0,0:0:0:0:
255,147,31261,1,0,0:0:0:0:
255,147,31346,6,0,L|157:134,1,79.1999975830079
78,99,31683,2,0,P|77:66|120:24,1,79.1999975830079
77,227,32020,1,0,0:0:0:0:
77,227,32188,2,0,B|41:334|41:334|101:312,1,158.399995166016
186,286,32694,5,0,0:0:0:0:
278,341,32863,1,0,0:0:0:0:
278,341,32947,1,0,0:0:0:0:
278,341,33031,2,0,L|346:322,1,39.5999987915039
457,316,33200,2,0,P|403:308|377:247,1,118.799996374512
399,217,33537,1,0,0:0:0:0:
436,123,33705,2,0,L|422:31,1,79.1999975830079
291,176,34042,5,0,0:0:0:0:
436,124,34211,1,0,0:0:0:0:
326,54,34379,2,0,P|286:39|227:52,1,79.1999975830079
83,140,34717,1,0,0:0:0:0:
227,78,34885,1,0,0:0:0:0:
110,32,35054,1,0,0:0:0:0:
195,189,35222,1,0,0:0:0:0:
70,276,35391,5,0,0:0:0:0:
70,276,35475,1,0,0:0:0:0:
70,276,35559,2,0,L|64:333,1,39.5999987915039
158,218,35728,1,0,0:0:0:0:
217,324,35896,2,0,B|275:310|275:310|310:323|310:323|380:308,1,158.399995166016
317,168,36402,1,0,0:0:0:0:
488,225,36570,1,0,0:0:0:0:
488,225,36655,1,0,0:0:0:0:
488,225,36739,6,0,L|467:110,1,105.599996777344
265,38,37076,2,0,L|283:141,1,105.599996777344
129,305,37413,2,0,L|108:190,1,105.599996777344
130,63,37750,1,0,0:0:0:0:
285,141,37919,1,0,0:0:0:0:
285,141,38003,1,0,0:0:0:0:
285,141,38087,5,0,0:0:0:0:
421,106,38256,1,0,0:0:0:0:
256,277,38424,5,0,0:0:0:0:
409,308,38593,1,0,0:0:0:0:
91,201,38761,5,0,0:0:0:0:
241,155,38930,1,0,0:0:0:0:
98,346,39099,5,0,0:0:0:0:
127,113,39267,1,0,0:0:0:0:
127,113,39351,1,0,0:0:0:0:
127,113,39436,5,0,0:0:0:0:
351,198,39604,1,0,0:0:0:0:
300,44,39773,1,0,0:0:0:0:
178,259,39941,1,0,0:0:0:0:
216,241,40026,1,0,0:0:0:0:
257,246,40110,5,0,0:0:0:0:
291,269,40194,1,0,0:0:0:0:
328,290,40278,1,0,0:0:0:0:
370,292,40363,1,0,0:0:0:0:
409,277,40447,1,0,0:0:0:0:
435,243,40531,1,0,0:0:0:0:
445,202,40615,1,0,0:0:0:0:
438,159,40700,1,0,0:0:0:0:
411,125,40784,5,0,0:0:0:0:
229,330,40952,1,0,0:0:0:0:
229,330,41037,1,0,0:0:0:0:
229,330,41121,1,0,0:0:0:0:
174,139,41290,1,0,0:0:0:0:
78,246,41458,2,0,L|65:320,2,64.5333353027344
54,141,41795,2,0,L|68:64,2,64.5333353027344
174,139,42132,5,0,0:0:0:0:
243,76,42301,1,0,0:0:0:0:
332,108,42469,1,0,0:0:0:0:
411,56,42638,1,0,0:0:0:0:
482,120,42806,1,0,0:0:0:0:
452,212,42975,1,0,0:0:0:0:
356,201,43143,1,0,0:0:0:0:
491,300,43312,5,0,0:0:0:0:
491,300,43396,1,0,0:0:0:0:
491,300,43481,1,0,0:0:0:0:
452,212,43649,1,0,0:0:0:0:
338,338,43818,5,0,0:0:0:0:
353,236,43986,1,0,0:0:0:0:
221,349,44155,5,0,0:0:0:0:
199,243,44323,1,0,0:0:0:0:
42,344,44492,6,0,P|57:294|137:299,1,132
199,243,44829,5,0,0:0:0:0:
44,255,44997,1,0,0:0:0:0:
44,255,45082,1,0,0:0:0:0:
44,255,45166,1,0,0:0:0:0:
72,131,45334,1,0,0:0:0:0:
260,164,45503,5,0,0:0:0:0:
236,57,45672,1,0,0:0:0:0:
348,31,45840,1,0,0:0:0:0:
294,253,46009,5,0,0:0:0:0:
294,253,46093,1,0,0:0:0:0:
294,253,46177,1,0,0:0:0:0:
432,200,46346,1,0,0:0:0:0:
406,354,46514,5,0,0:0:0:0:
406,354,46599,1,0,0:0:0:0:
406,354,46683,1,0,0:0:0:0:
406,354,46767,1,0,0:0:0:0:
406,354,46851,2,0,B|398:273|398:273|419:283|449:278,1,132
432,200,47188,2,0,P|444:166|415:114,1,88
194,99,47526,5,0,0:0:0:0:
316,69,47694,1,0,0:0:0:0:
193,227,47863,5,0,0:0:0:0:
155,83,48031,1,0,0:0:0:0:
68,271,48200,5,0,0:0:0:0:
228,216,48368,1,0,0:0:0:0:
116,69,48537,1,0,0:0:0:0:
316,69,48705,1,0,0:0:0:0:
266,202,48874,5,0,0:0:0:0:
266,202,49042,1,0,0:0:0:0:
429,233,49211,1,0,0:0:0:0:
429,233,49379,1,0,0:0:0:0:
336,354,49548,5,0,0:0:0:0:
306,189,49717,1,0,0:0:0:0:
146,289,49885,1,0,0:0:0:0:
180,129,50054,1,0,0:0:0:0:
44,144,50222,6,0,P|74:151|147:91,1,132.000005035401
257,90,50672,2,0,L|314:82,1,44.0000016784669
408,41,50896,1,0,0:0:0:0:
467,267,51233,1,0,0:0:0:0:
467,267,51346,1,0,0:0:0:0:
467,267,51458,1,0,0:0:0:0:
467,267,51570,6,0,P|406:263|365:325,1,132.000005035401
287,245,52020,2,0,P|266:220|268:195,1,44.0000016784669
201,324,52245,2,0,L|141:332,1,44.0000016784669
65,233,52469,1,0,0:0:0:0:
65,233,52582,2,0,L|108:227,1,44.0000016784669
128,117,52806,1,0,0:0:0:0:
235,130,52919,6,0,L|337:116,1,79.1999975830079
457,318,53593,1,0,0:0:0:0:
126,318,54267,6,0,L|228:304,1,79.1999975830079
35,76,54941,2,0,L|113:65,1,79.1999975830079
401,71,55615,5,0,0:0:0:0:
403,78,55700,1,0,0:0:0:0:
404,85,55784,1,0,0:0:0:0:
405,92,55868,1,0,0:0:0:0:
406,99,55952,1,0,0:0:0:0:
407,106,56037,1,0,0:0:0:0:
408,113,56121,1,0,0:0:0:0:
409,120,56205,1,0,0:0:0:0:
410,127,56290,5,0,0:0:0:0:
368,113,56374,1,0,0:0:0:0:
326,126,56458,1,0,0:0:0:0:
302,162,56542,1,0,0:0:0:0:
263,183,56627,1,0,0:0:0:0:
219,181,56711,1,0,0:0:0:0:
180,161,56795,1,0,0:0:0:0:
153,125,56879,1,0,0:0:0:0:
135,84,56964,6,0,B|108:146|110:191|110:191|129:207|135:241,1,158.399995166016
376,298,57638,6,0,P|408:262|388:317,1,154
376,298,58312,6,0,L|391:193,1,88
271,57,58649,2,0,L|258:144,1,88
156,254,58986,2,0,P|119:218|32:248,1,132
45,231,59323,1,0,0:0:0:0:
99,72,59492,6,0,B|163:60|163:60|201:72|201:72|287:54,1,176
458,35,59997,2,0,P|475:69|463:127,1,88
393,265,60334,1,0,0:0:0:0:
298,170,60503,1,0,0:0:0:0:
393,265,60672,2,0,L|486:254,1,88
191,214,61009,6,0,L|284:203,1,88
57,313,61346,2,0,P|93:305|145:335,1,88
189,111,61683,1,0,0:0:0:0:
258,311,61851,1,0,0:0:0:0:
258,311,61936,1,0,0:0:0:0:
258,311,62020,1,0,0:0:0:0:
77,218,62188,6,0,B|69:108|69:108|120:48,1,176
225,134,62694,1,0,0:0:0:0:
347,84,62863,1,0,0:0:0:0:
347,84,62947,1,0,0:0:0:0:
347,84,63031,2,0,L|410:77,1,44
306,206,63200,2,0,L|369:213,1,44
472,199,63368,5,0,0:0:0:0:
495,236,63452,1,0,0:0:0:0:
493,280,63537,1,0,0:0:0:0:
469,317,63621,1,0,0:0:0:0:
428,334,63705,1,0,0:0:0:0:
286,241,63874,5,0,0:0:0:0:
164,317,64042,2,0,P|130:298|74:308,1,88
82,87,64379,2,0,L|92:189,1,88
232,120,64717,1,0,0:0:0:0:
53,60,64885,1,0,0:0:0:0:
39,245,65054,6,0,P|59:259|131:248,1,88
280,208,65391,2,0,P|323:199|362:219,1,88
424,315,65728,1,0,0:0:0:0:
280,208,65896,1,0,0:0:0:0:
230,320,66065,1,0,0:0:0:0:
230,320,66233,1,0,0:0:0:0:
362,219,66402,6,0,L|377:110,1,88
199,57,66739,2,0,P|242:55|278:81,1,88
368,26,67076,1,0,0:0:0:0:
363,218,67245,1,0,0:0:0:0:
205,174,67413,2,0,L|108:186,1,88
45,112,67750,5,0,0:0:0:0:
102,327,67919,1,0,0:0:0:0:
102,327,68087,1,0,0:0:0:0:
236,143,68256,5,0,0:0:0:0:
233,302,68424,1,0,0:0:0:0:
233,302,68593,1,0,0:0:0:0:
360,191,68761,6,0,L|370:246,1,44
492,149,68930,2,0,L|486:212,1,44
496,329,69099,6,0,P|449:307|403:320,1,88
233,302,69436,1,0,0:0:0:0:
359,191,69604,1,0,0:0:0:0:
163,154,69773,2,0,L|251:143,1,88
318,51,70110,1,0,0:0:0:0:
129,60,70278,6,0,P|84:41|30:140,1,176
58,300,70784,2,0,B|54:247|54:247|66:215,1,88
300,87,71121,2,0,B|304:140|304:140|292:172,1,88
481,277,71458,2,0,P|443:257|401:266,1,88
220,308,71795,5,0,0:0:0:0:
323,208,71964,1,0,0:0:0:0:
431,350,72132,1,0,0:0:0:0:
431,350,72217,1,0,0:0:0:0:
431,350,72301,1,0,0:0:0:0:
220,308,72469,2,0,L|233:205,1,88
238,179,72722,1,0,0:0:0:0:
238,179,72806,1,0,0:0:0:0:
76,53,72975,6,0,B|88:122|88:122|76:161|76:161|88:233,1,176
67,266,73396,1,0,0:0:0:0:
44,304,73481,2,0,L|52:352,1,44
161,304,73649,2,0,L|167:256,1,44
257,339,73818,5,0,0:0:0:0:
294,314,73902,1,0,0:0:0:0:
336,315,73986,1,0,0:0:0:0:
374,335,74070,1,0,0:0:0:0:
418,332,74155,1,0,0:0:0:0:
448,300,74239,1,0,0:0:0:0:
451,255,74323,1,0,0:0:0:0:
424,219,74408,1,0,0:0:0:0:
380,214,74492,1,0,0:0:0:0:
402,68,74660,5,0,0:0:0:0:
288,121,74829,2,0,L|194:132,1,88
56,191,75166,1,0,0:0:0:0:
81,59,75334,1,0,0:0:0:0:
224,265,75503,1,0,0:0:0:0:
204,125,75672,1,0,0:0:0:0:
105,335,75840,5,0,0:0:0:0:
328,301,76009,1,0,0:0:0:0:
328,301,76177,2,0,L|425:313,1,88
238,90,76514,2,0,L|335:102,1,88
56,191,76851,2,0,L|153:203,1,88
328,300,77188,5,0,0:0:0:0:
432,202,77357,1,0,0:0:0:0:
238,89,77526,1,0,0:0:0:0:
446,58,77694,1,0,0:0:0:0:
219,193,77863,5,0,0:0:0:0:
77,82,78031,1,0,0:0:0:0:
33,331,78200,1,0,0:0:0:0:
280,303,78368,1,0,0:0:0:0:
55,192,78537,5,0,0:0:0:0:
194,340,78705,1,0,0:0:0:0:
184,301,78790,1,0,0:0:0:0:
197,264,78874,1,0,0:0:0:0:
219,231,78958,1,0,0:0:0:0:
219,191,79042,1,0,0:0:0:0:
204,153,79127,1,0,0:0:0:0:
173,128,79211,6,0,P|140:120|100:142,2,58.6666666666667
247,63,79548,2,0,P|280:55|320:77,2,58.6666666666667
204,153,79885,6,0,B|236:213|231:247|175:263|168:306|201:351,1,202.400003860474,0|0,0:0|2:0,0:0:0:0:
436,295,81908,5,0,0:0:0:0:
436,295,82020,1,0,0:0:0:0:
436,295,82132,1,0,0:0:0:0:
436,295,82245,2,0,P|453:258|402:273,1,117.333333333333,0|0,0:0|2:0,0:0:0:0:
357,344,82582,5,0,0:0:0:0:
226,280,82750,1,0,0:0:0:0:
234,248,82834,1,0,0:0:0:0:
243,214,82919,1,0,0:0:0:0:
90,260,83087,5,0,0:0:0:0:
90,260,83172,1,0,0:0:0:0:
90,260,83256,1,0,0:0:0:0:
113,64,83424,2,0,P|108:107|129:146,1,88
320,73,83761,5,0,0:0:0:0:
72,77,89323,6,0,L|246:100,1,176
482,218,90672,2,0,P|420:207|336:287,1,176
222,335,91683,1,0,0:0:0:0:
92,295,92020,6,0,L|74:201,1,88
179,35,92694,2,0,L|195:121,1,88
365,146,93368,2,0,P|406:128|460:140,1,88
439,325,94042,2,0,P|397:342|344:331,1,88
121,348,94717,5,0,0:0:0:0:
184,239,95054,1,0,0:0:0:0:
105,136,95391,2,0,L|83:50,1,88
230,51,96065,1,0,0:0:0:0:
273,159,96402,2,0,L|366:179,1,88
471,59,97076,1,0,0:0:0:0:
471,181,97413,6,0,P|489:220|471:285,1,88
292,336,98087,2,0,P|274:297|292:232,1,88
85,294,98761,1,0,0:0:0:0:
44,76,99436,1,0,0:0:0:0:
157,132,99773,1,0,0:0:0:0:
270,68,100110,6,0,P|330:99|449:77,1,176
491,244,101458,2,0,P|435:239|386:334,1,176
262,264,102469,1,0,0:0:0:0:
158,333,102806,6,0,L|61:348,1,88
99,167,103481,2,0,L|186:154,1,88
283,47,104155,2,0,L|476:91,1,176
445,321,105503,6,0,L|430:215,1,88
264,110,106177,2,0,L|253:229,1,88
128,231,106851,1,0,0:0:0:0:
71,105,107188,1,0,0:0:0:0:
63,337,107526,2,0,P|109:359|175:341,1,88
489,242,108200,6,0,P|421:231|376:269,1,123.2
329,195,108874,6,0,P|283:205|232:175,1,102.666666666667
189,240,109548,6,0,L|93:252,1,88
47,201,110222,6,0,L|124:211,1,77
189,240,110896,6,0,P|196:201|159:148,1,96.8000029541017
374,306,111233,2,0,L|471:294,1,96.8000029541017
360,46,111570,2,0,L|263:58,1,96.8000029541017
91,253,111908,2,0,L|188:241,1,96.8000029541017
46,66,112245,5,0,0:0:0:0:
270,131,112413,1,0,0:0:0:0:
270,131,112497,1,0,0:0:0:0:
270,131,112582,1,0,0:0:0:0:
250,327,112750,1,0,0:0:0:0:
426,165,112919,1,0,0:0:0:0:
469,292,113087,1,0,0:0:0:0:
278,227,113256,2,0,P|240:219|176:254,1,96.8000029541017
40,221,113593,6,0,B|55:186|50:161|50:161|59:145|80:137,1,96.8000029541017
154,47,113930,1,0,0:0:0:0:
184,77,114014,1,0,0:0:0:0:
225,91,114099,1,0,0:0:0:0:
268,91,114183,1,0,0:0:0:0:
309,74,114267,5,0,0:0:0:0:
348,45,114351,1,0,0:0:0:0:
396,42,114436,1,0,0:0:0:0:
436,68,114520,1,0,0:0:0:0:
456,111,114604,1,0,0:0:0:0:
447,159,114688,1,0,0:0:0:0:
408,188,114773,1,0,0:0:0:0:
358,189,114857,1,0,0:0:0:0:
326,220,114941,6,0,L|255:230,1,48.4000014770508
134,191,115110,2,0,L|182:185,1,48.4000014770508
188,336,115278,2,0,L|182:288,1,48.4000014770508
37,272,115447,5,0,0:0:0:0:
37,272,115531,1,0,0:0:0:0:
37,272,115615,2,0,L|28:218,1,52.7999983886719
85,101,115784,2,0,L|77:49,1,52.7999983886719
253,148,115952,2,0,L|244:96,1,52.7999983886719
401,32,116121,2,0,L|409:85,1,52.7999983886719
471,193,116290,6,0,B|459:260|459:260|470:308,1,96.8000029541017
318,329,116627,1,0,0:0:0:0:
197,185,116795,1,0,0:0:0:0:
38,272,116964,2,0,P|85:265|127:286,1,96.8000029541017
317,226,117301,1,0,0:0:0:0:
121,79,117469,1,0,0:0:0:0:
314,85,117638,6,0,L|424:68,1,96.8000029541017
502,294,117975,2,0,L|406:308,1,96.8000029541017
229,344,118312,1,0,0:0:0:0:
255,164,118481,1,0,0:0:0:0:
91,195,118649,2,0,P|85:169|119:93,1,96.8000029541017
46,317,118986,5,0,0:0:0:0:
290,258,119155,1,0,0:0:0:0:
290,258,119239,1,0,0:0:0:0:
290,258,119323,1,0,0:0:0:0:
184,95,119492,1,0,0:0:0:0:
354,130,119660,6,0,L|344:77,1,48.4000014770508,0|0,0:0|2:0,0:0:0:0:
462,167,119829,2,0,L|471:115,1,48.4000014770508,0|0,0:0|2:0,0:0:0:0:
410,260,119997,1,0,0:0:0:0:
224,245,120166,6,0,L|286:235,1,48.4000014770508,0|0,0:0|2:0,0:0:0:0:
223,354,120334,2,0,L|176:347,1,48.4000014770508,0|0,0:0|2:0,0:0:0:0:
161,157,120503,1,0,0:0:0:0:
44,276,120672,1,0,0:0:0:0:
43,119,120840,6,0,B|55:88|55:53|55:53|39:80|14:111,1,96.8000029541017
163,59,121177,6,0,B|190:41|190:41|194:69|194:69|204:55|204:55|244:69|244:69|274:58|274:58|330:75,1,193.600005908203
424,169,121683,6,0,L|493:176,1,48.4000014770508,0|0,0:0|2:0,0:0:0:0:
450,284,121851,1,0,0:0:0:0:
341,247,122020,2,0,L|227:264,1,96.8000029541017
140,337,122357,1,0,0:0:0:0:
168,144,122526,1,0,0:0:0:0:
341,248,122694,1,0,0:0:0:0:
292,75,122863,1,0,0:0:0:0:
139,160,123031,6,0,L|186:168,1,48.4000014770508,0|0,0:0|2:0,0:0:0:0:
68,66,123200,2,0,L|116:59,1,48.4000014770508,0|0,0:0|2:0,0:0:0:0:
55,233,123368,1,0,0:0:0:0:
161,308,123537,6,0,B|193:306|212:293|212:293|228:326|228:326|246:306|285:286|285:286|303:309|321:321|381:312,1,242.000007385254
356,314,124042,6,0,L|360:253,1,48.4000014770508,0|0,0:0|2:0,0:0:0:0:
466,253,124211,2,0,L|453:180,1,48.4000014770508,0|0,0:0|2:0,0:0:0:0:
388,72,124379,5,0,0:0:0:0:
297,190,124548,2,0,L|287:142,1,48.4000014770508,0|0,0:0|2:0,0:0:0:0:
186,60,124717,2,0,L|178:107,1,48.4000014770508,0|0,0:0|2:0,0:0:0:0:
54,234,124885,6,0,P|96:211|142:223,1,96.8000029541017
443,326,125222,2,0,P|401:302|355:314,1,96.8000029541017
216,38,125559,6,0,L|206:157,1,96.8000029541017
323,287,125896,1,0,0:0:0:0:
398,88,126065,1,0,0:0:0:0:
490,205,126233,1,0,0:0:0:0:
323,287,126402,2,0,P|274:290|228:260,1,96.8000029541017
64,115,126739,1,0,0:0:0:0:
64,115,126823,1,0,0:0:0:0:
64,115,126908,1,0,0:0:0:0:
64,115,126992,1,0,0:0:0:0:
64,115,127076,6,0,L|77:230,1,96.8000029541017
200,335,127413,2,0,L|210:238,1,96.8000029541017
350,29,127750,2,0,B|333:123|333:123|350:183,1,145.200004431152,0|0,0:0|2:0,0:0:0:0:
411,226,128087,1,0,0:0:0:0:
238,133,128256,5,0,0:0:0:0:
221,136,128340,1,0,0:0:0:0:
205,139,128424,1,0,0:0:0:0:
440,93,128593,1,0,0:0:0:0:
412,227,128761,2,0,L|426:295,1,48.4000014770508
322,339,128930,6,0,B|237:322|198:335|198:335|241:320|259:282,1,193.600005908203
39,248,129436,2,0,B|91:276|141:238|141:238|150:246|182:265,1,145.200004431152
76,157,129773,6,0,L|63:77,2,64.5333353027344
186,75,130110,2,0,L|184:-2,2,64.5333353027344
293,148,130447,6,0,P|338:151|379:125,1,64.5333353027344
425,211,130672,1,0,0:0:0:0:
425,211,130784,2,0,P|455:202|487:207,1,64.5333353027344
468,299,131009,1,0,0:0:0:0:
353,350,131121,5,0,0:0:0:0:
326,314,131205,1,0,0:0:0:0:
284,300,131290,1,0,0:0:0:0:
240,300,131374,1,0,0:0:0:0:
202,321,131458,1,0,0:0:0:0:
50,237,131627,5,0,0:0:0:0:
89,254,131711,1,0,0:0:0:0:
131,247,131795,1,0,0:0:0:0:
254,43,131964,5,0,0:0:0:0:
254,43,132048,1,0,0:0:0:0:
254,43,132132,1,0,0:0:0:0:
244,85,132217,1,0,0:0:0:0:
234,127,132301,1,0,0:0:0:0:
223,169,132385,1,0,0:0:0:0:
211,211,132469,1,0,0:0:0:0:
118,180,132638,5,0,0:0:0:0:
57,255,132806,1,0,0:0:0:0:
115,332,132975,1,0,0:0:0:0:
207,305,133143,1,0,0:0:0:0:
283,365,133312,1,0,0:0:0:0:
374,332,133481,1,0,0:0:0:0:
416,186,133649,5,0,0:0:0:0:
416,186,133733,1,0,0:0:0:0:
416,186,133818,1,0,0:0:0:0:
369,292,133986,1,0,0:0:0:0:
266,123,134155,5,0,0:0:0:0:
280,232,134323,1,0,0:0:0:0:
140,169,134492,5,0,0:0:0:0:
126,275,134660,1,0,0:0:0:0:
18,148,134829,6,0,P|86:139|176:116,1,132,0|0,0:0|2:0,0:0:0:0:
194,55,135166,5,0,0:0:0:0:
364,147,135334,1,0,0:0:0:0:
382,48,135503,1,0,0:0:0:0:
462,118,135672,1,0,0:0:0:0:
433,322,135840,5,0,0:0:0:0:
364,147,136009,1,0,0:0:0:0:
280,228,136177,1,0,0:0:0:0:
465,222,136346,5,0,0:0:0:0:
465,222,136430,1,0,0:0:0:0:
465,222,136514,1,0,0:0:0:0:
318,328,136683,1,0,0:0:0:0:
181,272,136851,5,0,0:0:0:0:
181,272,136936,1,0,0:0:0:0:
181,272,137020,1,0,0:0:0:0:
181,272,137104,1,0,0:0:0:0:
181,272,137188,2,0,P|123:265|72:321,1,132,0|0,0:0|2:0,0:0:0:0:
73,313,137526,1,0,0:0:0:0:
199,179,137694,5,0,0:0:0:0:
199,179,137778,1,0,0:0:0:0:
199,179,137863,1,0,0:0:0:0:
89,128,138032,1,0,0:0:0:0:
151,349,138200,5,0,0:0:0:0:
291,306,138369,1,0,0:0:0:0:
199,179,138537,5,0,0:0:0:0:
361,214,138706,1,0,0:0:0:0:
310,81,138875,1,0,0:0:0:0:
425,50,139043,5,0,0:0:0:0:
425,50,139127,1,0,0:0:0:0:
425,50,139212,1,0,0:0:0:0:
466,252,139379,1,0,0:0:0:0:
325,175,139548,5,0,0:0:0:0:
291,305,139717,1,0,0:0:0:0:
179,351,139885,5,0,0:0:0:0:
166,230,140054,1,0,0:0:0:0:
45,293,140222,5,0,0:0:0:0:
86,159,140391,1,0,0:0:0:0:
166,230,140559,6,0,P|191:195|171:95,1,132.000005035401
254,58,141009,2,0,L|309:68,1,44.0000016784669
425,49,141233,1,0,0:0:0:0:
467,267,141570,1,0,0:0:0:0:
467,267,141683,1,0,0:0:0:0:
467,267,141795,1,0,0:0:0:0:
467,267,141908,6,0,L|315:301,1,132.000005035401
238,254,142357,2,0,L|224:317,1,44.0000016784669
128,338,142582,1,0,0:0:0:0:
72,269,142694,2,0,L|67:221,1,44.0000016784669
108,145,142919,1,0,0:0:0:0:
108,145,143031,2,0,L|103:97,1,44.0000016784669
56,24,143256,6,0,L|65:102,1,79.1999975830079
391,74,144604,6,0,L|400:152,1,79.1999975830079
88,211,145278,2,0,L|97:289,1,79.1999975830079
256,320,145952,5,0,0:0:0:0:
256,324,146121,1,0,0:0:0:0:
256,328,146290,1,0,0:0:0:0:
256,332,146457,1,0,0:0:0:0:
256,336,146627,1,0,0:0:0:0:
256,340,146795,1,0,0:0:0:0:
256,344,146964,1,0,0:0:0:0:
256,348,147132,1,0,0:0:0:0:
256,352,147301,6,0,B|285:266|256:222|221:158|256:84,1,264
169,262,148649,6,0,P|118:286|68:174,1,205.333333333333
140,81,149997,2,0,P|184:73|240:65,1,88
322,152,150672,2,0,P|376:159|432:165,1,102.666666666667
433,125,151346,6,0,L|453:228,1,88
277,361,151683,2,0,L|257:258,1,88
41,116,152020,2,0,P|95:150|158:137,1,132,0|0,0:0|2:0,0:0:0:0:
222,74,152357,1,0,0:0:0:0:
402,43,152526,6,0,B|390:119|390:119|365:147|365:147|350:222,1,176
465,342,153031,2,0,L|448:255,1,88
275,150,153368,1,0,0:0:0:0:
340,301,153537,1,0,0:0:0:0:
172,266,153705,2,0,L|71:274,1,88
73,30,154042,6,0,P|61:70|70:118,1,88
255,312,154379,2,0,P|267:270|260:228,1,88
179,76,154717,1,0,0:0:0:0:
83,273,154885,1,0,0:0:0:0:
83,273,154969,1,0,0:0:0:0:
83,273,155054,1,0,0:0:0:0:
255,312,155222,6,0,B|363:289|363:289|456:317,1,176
329,113,155728,1,0,0:0:0:0:
444,183,155896,1,0,0:0:0:0:
444,183,155981,1,0,0:0:0:0:
444,183,156065,2,0,L|500:171,1,44
351,75,156233,2,0,L|395:85,1,44
268,171,156402,5,0,3:0:0:0:
246,136,156486,1,0,3:0:0:0:
211,118,156570,1,0,3:0:0:0:
171,116,156655,1,0,3:0:0:0:
134,130,156739,1,0,3:0:0:0:
67,40,156908,5,0,0:0:0:0:
16,199,157076,2,0,L|10:287,1,88
246,136,157413,2,0,L|253:49,1,88
182,214,157750,1,0,0:0:0:0:
369,145,157919,1,0,0:0:0:0:
442,273,158087,6,0,P|450:315|437:358,1,88
294,341,158424,2,0,L|205:331,1,88
103,285,158761,1,0,0:0:0:0:
276,227,158930,1,0,0:0:0:0:
152,85,159099,2,0,P|139:126|147:169,1,88
309,45,159436,6,0,L|414:36,1,88
146,169,159773,2,0,L|55:163,1,88
119,324,160110,1,0,0:0:0:0:
246,202,160278,1,0,0:0:0:0:
361,282,160447,2,0,P|390:294|468:276,1,88
413,101,160784,5,0,0:0:0:0:
361,282,160952,1,0,0:0:0:0:
226,67,161121,5,0,0:0:0:0:
246,202,161290,1,0,0:0:0:0:
53,233,161458,5,0,0:0:0:0:
87,214,161542,1,0,0:0:0:0:
126,214,161627,1,0,0:0:0:0:
161,231,161711,1,0,0:0:0:0:
186,261,161795,1,0,0:0:0:0:
217,284,161879,1,0,0:0:0:0:
256,287,161964,1,0,0:0:0:0:
292,272,162048,1,0,0:0:0:0:
321,245,162132,6,0,P|372:240|449:251,1,88
199,97,162469,2,0,P|148:92|71:103,1,88
105,305,162806,1,0,0:0:0:0:
246,202,162975,1,0,0:0:0:0:
356,342,163143,1,0,0:0:0:0:
452,243,163312,6,0,P|464:191|363:132,1,176
267,290,163818,2,0,P|229:288|175:258,1,88
61,100,164155,2,0,P|99:80|143:77,1,88
328,118,164492,1,0,0:0:0:0:
267,290,164660,1,0,0:0:0:0:
397,240,164829,6,0,L|503:248,1,88
195,174,165166,2,0,L|89:182,1,88
62,340,165503,1,0,0:0:0:0:
267,290,165672,1,0,0:0:0:0:
267,290,165756,1,0,0:0:0:0:
267,290,165840,1,0,0:0:0:0:
455,342,166009,6,0,B|446:230|446:230|401:176,1,176
351,259,166430,1,0,0:0:0:0:
351,259,166514,2,0,L|358:321,1,44
237,260,166683,2,0,L|233:217,1,44
185,346,166851,5,0,0:0:0:0:
154,340,166936,1,0,0:0:0:0:
123,335,167020,1,0,0:0:0:0:
92,330,167104,1,0,0:0:0:0:
57,349,167188,5,0,0:0:0:0:
26,317,167273,1,0,0:0:0:0:
18,273,167357,1,0,0:0:0:0:
32,231,167441,1,0,0:0:0:0:
66,203,167526,1,0,0:0:0:0:
132,96,167694,5,0,0:0:0:0:
132,96,167863,2,0,L|238:114,1,88
454,184,168200,1,0,0:0:0:0:
349,62,168368,1,0,0:0:0:0:
287,252,168537,1,0,0:0:0:0:
454,184,168705,1,0,0:0:0:0:
475,324,168874,5,0,0:0:0:0:
287,252,169042,1,0,0:0:0:0:
287,252,169211,2,0,L|187:263,1,88
30,148,169548,2,0,L|117:138,1,88
276,52,169885,2,0,L|363:42,1,88
457,149,170222,5,0,0:0:0:0:
275,52,170391,1,0,0:0:0:0:
163,268,170559,5,0,0:0:0:0:
322,224,170728,1,0,0:0:0:0:
121,107,170896,5,0,0:0:0:0:
372,147,171065,1,0,0:0:0:0:
163,268,171233,1,0,0:0:0:0:
338,346,171402,1,0,0:0:0:0:
236,176,171570,5,0,0:0:0:0:
97,323,171739,1,0,0:0:0:0:
129,348,171824,1,0,0:0:0:0:
169,353,171908,1,0,0:0:0:0:
205,337,171992,1,0,0:0:0:0:
236,313,172076,1,0,0:0:0:0:
276,313,172161,1,0,0:0:0:0:
307,337,172245,6,0,P|336:325|389:339,2,58.6666666666667
320,237,172582,2,0,P|332:221|332:169,2,58.6666666666667
236,176,172919,6,0,P|142:187|180:276,1,202.400003860474,0|0,0:0|2:0,0:0:0:0:
365,58,174941,5,0,0:0:0:0:
365,58,175054,1,0,0:0:0:0:
365,58,175166,1,0,0:0:0:0:
365,58,175278,2,0,B|436:28|436:28|411:101,1,117.333333333333,0|0,0:0|2:0,0:0:0:0:
325,41,175615,5,0,0:0:0:0:
374,195,175784,1,0,0:0:0:0:
374,195,175868,1,0,0:0:0:0:
374,195,175952,1,0,0:0:0:0:
217,158,176121,5,0,0:0:0:0:
191,162,176205,1,0,0:0:0:0:
167,167,176290,1,0,0:0:0:0:
338,294,176458,2,0,L|430:308,1,88,0|0,0:0|2:0,0:0:0:0:
163,343,176795,5,0,0:0:0:0:
256,192,176964,12,0,179323,0:0:0:0:
112,162,179660,6,0,L|137:356,1,176
461,273,181071,2,0,L|339:263,1,88
244,125,181777,2,0,L|331:112,1,88
129,59,182483,5,0,0:0:0:0:
129,59,182836,1,0,0:0:0:0:
76,251,183189,1,0,0:0:0:0:
268,204,183542,1,0,0:0:0:0:
256,192,183895,12,0,188130,0:0:0:0:
