osu file format v14

[General]
AudioFilename: Honeyworks - .mp3
AudioLeadIn: 0
PreviewTime: 752
Countdown: 0
SampleSet: Normal
StackLeniency: 0.7
Mode: 1
LetterboxInBreaks: 0
WidescreenStoryboard: 0

[Editor]
DistanceSpacing: 1.1
BeatDivisor: 4
GridSize: 32
TimelineZoom: 1.5

[Metadata]
Title:Kokuhaku Rival Sengen
TitleUnicode:告白ライバル宣言
Artist:Sana
ArtistUnicode:鎖那
Creator:newyams99
Version:Oni
Source:告白予行練習
Tags:confession rival declaration cover utaite vocaloid honeyworks megpoid gumi kokuhaku yokou renshuu reiki lixrei
BeatmapID:765322
BeatmapSetID:331391

[Difficulty]
HPDrainRate:6
CircleSize:5
OverallDifficulty:5
ApproachRate:5
SliderMultiplier:1.4
SliderTickRate:1

[Events]
//Background and Video events
0,0,"BG Kokuhaku.png",0,0
//Break Periods
//Storyboard Layer 0 (Background)
//Storyboard Layer 1 (Fail)
//Storyboard Layer 2 (Pass)
//Storyboard Layer 3 (Foreground)
//Storyboard Sound Samples

[TimingPoints]
843,363.636363636364,4,1,0,80,1,0
843,-133.333333333333,4,1,0,80,0,0
18297,-100,4,1,0,80,0,0
70661,-100,4,1,0,80,0,1
93570,-114.942528735632,4,1,0,80,0,1
93933,-133.333333333333,4,1,0,80,0,0
99752,-100,4,1,0,80,0,0
146297,-100,4,1,0,80,0,1
169206,-114.942528735632,4,1,0,80,0,1
169570,-133.333333333333,4,1,0,80,0,0
175388,-100,4,1,0,80,0,0
198297,-105.263157894737,4,1,0,80,0,0
198388,-111.111111111111,4,1,0,80,0,0
198479,-117.647058823529,4,1,0,80,0,0
198570,-125,4,1,0,80,0,0
198661,-133.333333333333,4,1,0,80,0,0
204479,-100,4,1,0,80,0,1
221752,-114.942528735632,4,1,0,80,0,1
221933,-133.333333333333,4,1,0,80,0,0

[HitObjects]
256,192,843,5,0,0:0:0:0:
256,192,1206,1,0,0:0:0:0:
256,192,1388,1,2,0:0:0:0:
256,192,1570,1,0,0:0:0:0:
256,192,1752,1,2,0:0:0:0:
256,192,1933,1,0,0:0:0:0:
256,192,2115,1,2,0:0:0:0:
256,192,2479,1,0,0:0:0:0:
256,192,2661,1,0,0:0:0:0:
256,192,3024,1,2,0:0:0:0:
256,192,3388,1,0,0:0:0:0:
256,192,3752,1,2,0:0:0:0:
256,192,4115,1,2,0:0:0:0:
256,192,4297,1,0,0:0:0:0:
256,192,4479,1,0,0:0:0:0:
256,192,4661,1,2,0:0:0:0:
256,192,5024,1,2,0:0:0:0:
256,192,5206,1,0,0:0:0:0:
256,192,5570,1,2,0:0:0:0:
256,192,5752,1,0,0:0:0:0:
256,192,5933,1,2,0:0:0:0:
256,192,6115,1,2,0:0:0:0:
256,192,6297,1,0,0:0:0:0:
256,192,6479,1,0,0:0:0:0:
256,192,6661,1,2,0:0:0:0:
256,192,6843,1,2,0:0:0:0:
256,192,7024,1,0,0:0:0:0:
256,192,7388,1,0,0:0:0:0:
256,192,7570,1,2,0:0:0:0:
256,192,7752,1,0,0:0:0:0:
256,192,7933,1,2,0:0:0:0:
256,192,8297,1,0,0:0:0:0:
256,192,8479,1,0,0:0:0:0:
256,192,8843,1,2,0:0:0:0:
256,192,9206,1,0,0:0:0:0:
256,192,9570,1,2,0:0:0:0:
256,192,9933,1,2,0:0:0:0:
256,192,10115,1,0,0:0:0:0:
256,192,10297,1,0,0:0:0:0:
256,192,10479,1,2,0:0:0:0:
256,192,10843,1,0,0:0:0:0:
256,192,11024,1,2,0:0:0:0:
256,192,11388,1,2,0:0:0:0:
256,192,11752,1,2,0:0:0:0:
256,192,11933,1,2,0:0:0:0:
256,192,12115,1,0,0:0:0:0:
256,192,12297,1,0,0:0:0:0:
256,192,12479,1,2,0:0:0:0:
256,192,12843,1,0,0:0:0:0:
256,192,13206,1,2,0:0:0:0:
256,192,13570,1,0,0:0:0:0:
256,192,13933,1,2,0:0:0:0:
256,192,14297,1,2,0:0:0:0:
256,192,14479,1,2,0:0:0:0:
256,192,14661,1,0,0:0:0:0:
256,192,14843,1,2,0:0:0:0:
256,192,15024,1,0,0:0:0:0:
256,192,15388,1,2,0:0:0:0:
256,192,15752,1,0,0:0:0:0:
256,192,16115,1,2,0:0:0:0:
256,192,16479,1,0,0:0:0:0:
256,192,16843,1,2,0:0:0:0:
256,192,17206,1,2,0:0:0:0:
256,192,17388,1,2,0:0:0:0:
256,192,17570,1,0,0:0:0:0:
256,192,18297,1,6,0:0:0:0:
256,192,18661,1,0,0:0:0:0:
256,192,18843,1,2,0:0:0:0:
256,192,19024,1,0,0:0:0:0:
256,192,19206,1,2,0:0:0:0:
256,192,19388,1,0,0:0:0:0:
256,192,19570,1,2,0:0:0:0:
256,192,19933,1,0,0:0:0:0:
256,192,20115,1,0,0:0:0:0:
256,192,20297,1,0,0:0:0:0:
256,192,20388,1,0,0:0:0:0:
256,192,20479,1,2,0:0:0:0:
256,192,20661,1,0,0:0:0:0:
256,192,20752,1,0,0:0:0:0:
256,192,20843,1,2,0:0:0:0:
256,192,20933,1,0,0:0:0:0:
256,192,21024,1,0,0:0:0:0:
256,192,21115,1,0,0:0:0:0:
256,192,21206,1,0,0:0:0:0:
256,192,21570,1,2,0:0:0:0:
256,192,21752,1,0,0:0:0:0:
256,192,21933,1,0,0:0:0:0:
256,192,22115,1,2,0:0:0:0:
256,192,22479,1,0,0:0:0:0:
256,192,22661,1,2,0:0:0:0:
256,192,22843,1,2,0:0:0:0:
256,192,23024,1,0,0:0:0:0:
256,192,23206,1,0,0:0:0:0:
256,192,23297,1,0,0:0:0:0:
256,192,23388,1,0,0:0:0:0:
256,192,23570,1,2,0:0:0:0:
256,192,23752,1,0,0:0:0:0:
256,192,23843,1,0,0:0:0:0:
256,192,23933,1,0,0:0:0:0:
256,192,24115,1,6,0:0:0:0:
256,192,24479,1,0,0:0:0:0:
256,192,24661,1,2,0:0:0:0:
256,192,24843,1,0,0:0:0:0:
256,192,25024,1,2,0:0:0:0:
256,192,25206,1,0,0:0:0:0:
256,192,25388,1,2,0:0:0:0:
256,192,25752,1,0,0:0:0:0:
256,192,25933,1,0,0:0:0:0:
256,192,26115,1,0,0:0:0:0:
256,192,26206,1,0,0:0:0:0:
256,192,26297,1,2,0:0:0:0:
256,192,26479,1,0,0:0:0:0:
256,192,26570,1,0,0:0:0:0:
256,192,26661,1,2,0:0:0:0:
256,192,26752,1,0,0:0:0:0:
256,192,26843,1,0,0:0:0:0:
256,192,26933,1,0,0:0:0:0:
256,192,27024,1,2,0:0:0:0:
256,192,27388,1,0,0:0:0:0:
256,192,27570,1,2,0:0:0:0:
256,192,27752,1,2,0:0:0:0:
256,192,27933,1,0,0:0:0:0:
256,192,28297,1,2,0:0:0:0:
256,192,28479,1,0,0:0:0:0:
256,192,28661,1,2,0:0:0:0:
256,192,28843,1,2,0:0:0:0:
256,192,29024,1,0,0:0:0:0:
256,192,29206,1,0,0:0:0:0:
256,192,29297,1,0,0:0:0:0:
256,192,29388,1,2,0:0:0:0:
256,192,29570,1,0,0:0:0:0:
256,192,29661,1,0,0:0:0:0:
256,192,29752,1,0,0:0:0:0:
256,192,29843,1,0,0:0:0:0:
256,192,29933,1,2,0:0:0:0:
256,192,30297,1,0,0:0:0:0:
256,192,30661,1,0,0:0:0:0:
256,192,31024,1,0,0:0:0:0:
256,192,31388,1,2,0:0:0:0:
256,192,31752,1,0,0:0:0:0:
256,192,32115,1,0,0:0:0:0:
256,192,32297,1,0,0:0:0:0:
256,192,32479,1,2,0:0:0:0:
256,192,32843,1,0,0:0:0:0:
256,192,33206,1,0,0:0:0:0:
256,192,33570,1,0,0:0:0:0:
256,192,33933,1,0,0:0:0:0:
256,192,34297,1,0,0:0:0:0:
256,192,34661,1,0,0:0:0:0:
256,192,35024,1,0,0:0:0:0:
256,192,35388,1,0,0:0:0:0:
256,192,35479,1,0,0:0:0:0:
256,192,35570,1,0,0:0:0:0:
256,192,35661,1,0,0:0:0:0:
256,192,35752,1,2,0:0:0:0:
256,192,36115,1,0,0:0:0:0:
256,192,36479,1,0,0:0:0:0:
256,192,36661,1,2,0:0:0:0:
256,192,36843,1,0,0:0:0:0:
256,192,37024,1,2,0:0:0:0:
256,192,37115,1,2,0:0:0:0:
256,192,37206,1,0,0:0:0:0:
256,192,37388,1,0,0:0:0:0:
256,192,37570,1,2,0:0:0:0:
256,192,37933,1,0,0:0:0:0:
256,192,38115,1,2,0:0:0:0:
256,192,38297,1,0,0:0:0:0:
256,192,38479,1,2,0:0:0:0:
256,192,38570,1,2,0:0:0:0:
256,192,38661,1,0,0:0:0:0:
256,192,39024,1,2,0:0:0:0:
256,192,39388,1,2,0:0:0:0:
256,192,39570,1,2,0:0:0:0:
256,192,39752,1,0,0:0:0:0:
256,192,39933,1,0,0:0:0:0:
256,192,40115,1,2,0:0:0:0:
256,192,40479,1,0,0:0:0:0:
256,192,40661,1,0,0:0:0:0:
256,192,40752,1,0,0:0:0:0:
256,192,40843,1,0,0:0:0:0:
256,192,41024,1,0,0:0:0:0:
256,192,41206,1,0,0:0:0:0:
256,192,41297,1,0,0:0:0:0:
256,192,41388,1,0,0:0:0:0:
256,192,41479,1,0,0:0:0:0:
256,192,41570,1,2,0:0:0:0:
256,192,41933,1,0,0:0:0:0:
256,192,42297,1,2,0:0:0:0:
256,192,42479,1,2,0:0:0:0:
256,192,42661,1,0,0:0:0:0:
256,192,42843,1,2,0:0:0:0:
256,192,42933,1,2,0:0:0:0:
256,192,43024,1,2,0:0:0:0:
256,192,43206,1,0,0:0:0:0:
256,192,43388,1,2,0:0:0:0:
256,192,43570,1,2,0:0:0:0:
256,192,43752,1,2,0:0:0:0:
256,192,43933,1,0,0:0:0:0:
256,192,44024,1,0,0:0:0:0:
256,192,44115,1,0,0:0:0:0:
256,192,44297,1,2,0:0:0:0:
256,192,44479,1,0,0:0:0:0:
256,192,44843,1,2,0:0:0:0:
256,192,45206,1,2,0:0:0:0:
256,192,45388,1,0,0:0:0:0:
256,192,45570,1,2,0:0:0:0:
256,192,45752,1,0,0:0:0:0:
256,192,45933,1,2,0:0:0:0:
256,192,46115,1,2,0:0:0:0:
256,192,46206,1,0,0:0:0:0:
256,192,46297,1,0,0:0:0:0:
256,192,46479,1,0,0:0:0:0:
256,192,46661,1,0,0:0:0:0:
256,192,46843,1,2,0:0:0:0:
256,192,47024,1,2,0:0:0:0:
256,192,47388,1,2,0:0:0:0:
256,192,47570,1,0,0:0:0:0:
256,192,47661,1,0,0:0:0:0:
256,192,47752,1,0,0:0:0:0:
256,192,47933,1,0,0:0:0:0:
256,192,48024,1,0,0:0:0:0:
256,192,48115,1,2,0:0:0:0:
256,192,48297,1,0,0:0:0:0:
256,192,48479,1,2,0:0:0:0:
256,192,48661,1,2,0:0:0:0:
256,192,48752,1,2,0:0:0:0:
256,192,48843,1,0,0:0:0:0:
256,192,49206,1,2,0:0:0:0:
256,192,49388,1,0,0:0:0:0:
256,192,49570,1,0,0:0:0:0:
256,192,49752,1,0,0:0:0:0:
256,192,49933,1,2,0:0:0:0:
256,192,50115,1,2,0:0:0:0:
256,192,50206,1,2,0:0:0:0:
256,192,50297,1,0,0:0:0:0:
256,192,50661,1,2,0:0:0:0:
256,192,50843,1,0,0:0:0:0:
256,192,50933,1,0,0:0:0:0:
256,192,51024,1,2,0:0:0:0:
256,192,51206,1,0,0:0:0:0:
256,192,51388,1,2,0:0:0:0:
256,192,51570,1,2,0:0:0:0:
256,192,51661,1,2,0:0:0:0:
256,192,51752,1,0,0:0:0:0:
256,192,51933,1,2,0:0:0:0:
256,192,52024,1,0,0:0:0:0:
256,192,52115,1,0,0:0:0:0:
256,192,52297,1,0,0:0:0:0:
256,192,52388,1,0,0:0:0:0:
256,192,52479,1,0,0:0:0:0:
256,192,52661,1,0,0:0:0:0:
256,192,52843,1,2,0:0:0:0:
256,192,53024,1,2,0:0:0:0:
256,192,53115,1,2,0:0:0:0:
256,192,53206,1,0,0:0:0:0:
256,192,53479,1,0,0:0:0:0:
256,192,53570,1,2,0:0:0:0:
256,192,53752,1,0,0:0:0:0:
256,192,53933,1,0,0:0:0:0:
256,192,54115,1,0,0:0:0:0:
256,192,54297,1,2,0:0:0:0:
256,192,54479,1,0,0:0:0:0:
256,192,54570,1,0,0:0:0:0:
256,192,54661,1,2,0:0:0:0:
256,192,54933,1,0,0:0:0:0:
256,192,55024,1,2,0:0:0:0:
256,192,55206,1,0,0:0:0:0:
256,192,55388,1,2,0:0:0:0:
256,192,55570,1,0,0:0:0:0:
256,192,55752,1,2,0:0:0:0:
256,192,55933,1,2,0:0:0:0:
256,192,56024,1,2,0:0:0:0:
256,192,56115,1,0,0:0:0:0:
256,192,56388,1,0,0:0:0:0:
256,192,56479,1,2,0:0:0:0:
256,192,56661,1,0,0:0:0:0:
256,192,56843,1,0,0:0:0:0:
256,192,57024,1,0,0:0:0:0:
256,192,57206,1,2,0:0:0:0:
256,192,57570,1,0,0:0:0:0:
256,192,57752,1,2,0:0:0:0:
256,192,57933,1,0,0:0:0:0:
256,192,58115,1,0,0:0:0:0:
256,192,58297,1,0,0:0:0:0:
256,192,58479,1,0,0:0:0:0:
256,192,58570,1,0,0:0:0:0:
256,192,58661,1,0,0:0:0:0:
256,192,58843,1,0,0:0:0:0:
256,192,58933,1,0,0:0:0:0:
256,192,59024,1,2,0:0:0:0:
256,192,59388,1,0,0:0:0:0:
256,192,59752,1,0,0:0:0:0:
256,192,60115,1,0,0:0:0:0:
256,192,60297,1,2,0:0:0:0:
256,192,60479,1,2,0:0:0:0:
256,192,60661,1,2,0:0:0:0:
256,192,60843,1,0,0:0:0:0:
256,192,61024,1,0,0:0:0:0:
256,192,61206,1,2,0:0:0:0:
256,192,61570,1,0,0:0:0:0:
256,192,61752,1,0,0:0:0:0:
256,192,61933,1,2,0:0:0:0:
256,192,62297,1,2,0:0:0:0:
256,192,62661,1,2,0:0:0:0:
256,192,62843,1,0,0:0:0:0:
256,192,62933,1,0,0:0:0:0:
256,192,63024,1,0,0:0:0:0:
256,192,63206,1,0,0:0:0:0:
256,192,63388,1,0,0:0:0:0:
256,192,63752,1,0,0:0:0:0:
256,192,64115,1,0,0:0:0:0:
256,192,64297,1,0,0:0:0:0:
256,192,64479,1,0,0:0:0:0:
256,192,64661,1,0,0:0:0:0:
256,192,64843,1,2,0:0:0:0:
256,192,65206,1,0,0:0:0:0:
256,192,65570,1,0,0:0:0:0:
256,192,65933,1,2,0:0:0:0:
256,192,66115,1,0,0:0:0:0:
256,192,66297,1,2,0:0:0:0:
256,192,66661,1,0,0:0:0:0:
256,192,66843,1,0,0:0:0:0:
256,192,67024,1,2,0:0:0:0:
256,192,67206,1,0,0:0:0:0:
256,192,67388,1,0,0:0:0:0:
256,192,67752,1,2,0:0:0:0:
256,192,68115,1,0,0:0:0:0:
256,192,68297,1,0,0:0:0:0:
256,192,68479,1,0,0:0:0:0:
256,192,68843,1,0,0:0:0:0:
256,192,69024,1,0,0:0:0:0:
256,192,69206,1,0,0:0:0:0:
256,192,69570,1,2,0:0:0:0:
256,192,69933,1,0,0:0:0:0:
256,192,70115,1,2,0:0:0:0:
256,192,70206,1,2,0:0:0:0:
256,192,70297,1,0,0:0:0:0:
256,192,70388,1,0,0:0:0:0:
256,192,70479,1,0,0:0:0:0:
256,192,70570,1,0,0:0:0:0:
256,192,70661,1,6,0:0:0:0:
256,192,70843,1,0,0:0:0:0:
256,192,71024,1,0,0:0:0:0:
256,192,71206,1,2,0:0:0:0:
256,192,71388,1,0,0:0:0:0:
256,192,71570,1,2,0:0:0:0:
256,192,71661,1,2,0:0:0:0:
256,192,71752,1,0,0:0:0:0:
256,192,71933,1,0,0:0:0:0:
256,192,72115,1,2,0:0:0:0:
256,192,72297,1,0,0:0:0:0:
256,192,72479,1,2,0:0:0:0:
256,192,72661,1,0,0:0:0:0:
256,192,72843,1,2,0:0:0:0:
256,192,73024,1,0,0:0:0:0:
256,192,73115,1,0,0:0:0:0:
256,192,73206,1,2,0:0:0:0:
256,192,73388,1,0,0:0:0:0:
256,192,73479,1,0,0:0:0:0:
256,192,73570,1,2,0:0:0:0:
256,192,73933,1,2,0:0:0:0:
256,192,74115,1,0,0:0:0:0:
256,192,74297,1,0,0:0:0:0:
256,192,74479,1,2,0:0:0:0:
256,192,74843,1,0,0:0:0:0:
256,192,75024,1,0,0:0:0:0:
256,192,75206,1,0,0:0:0:0:
256,192,75297,1,0,0:0:0:0:
256,192,75388,1,0,0:0:0:0:
256,192,75570,1,0,0:0:0:0:
256,192,75661,1,0,0:0:0:0:
256,192,75752,1,0,0:0:0:0:
256,192,75933,1,2,0:0:0:0:
256,192,76024,1,0,0:0:0:0:
256,192,76115,1,0,0:0:0:0:
256,192,76206,1,0,0:0:0:0:
256,192,76297,1,0,0:0:0:0:
256,192,76479,1,6,0:0:0:0:
256,192,76843,1,0,0:0:0:0:
256,192,77024,1,2,0:0:0:0:
256,192,77206,1,0,0:0:0:0:
256,192,77388,1,2,0:0:0:0:
256,192,77570,1,0,0:0:0:0:
256,192,77752,1,2,0:0:0:0:
256,192,77933,1,0,0:0:0:0:
256,192,78115,1,0,0:0:0:0:
256,192,78297,1,2,0:0:0:0:
256,192,78479,1,0,0:0:0:0:
256,192,78661,1,2,0:0:0:0:
256,192,78843,1,0,0:0:0:0:
256,192,78933,1,0,0:0:0:0:
256,192,79024,1,2,0:0:0:0:
256,192,79206,1,0,0:0:0:0:
256,192,79297,1,0,0:0:0:0:
256,192,79388,1,2,0:0:0:0:
256,192,79752,1,2,0:0:0:0:
256,192,79933,1,0,0:0:0:0:
256,192,80116,1,0,0:0:0:0:
256,192,80297,1,2,0:0:0:0:
256,192,80661,1,0,0:0:0:0:
256,192,80843,1,0,0:0:0:0:
256,192,81024,1,0,0:0:0:0:
256,192,81206,1,0,0:0:0:0:
256,192,81388,1,0,0:0:0:0:
256,192,81479,1,0,0:0:0:0:
256,192,81570,1,2,0:0:0:0:
256,192,81752,1,2,0:0:0:0:
256,192,81933,1,0,0:0:0:0:
256,192,82024,1,0,0:0:0:0:
256,192,82115,1,0,0:0:0:0:
256,192,82206,1,0,0:0:0:0:
256,192,82297,1,2,0:0:0:0:
256,192,82479,1,0,0:0:0:0:
256,192,82843,1,0,0:0:0:0:
256,192,83024,1,0,0:0:0:0:
256,192,83206,1,2,0:0:0:0:
256,192,83570,1,0,0:0:0:0:
256,192,83752,1,2,0:0:0:0:
256,192,83933,1,0,0:0:0:0:
256,192,84024,1,0,0:0:0:0:
256,192,84115,1,2,0:0:0:0:
256,192,84297,1,0,0:0:0:0:
256,192,84388,1,0,0:0:0:0:
256,192,84479,1,2,0:0:0:0:
256,192,84661,1,0,0:0:0:0:
256,192,84752,1,0,0:0:0:0:
256,192,84843,1,2,0:0:0:0:
256,192,85024,1,0,0:0:0:0:
256,192,85206,1,2,0:0:0:0:
256,192,85388,1,0,0:0:0:0:
256,192,85570,1,2,0:0:0:0:
256,192,85752,1,0,0:0:0:0:
256,192,85933,1,0,0:0:0:0:
256,192,86115,1,2,0:0:0:0:
256,192,86479,1,0,0:0:0:0:
256,192,86661,1,2,0:0:0:0:
256,192,86843,1,0,0:0:0:0:
256,192,87024,1,2,0:0:0:0:
256,192,87206,1,2,0:0:0:0:
256,192,87297,1,2,0:0:0:0:
256,192,87388,1,0,0:0:0:0:
256,192,87570,1,0,0:0:0:0:
256,192,87661,1,0,0:0:0:0:
256,192,87752,1,0,0:0:0:0:
256,192,87933,1,0,0:0:0:0:
256,192,88024,1,0,0:0:0:0:
256,192,88115,1,2,0:0:0:0:
256,192,88479,1,0,0:0:0:0:
256,192,88661,1,0,0:0:0:0:
256,192,88843,1,0,0:0:0:0:
256,192,89024,1,2,0:0:0:0:
256,192,89388,1,2,0:0:0:0:
256,192,89570,1,0,0:0:0:0:
256,192,89752,1,0,0:0:0:0:
256,192,89843,1,0,0:0:0:0:
256,192,89933,1,2,0:0:0:0:
256,192,90115,1,2,0:0:0:0:
256,192,90206,1,2,0:0:0:0:
256,192,90297,1,0,0:0:0:0:
256,192,90479,1,0,0:0:0:0:
256,192,90661,1,6,0:0:0:0:
256,192,91024,1,6,0:0:0:0:
256,192,91388,1,2,0:0:0:0:
256,192,91570,1,0,0:0:0:0:
256,192,91751,1,0,0:0:0:0:
256,192,91933,1,2,0:0:0:0:
256,192,92297,1,0,0:0:0:0:
256,192,92479,1,0,0:0:0:0:
256,192,92661,1,2,0:0:0:0:
256,192,93206,1,2,0:0:0:0:
256,192,93570,1,2,0:0:0:0:
256,192,93933,1,4,0:0:0:0:
256,192,94115,1,4,0:0:0:0:
256,192,94297,1,0,0:0:0:0:
256,192,94661,1,2,0:0:0:0:
256,192,95024,1,0,0:0:0:0:
256,192,95388,1,4,0:0:0:0:
256,192,95570,1,4,0:0:0:0:
256,192,95752,1,2,0:0:0:0:
256,192,95933,1,2,0:0:0:0:
256,192,96115,1,0,0:0:0:0:
256,192,96297,1,2,0:0:0:0:
256,192,96479,1,0,0:0:0:0:
256,192,96843,1,2,0:0:0:0:
256,192,97206,1,0,0:0:0:0:
256,192,97388,1,0,0:0:0:0:
256,192,97479,1,0,0:0:0:0:
256,192,97570,1,2,0:0:0:0:
256,192,97752,1,0,0:0:0:0:
256,192,97933,1,0,0:0:0:0:
256,192,98115,1,0,0:0:0:0:
256,192,98297,1,2,0:0:0:0:
256,192,98479,1,0,0:0:0:0:
256,192,98661,1,2,0:0:0:0:
256,192,98843,1,2,0:0:0:0:
256,192,99024,1,0,0:0:0:0:
256,192,99752,1,6,0:0:0:0:
256,192,99933,1,0,0:0:0:0:
256,192,100024,1,0,0:0:0:0:
256,192,100115,1,2,0:0:0:0:
256,192,100297,1,0,0:0:0:0:
256,192,100388,1,0,0:0:0:0:
256,192,100479,1,2,0:0:0:0:
256,192,100661,1,2,0:0:0:0:
256,192,100843,1,0,0:0:0:0:
256,192,101024,1,2,0:0:0:0:
256,192,101388,1,0,0:0:0:0:
256,192,101479,1,0,0:0:0:0:
256,192,101570,1,0,0:0:0:0:
256,192,101752,1,0,0:0:0:0:
256,192,101843,1,0,0:0:0:0:
256,192,101933,1,2,0:0:0:0:
256,192,102115,1,0,0:0:0:0:
256,192,102206,1,0,0:0:0:0:
256,192,102297,1,2,0:0:0:0:
256,192,102388,1,0,0:0:0:0:
256,192,102479,1,0,0:0:0:0:
256,192,102570,1,0,0:0:0:0:
256,192,102661,1,0,0:0:0:0:
256,192,103024,1,0,0:0:0:0:
256,192,103206,1,2,0:0:0:0:
256,192,103388,1,0,0:0:0:0:
256,192,103570,1,2,0:0:0:0:
256,192,103933,1,0,0:0:0:0:
256,192,104115,1,2,0:0:0:0:
256,192,104297,1,0,0:0:0:0:
256,192,104479,1,2,0:0:0:0:
256,192,104661,1,0,0:0:0:0:
256,192,105024,1,2,0:0:0:0:
256,192,105206,1,0,0:0:0:0:
256,192,105297,1,0,0:0:0:0:
256,192,105388,1,0,0:0:0:0:
256,192,105570,1,6,0:0:0:0:
256,192,105933,1,2,0:0:0:0:
256,192,106115,1,0,0:0:0:0:
256,192,106297,1,0,0:0:0:0:
256,192,106479,1,2,0:0:0:0:
256,192,106661,1,0,0:0:0:0:
256,192,106843,1,2,0:0:0:0:
256,192,107206,1,0,0:0:0:0:
256,192,107297,1,0,0:0:0:0:
256,192,107388,1,0,0:0:0:0:
256,192,107570,1,0,0:0:0:0:
256,192,107661,1,0,0:0:0:0:
256,192,107752,1,2,0:0:0:0:
256,192,107933,1,0,0:0:0:0:
256,192,108024,1,0,0:0:0:0:
256,192,108115,1,2,0:0:0:0:
256,192,108206,1,0,0:0:0:0:
256,192,108297,1,0,0:0:0:0:
256,192,108388,1,0,0:0:0:0:
256,192,108479,1,2,0:0:0:0:
256,192,108843,1,0,0:0:0:0:
256,192,109024,1,2,0:0:0:0:
256,192,109206,1,2,0:0:0:0:
256,192,109388,1,0,0:0:0:0:
256,192,109752,1,0,0:0:0:0:
256,192,109933,1,2,0:0:0:0:
256,192,110115,1,2,0:0:0:0:
256,192,110297,1,2,0:0:0:0:
256,192,110479,1,0,0:0:0:0:
256,192,110661,1,2,0:0:0:0:
256,192,110752,1,0,0:0:0:0:
256,192,110843,1,0,0:0:0:0:
256,192,111024,1,0,0:0:0:0:
256,192,111206,1,0,0:0:0:0:
256,192,111297,1,0,0:0:0:0:
256,192,111388,1,2,0:0:0:0:
256,192,111752,1,0,0:0:0:0:
256,192,111933,1,0,0:0:0:0:
256,192,112024,1,0,0:0:0:0:
256,192,112115,1,2,0:0:0:0:
256,192,112479,1,2,0:0:0:0:
256,192,112661,1,2,0:0:0:0:
256,192,112752,1,2,0:0:0:0:
256,192,112843,1,0,0:0:0:0:
256,192,113024,1,0,0:0:0:0:
256,192,113206,1,0,0:0:0:0:
256,192,113388,1,0,0:0:0:0:
256,192,113479,1,0,0:0:0:0:
256,192,113570,1,2,0:0:0:0:
256,192,113752,1,0,0:0:0:0:
256,192,113843,1,0,0:0:0:0:
256,192,113933,1,2,0:0:0:0:
256,192,114024,1,0,0:0:0:0:
256,192,114115,1,0,0:0:0:0:
256,192,114206,1,0,0:0:0:0:
256,192,114297,1,2,0:0:0:0:
256,192,114661,1,0,0:0:0:0:
256,192,114843,1,0,0:0:0:0:
256,192,114933,1,0,0:0:0:0:
256,192,115024,1,2,0:0:0:0:
256,192,115388,1,0,0:0:0:0:
256,192,115570,1,2,0:0:0:0:
256,192,115661,1,2,0:0:0:0:
256,192,115752,1,0,0:0:0:0:
256,192,115933,1,0,0:0:0:0:
256,192,116024,1,0,0:0:0:0:
256,192,116115,1,0,0:0:0:0:
256,192,116297,1,2,0:0:0:0:
256,192,116388,1,0,0:0:0:0:
256,192,116479,1,2,0:0:0:0:
256,192,116661,1,2,0:0:0:0:
256,192,116843,1,0,0:0:0:0:
256,192,116933,1,0,0:0:0:0:
256,192,117024,1,0,0:0:0:0:
256,192,117115,1,0,0:0:0:0:
256,192,117206,1,2,0:0:0:0:
256,192,117570,1,2,0:0:0:0:
256,192,117752,1,0,0:0:0:0:
256,192,117843,1,0,0:0:0:0:
256,192,117933,1,0,0:0:0:0:
256,192,118115,1,0,0:0:0:0:
256,192,118206,1,0,0:0:0:0:
256,192,118297,1,2,0:0:0:0:
256,192,118479,1,2,0:0:0:0:
256,192,118570,1,0,0:0:0:0:
256,192,118661,1,2,0:0:0:0:
256,192,118843,1,0,0:0:0:0:
256,192,119024,1,0,0:0:0:0:
256,192,119206,1,0,0:0:0:0:
256,192,119297,1,0,0:0:0:0:
256,192,119388,1,0,0:0:0:0:
256,192,119570,1,0,0:0:0:0:
256,192,119661,1,0,0:0:0:0:
256,192,119752,1,2,0:0:0:0:
256,192,119843,1,0,0:0:0:0:
256,192,119933,1,0,0:0:0:0:
256,192,120024,1,0,0:0:0:0:
256,192,120115,1,0,0:0:0:0:
256,192,120297,1,0,0:0:0:0:
256,192,120388,1,0,0:0:0:0:
256,192,120479,1,0,0:0:0:0:
256,192,120661,1,0,0:0:0:0:
256,192,120752,1,0,0:0:0:0:
256,192,120843,1,0,0:0:0:0:
256,192,121024,1,0,0:0:0:0:
256,192,121115,1,0,0:0:0:0:
256,192,121206,1,2,0:0:0:0:
256,192,121388,1,0,0:0:0:0:
256,192,121570,1,0,0:0:0:0:
256,192,121752,1,0,0:0:0:0:
256,192,121933,1,0,0:0:0:0:
256,192,122115,1,0,0:0:0:0:
256,192,122297,1,0,0:0:0:0:
256,192,122479,1,0,0:0:0:0:
256,192,122661,1,0,0:0:0:0:
256,192,122843,1,0,0:0:0:0:
256,192,123024,1,2,0:0:0:0:
256,192,123388,1,0,0:0:0:0:
256,192,123570,1,0,0:0:0:0:
256,192,123661,1,0,0:0:0:0:
256,192,123752,1,2,0:0:0:0:
256,192,123933,1,0,0:0:0:0:
256,192,124115,1,0,0:0:0:0:
256,192,124297,1,2,0:0:0:0:
256,192,124479,1,0,0:0:0:0:
256,192,124843,1,0,0:0:0:0:
256,192,125024,1,0,0:0:0:0:
256,192,125206,1,2,0:0:0:0:
256,192,125297,1,0,0:0:0:0:
256,192,125388,1,0,0:0:0:0:
256,192,125570,1,0,0:0:0:0:
256,192,125752,1,0,0:0:0:0:
256,192,125843,1,0,0:0:0:0:
256,192,125933,1,2,0:0:0:0:
256,192,126297,1,0,0:0:0:0:
256,192,126479,1,0,0:0:0:0:
256,192,126570,1,0,0:0:0:0:
256,192,126661,1,2,0:0:0:0:
256,192,126843,1,2,0:0:0:0:
256,192,126933,1,0,0:0:0:0:
256,192,127024,1,0,0:0:0:0:
256,192,127206,1,0,0:0:0:0:
256,192,127388,1,2,0:0:0:0:
256,192,127570,1,0,0:0:0:0:
256,192,127661,1,0,0:0:0:0:
256,192,127752,1,0,0:0:0:0:
256,192,127933,1,2,0:0:0:0:
256,192,128115,1,0,0:0:0:0:
256,192,128297,1,0,0:0:0:0:
256,192,128388,1,0,0:0:0:0:
256,192,128479,1,0,0:0:0:0:
256,192,128661,1,0,0:0:0:0:
256,192,128752,1,0,0:0:0:0:
256,192,128843,1,2,0:0:0:0:
256,192,129206,1,0,0:0:0:0:
256,192,129388,1,0,0:0:0:0:
256,192,129479,1,0,0:0:0:0:
256,192,129570,1,2,0:0:0:0:
256,192,129752,1,0,0:0:0:0:
256,192,129843,1,0,0:0:0:0:
256,192,129933,1,2,0:0:0:0:
256,192,130115,1,2,0:0:0:0:
256,192,130297,1,2,0:0:0:0:
256,192,130661,1,2,0:0:0:0:
256,192,130843,1,2,0:0:0:0:
256,192,131024,1,0,0:0:0:0:
256,192,131206,1,0,0:0:0:0:
256,192,131297,1,0,0:0:0:0:
256,192,131388,1,0,0:0:0:0:
256,192,131570,1,0,0:0:0:0:
256,192,131752,1,0,0:0:0:0:
256,192,132115,1,0,0:0:0:0:
256,192,132297,1,0,0:0:0:0:
256,192,132388,1,0,0:0:0:0:
256,192,132479,1,2,0:0:0:0:
256,192,132661,1,0,0:0:0:0:
256,192,132843,1,2,0:0:0:0:
256,192,133206,1,0,0:0:0:0:
256,192,133570,1,0,0:0:0:0:
256,192,133752,1,2,0:0:0:0:
256,192,133933,1,0,0:0:0:0:
256,192,134115,1,0,0:0:0:0:
256,192,134297,1,0,0:0:0:0:
256,192,134388,1,0,0:0:0:0:
256,192,134479,1,0,0:0:0:0:
256,192,134570,1,0,0:0:0:0:
256,192,134661,1,2,0:0:0:0:
256,192,135024,1,0,0:0:0:0:
256,192,135388,1,0,0:0:0:0:
256,192,135752,1,0,0:0:0:0:
256,192,135933,1,2,0:0:0:0:
256,192,136115,1,0,0:0:0:0:
256,192,136297,1,0,0:0:0:0:
256,192,136388,1,0,0:0:0:0:
256,192,136479,1,2,0:0:0:0:
256,192,136661,1,2,0:0:0:0:
256,192,136752,1,0,0:0:0:0:
256,192,136843,1,0,0:0:0:0:
256,192,136933,1,0,0:0:0:0:
256,192,137024,1,0,0:0:0:0:
256,192,137206,1,0,0:0:0:0:
256,192,137388,1,0,0:0:0:0:
256,192,137479,1,0,0:0:0:0:
256,192,137570,1,2,0:0:0:0:
256,192,137933,1,0,0:0:0:0:
256,192,138297,1,2,0:0:0:0:
256,192,138479,1,2,0:0:0:0:
256,192,138570,1,0,0:0:0:0:
256,192,138661,1,2,0:0:0:0:
256,192,138843,1,0,0:0:0:0:
256,192,138933,1,0,0:0:0:0:
256,192,139024,1,2,0:0:0:0:
256,192,139206,1,2,0:0:0:0:
256,192,139297,1,2,0:0:0:0:
256,192,139388,1,2,0:0:0:0:
256,192,139570,1,0,0:0:0:0:
256,192,139752,1,2,0:0:0:0:
256,192,139933,1,0,0:0:0:0:
256,192,140115,1,0,0:0:0:0:
256,192,140297,1,0,0:0:0:0:
256,192,140479,1,2,0:0:0:0:
256,192,140843,1,0,0:0:0:0:
256,192,141024,1,0,0:0:0:0:
256,192,141206,1,2,0:0:0:0:
256,192,141570,1,2,0:0:0:0:
256,192,141752,1,0,0:0:0:0:
256,192,141933,1,2,0:0:0:0:
256,192,142297,1,2,0:0:0:0:
256,192,142479,1,0,0:0:0:0:
256,192,142661,1,0,0:0:0:0:
256,192,142843,1,0,0:0:0:0:
256,192,142933,1,0,0:0:0:0:
256,192,143024,1,0,0:0:0:0:
256,192,143206,1,2,0:0:0:0:
256,192,143297,1,0,0:0:0:0:
256,192,143388,1,0,0:0:0:0:
256,192,143752,1,0,0:0:0:0:
256,192,143933,1,0,0:0:0:0:
256,192,144024,1,0,0:0:0:0:
256,192,144115,1,2,0:0:0:0:
256,192,144297,1,2,0:0:0:0:
256,192,144479,1,2,0:0:0:0:
256,192,144661,1,0,0:0:0:0:
256,192,144752,1,0,0:0:0:0:
256,192,144843,1,0,0:0:0:0:
256,192,145206,1,2,0:0:0:0:
256,192,145388,1,0,0:0:0:0:
256,192,145570,1,0,0:0:0:0:
256,192,145661,1,2,0:0:0:0:
256,192,145752,1,2,0:0:0:0:
256,192,145843,1,2,0:0:0:0:
256,192,145933,1,0,0:0:0:0:
256,192,146024,1,0,0:0:0:0:
256,192,146115,1,0,0:0:0:0:
256,192,146206,1,0,0:0:0:0:
256,192,146297,1,6,0:0:0:0:
256,192,146479,1,0,0:0:0:0:
256,192,146661,1,2,0:0:0:0:
256,192,146843,1,0,0:0:0:0:
256,192,146933,1,0,0:0:0:0:
256,192,147024,1,0,0:0:0:0:
256,192,147206,1,2,0:0:0:0:
256,192,147388,1,0,0:0:0:0:
256,192,147570,1,2,0:0:0:0:
256,192,147752,1,0,0:0:0:0:
256,192,147933,1,0,0:0:0:0:
256,192,148115,1,2,0:0:0:0:
256,192,148297,1,0,0:0:0:0:
256,192,148479,1,2,0:0:0:0:
256,192,148661,1,0,0:0:0:0:
256,192,148752,1,0,0:0:0:0:
256,192,148843,1,2,0:0:0:0:
256,192,149024,1,0,0:0:0:0:
256,192,149115,1,0,0:0:0:0:
256,192,149206,1,2,0:0:0:0:
256,192,149388,1,0,0:0:0:0:
256,192,149570,1,2,0:0:0:0:
256,192,149752,1,0,0:0:0:0:
256,192,149933,1,0,0:0:0:0:
256,192,150115,1,2,0:0:0:0:
256,192,150479,1,2,0:0:0:0:
256,192,150570,1,2,0:0:0:0:
256,192,150661,1,0,0:0:0:0:
256,192,150843,1,0,0:0:0:0:
256,192,150933,1,0,0:0:0:0:
256,192,151024,1,0,0:0:0:0:
256,192,151206,1,0,0:0:0:0:
256,192,151297,1,0,0:0:0:0:
256,192,151388,1,2,0:0:0:0:
256,192,151570,1,0,0:0:0:0:
256,192,151661,1,0,0:0:0:0:
256,192,151752,1,2,0:0:0:0:
256,192,151843,1,0,0:0:0:0:
256,192,151933,1,0,0:0:0:0:
256,192,152115,1,6,0:0:0:0:
256,192,152297,1,2,0:0:0:0:
256,192,152479,1,0,0:0:0:0:
256,192,152570,1,0,0:0:0:0:
256,192,152661,1,2,0:0:0:0:
256,192,152752,1,2,0:0:0:0:
256,192,152843,1,0,0:0:0:0:
256,192,153024,1,2,0:0:0:0:
256,192,153206,1,0,0:0:0:0:
256,192,153388,1,2,0:0:0:0:
256,192,153570,1,0,0:0:0:0:
256,192,153752,1,0,0:0:0:0:
256,192,153933,1,2,0:0:0:0:
256,192,154115,1,0,0:0:0:0:
256,192,154297,1,2,0:0:0:0:
256,192,154479,1,0,0:0:0:0:
256,192,154570,1,0,0:0:0:0:
256,192,154661,1,2,0:0:0:0:
256,192,154843,1,0,0:0:0:0:
256,192,154933,1,0,0:0:0:0:
256,192,155024,1,2,0:0:0:0:
256,192,155388,1,2,0:0:0:0:
256,192,155570,1,0,0:0:0:0:
256,192,155752,1,0,0:0:0:0:
256,192,155933,1,2,0:0:0:0:
256,192,156297,1,2,0:0:0:0:
256,192,156388,1,2,0:0:0:0:
256,192,156479,1,0,0:0:0:0:
256,192,156661,1,0,0:0:0:0:
256,192,156752,1,0,0:0:0:0:
256,192,156843,1,2,0:0:0:0:
256,192,157024,1,0,0:0:0:0:
256,192,157115,1,0,0:0:0:0:
256,192,157206,1,0,0:0:0:0:
256,192,157388,1,0,0:0:0:0:
256,192,157479,1,0,0:0:0:0:
256,192,157570,1,0,0:0:0:0:
256,192,157661,1,0,0:0:0:0:
256,192,157752,1,0,0:0:0:0:
256,192,157843,1,0,0:0:0:0:
256,192,157933,1,2,0:0:0:0:
256,192,158115,1,0,0:0:0:0:
256,192,158297,1,0,0:0:0:0:
256,192,158479,1,2,0:0:0:0:
256,192,158661,1,0,0:0:0:0:
256,192,158843,1,2,0:0:0:0:
256,192,159206,1,0,0:0:0:0:
256,192,159388,1,2,0:0:0:0:
256,192,159570,1,0,0:0:0:0:
256,192,159661,1,0,0:0:0:0:
256,192,159752,1,2,0:0:0:0:
256,192,159933,1,0,0:0:0:0:
256,192,160024,1,0,0:0:0:0:
256,192,160115,1,2,0:0:0:0:
256,192,160297,1,0,0:0:0:0:
256,192,160388,1,0,0:0:0:0:
256,192,160479,1,2,0:0:0:0:
256,192,160661,1,0,0:0:0:0:
256,192,160843,1,2,0:0:0:0:
256,192,161024,1,0,0:0:0:0:
256,192,161206,1,2,0:0:0:0:
256,192,161388,1,2,0:0:0:0:
256,192,161479,1,0,0:0:0:0:
256,192,161570,1,0,0:0:0:0:
256,192,161752,1,2,0:0:0:0:
256,192,162115,1,0,0:0:0:0:
256,192,162297,1,2,0:0:0:0:
256,192,162479,1,2,0:0:0:0:
256,192,162661,1,0,0:0:0:0:
256,192,162843,1,2,0:0:0:0:
256,192,162933,1,2,0:0:0:0:
256,192,163024,1,0,0:0:0:0:
256,192,163206,1,2,0:0:0:0:
256,192,163297,1,0,0:0:0:0:
256,192,163388,1,2,0:0:0:0:
256,192,163570,1,0,0:0:0:0:
256,192,163752,1,6,0:0:0:0:
256,192,164115,1,2,0:0:0:0:
256,192,164297,1,0,0:0:0:0:
256,192,164479,1,0,0:0:0:0:
256,192,164661,1,2,0:0:0:0:
256,192,165024,1,0,0:0:0:0:
256,192,165206,1,2,0:0:0:0:
256,192,165388,1,0,0:0:0:0:
256,192,165479,1,0,0:0:0:0:
256,192,165570,1,2,0:0:0:0:
256,192,165752,1,0,0:0:0:0:
256,192,165843,1,0,0:0:0:0:
256,192,165933,1,2,0:0:0:0:
256,192,166115,1,0,0:0:0:0:
256,192,166206,1,0,0:0:0:0:
256,192,166297,1,2,0:0:0:0:
256,192,166479,1,0,0:0:0:0:
256,192,166661,1,2,0:0:0:0:
256,192,167024,1,0,0:0:0:0:
256,192,167206,1,2,0:0:0:0:
256,192,167388,1,2,0:0:0:0:
256,192,167570,1,0,0:0:0:0:
256,192,167933,1,0,0:0:0:0:
256,192,168115,1,2,0:0:0:0:
256,192,168297,1,2,0:0:0:0:
256,192,168479,1,2,0:0:0:0:
256,192,168661,1,0,0:0:0:0:
256,192,168843,1,2,0:0:0:0:
256,192,169206,1,2,0:0:0:0:
256,192,169570,1,4,0:0:0:0:
256,192,169752,1,4,0:0:0:0:
256,192,169933,1,0,0:0:0:0:
256,192,170297,1,2,0:0:0:0:
256,192,170661,1,0,0:0:0:0:
256,192,171024,1,4,0:0:0:0:
256,192,171206,1,4,0:0:0:0:
256,192,171388,1,2,0:0:0:0:
256,192,171570,1,2,0:0:0:0:
256,192,171752,1,0,0:0:0:0:
256,192,171933,1,2,0:0:0:0:
256,192,172115,1,0,0:0:0:0:
256,192,172479,1,2,0:0:0:0:
256,192,172843,1,0,0:0:0:0:
256,192,173206,1,2,0:0:0:0:
256,192,173570,1,0,0:0:0:0:
256,192,173933,1,2,0:0:0:0:
256,192,174297,1,2,0:0:0:0:
256,192,174479,1,2,0:0:0:0:
256,192,174661,1,0,0:0:0:0:
256,192,175388,1,6,0:0:0:0:
256,192,175570,1,2,0:0:0:0:
256,192,175752,1,0,0:0:0:0:
256,192,175933,1,2,0:0:0:0:
256,192,176115,1,0,0:0:0:0:
256,192,176206,1,2,0:0:0:0:
256,192,176297,1,2,0:0:0:0:
256,192,176479,1,0,0:0:0:0:
256,192,176661,1,2,0:0:0:0:
256,192,177024,1,2,0:0:0:0:
256,192,177206,1,0,0:0:0:0:
256,192,177388,1,0,0:0:0:0:
256,192,177570,1,2,0:0:0:0:
256,192,177752,1,0,0:0:0:0:
256,192,177843,1,0,0:0:0:0:
256,192,177933,1,2,0:0:0:0:
256,192,178115,1,0,0:0:0:0:
256,192,178206,1,0,0:0:0:0:
256,192,178297,1,0,0:0:0:0:
256,192,178479,1,0,0:0:0:0:
256,192,178661,1,2,0:0:0:0:
256,192,178843,1,2,0:0:0:0:
256,192,179024,1,0,0:0:0:0:
256,192,179206,1,2,0:0:0:0:
256,192,179570,1,0,0:0:0:0:
256,192,179752,1,2,0:0:0:0:
256,192,179933,1,0,0:0:0:0:
256,192,180115,1,0,0:0:0:0:
256,192,180206,1,0,0:0:0:0:
256,192,180297,1,2,0:0:0:0:
256,192,180479,1,2,0:0:0:0:
256,192,180661,1,0,0:0:0:0:
256,192,180752,1,0,0:0:0:0:
256,192,180843,1,2,0:0:0:0:
256,192,180933,1,0,0:0:0:0:
256,192,181024,1,0,0:0:0:0:
256,192,181115,1,0,0:0:0:0:
256,192,181206,1,2,0:0:0:0:
256,192,181388,1,2,0:0:0:0:
256,192,181570,1,2,0:0:0:0:
256,192,181752,1,2,0:0:0:0:
256,192,181843,1,2,0:0:0:0:
256,192,181933,1,0,0:0:0:0:
256,192,182115,1,2,0:0:0:0:
256,192,182297,1,2,0:0:0:0:
256,192,182388,1,2,0:0:0:0:
256,192,182479,1,0,0:0:0:0:
256,192,182661,1,2,0:0:0:0:
256,192,182843,1,0,0:0:0:0:
256,192,182933,1,2,0:0:0:0:
256,192,183024,1,2,0:0:0:0:
256,192,183206,1,2,0:0:0:0:
256,192,183388,1,2,0:0:0:0:
256,192,183752,1,2,0:0:0:0:
256,192,184115,1,0,0:0:0:0:
256,192,184297,1,0,0:0:0:0:
256,192,184388,1,0,0:0:0:0:
256,192,184479,1,0,0:0:0:0:
256,192,184661,1,2,0:0:0:0:
256,192,184843,1,0,0:0:0:0:
256,192,185024,1,2,0:0:0:0:
256,192,185206,1,2,0:0:0:0:
256,192,185388,1,0,0:0:0:0:
256,192,185570,1,0,0:0:0:0:
256,192,185752,1,2,0:0:0:0:
256,192,185933,1,0,0:0:0:0:
256,192,186115,1,2,0:0:0:0:
256,192,186297,1,2,0:0:0:0:
256,192,186661,1,2,0:0:0:0:
256,192,186752,1,0,0:0:0:0:
256,192,186843,1,0,0:0:0:0:
256,192,187024,1,0,0:0:0:0:
256,192,187388,1,0,0:0:0:0:
256,192,187752,1,0,0:0:0:0:
256,192,187933,1,0,0:0:0:0:
256,192,188115,1,2,0:0:0:0:
256,192,188297,1,0,0:0:0:0:
256,192,188479,1,2,0:0:0:0:
256,192,188661,1,0,0:0:0:0:
256,192,188752,1,0,0:0:0:0:
256,192,188843,1,2,0:0:0:0:
256,192,189024,1,0,0:0:0:0:
256,192,189206,1,0,0:0:0:0:
256,192,189570,1,2,0:0:0:0:
256,192,189752,1,2,0:0:0:0:
256,192,189933,1,0,0:0:0:0:
256,192,190115,1,2,0:0:0:0:
256,192,190297,1,0,0:0:0:0:
256,192,190661,1,0,0:0:0:0:
256,192,190843,1,2,0:0:0:0:
256,192,190933,1,0,0:0:0:0:
256,192,191024,1,2,0:0:0:0:
256,192,191206,1,2,0:0:0:0:
256,192,191388,1,0,0:0:0:0:
256,192,191570,1,2,0:0:0:0:
256,192,191661,1,0,0:0:0:0:
256,192,191752,1,0,0:0:0:0:
256,192,191933,1,0,0:0:0:0:
256,192,192115,1,0,0:0:0:0:
256,192,192297,1,0,0:0:0:0:
256,192,192479,1,0,0:0:0:0:
256,192,192661,1,0,0:0:0:0:
256,192,192843,1,2,0:0:0:0:
256,192,193206,1,2,0:0:0:0:
256,192,193570,1,0,0:0:0:0:
256,192,193752,1,0,0:0:0:0:
256,192,193843,1,0,0:0:0:0:
256,192,193933,1,2,0:0:0:0:
256,192,194115,1,0,0:0:0:0:
256,192,194297,1,2,0:0:0:0:
256,192,194661,1,2,0:0:0:0:
256,192,194843,1,2,0:0:0:0:
256,192,195024,1,0,0:0:0:0:
256,192,195206,1,0,0:0:0:0:
256,192,195297,1,0,0:0:0:0:
256,192,195388,1,0,0:0:0:0:
256,192,195570,1,2,0:0:0:0:
256,192,195752,1,0,0:0:0:0:
256,192,195933,1,0,0:0:0:0:
256,192,196115,1,2,0:0:0:0:
256,192,196479,1,0,0:0:0:0:
256,192,196843,1,2,0:0:0:0:
256,192,197206,1,2,0:0:0:0:
256,192,197327,1,2,0:0:0:0:
256,192,197449,1,2,0:0:0:0:
256,192,197570,1,0,0:0:0:0:
256,192,197752,1,0,0:0:0:0:
256,192,197933,1,0,0:0:0:0:
256,192,198115,1,2,0:0:0:0:
256,192,198297,1,0,0:0:0:0:
256,192,198388,1,0,0:0:0:0:
256,192,198479,1,0,0:0:0:0:
256,192,198570,1,0,0:0:0:0:
256,192,198661,1,2,0:0:0:0:
256,192,198843,1,0,0:0:0:0:
256,192,199024,1,2,0:0:0:0:
256,192,199206,1,0,0:0:0:0:
256,192,199388,1,2,0:0:0:0:
256,192,199570,1,2,0:0:0:0:
256,192,199752,1,0,0:0:0:0:
256,192,199933,1,2,0:0:0:0:
256,192,200297,1,2,0:0:0:0:
256,192,200388,1,2,0:0:0:0:
256,192,200479,1,2,0:0:0:0:
256,192,200661,1,0,0:0:0:0:
256,192,200843,1,2,0:0:0:0:
256,192,201024,1,2,0:0:0:0:
256,192,201115,1,2,0:0:0:0:
256,192,201206,1,2,0:0:0:0:
256,192,201388,1,0,0:0:0:0:
256,192,201570,1,0,0:0:0:0:
256,192,201933,1,2,0:0:0:0:
256,192,202115,1,0,0:0:0:0:
256,192,202297,1,0,0:0:0:0:
256,192,202479,1,2,0:0:0:0:
256,192,202843,1,0,0:0:0:0:
256,192,203024,1,2,0:0:0:0:
256,192,204479,1,6,0:0:0:0:
256,192,204661,1,0,0:0:0:0:
256,192,204843,1,2,0:0:0:0:
256,192,205024,1,0,0:0:0:0:
256,192,205115,1,0,0:0:0:0:
256,192,205206,1,0,0:0:0:0:
256,192,205388,1,2,0:0:0:0:
256,192,205570,1,0,0:0:0:0:
256,192,205752,1,2,0:0:0:0:
256,192,205933,1,0,0:0:0:0:
256,192,206115,1,0,0:0:0:0:
256,192,206206,1,0,0:0:0:0:
256,192,206297,1,0,0:0:0:0:
256,192,206388,1,0,0:0:0:0:
256,192,206479,1,0,0:0:0:0:
256,192,206661,1,2,0:0:0:0:
256,192,206843,1,0,0:0:0:0:
256,192,206933,1,0,0:0:0:0:
256,192,207024,1,2,0:0:0:0:
256,192,207206,1,0,0:0:0:0:
256,192,207297,1,0,0:0:0:0:
256,192,207388,1,0,0:0:0:0:
256,192,207570,1,0,0:0:0:0:
256,192,207752,1,2,0:0:0:0:
256,192,207933,1,2,0:0:0:0:
256,192,208024,1,0,0:0:0:0:
256,192,208115,1,0,0:0:0:0:
256,192,208297,1,2,0:0:0:0:
256,192,208661,1,0,0:0:0:0:
256,192,208752,1,0,0:0:0:0:
256,192,208843,1,2,0:0:0:0:
256,192,209024,1,0,0:0:0:0:
256,192,209115,1,0,0:0:0:0:
256,192,209206,1,2,0:0:0:0:
256,192,209297,1,0,0:0:0:0:
256,192,209388,1,2,0:0:0:0:
256,192,209570,1,2,0:0:0:0:
256,192,209661,1,0,0:0:0:0:
256,192,209752,1,2,0:0:0:0:
256,192,209843,1,0,0:0:0:0:
256,192,209933,1,2,0:0:0:0:
256,192,210024,1,0,0:0:0:0:
256,192,210115,1,0,0:0:0:0:
256,192,210297,1,6,0:0:0:0:
256,192,210479,1,0,0:0:0:0:
256,192,210843,1,0,0:0:0:0:
256,192,211024,1,2,0:0:0:0:
256,192,211206,1,0,0:0:0:0:
256,192,211388,1,0,0:0:0:0:
256,192,211479,1,2,0:0:0:0:
256,192,211570,1,2,0:0:0:0:
256,192,211752,1,0,0:0:0:0:
256,192,211933,1,0,0:0:0:0:
256,192,212024,1,0,0:0:0:0:
256,192,212115,1,2,0:0:0:0:
256,192,212297,1,0,0:0:0:0:
256,192,212388,1,0,0:0:0:0:
256,192,212479,1,2,0:0:0:0:
256,192,212661,1,0,0:0:0:0:
256,192,212752,1,0,0:0:0:0:
256,192,212843,1,2,0:0:0:0:
256,192,213024,1,0,0:0:0:0:
256,192,213115,1,0,0:0:0:0:
256,192,213206,1,2,0:0:0:0:
256,192,213388,1,0,0:0:0:0:
256,192,213570,1,2,0:0:0:0:
256,192,213752,1,0,0:0:0:0:
256,192,213933,1,0,0:0:0:0:
256,192,214115,1,2,0:0:0:0:
256,192,214479,1,0,0:0:0:0:
256,192,214661,1,0,0:0:0:0:
256,192,214843,1,2,0:0:0:0:
256,192,215024,1,0,0:0:0:0:
256,192,215115,1,0,0:0:0:0:
256,192,215206,1,0,0:0:0:0:
256,192,215297,1,0,0:0:0:0:
256,192,215388,1,2,0:0:0:0:
256,192,215479,1,2,0:0:0:0:
256,192,215570,1,2,0:0:0:0:
256,192,215661,1,2,0:0:0:0:
256,192,215752,1,0,0:0:0:0:
256,192,215843,1,0,0:0:0:0:
256,192,215933,1,0,0:0:0:0:
256,192,216024,1,0,0:0:0:0:
256,192,216115,1,2,0:0:0:0:
256,192,216297,1,0,0:0:0:0:
256,192,216479,1,2,0:0:0:0:
256,192,216661,1,0,0:0:0:0:
256,192,216843,1,2,0:0:0:0:
256,192,217024,1,0,0:0:0:0:
256,192,217388,1,0,0:0:0:0:
256,192,217570,1,0,0:0:0:0:
256,192,217752,1,2,0:0:0:0:
256,192,217843,1,2,0:0:0:0:
256,192,217933,1,2,0:0:0:0:
256,192,218115,1,0,0:0:0:0:
256,192,218206,1,0,0:0:0:0:
256,192,218297,1,2,0:0:0:0:
256,192,218479,1,0,0:0:0:0:
256,192,218661,1,6,0:0:0:0:
256,192,219024,1,6,0:0:0:0:
256,192,219570,1,0,0:0:0:0:
256,192,219752,1,2,0:0:0:0:
256,192,219933,1,0,0:0:0:0:
256,192,220297,1,0,0:0:0:0:
256,192,220479,1,2,0:0:0:0:
256,192,220661,1,2,0:0:0:0:
256,192,220843,1,2,0:0:0:0:
256,192,220933,1,2,0:0:0:0:
256,192,221024,1,2,0:0:0:0:
256,192,221115,1,0,0:0:0:0:
256,192,221206,1,2,0:0:0:0:
256,192,221388,1,0,0:0:0:0:
256,192,221570,1,2,0:0:0:0:
256,192,221752,1,0,0:0:0:0:
256,192,221933,1,4,0:0:0:0:
256,192,222115,1,4,0:0:0:0:
256,192,222297,1,0,0:0:0:0:
256,192,222661,1,2,0:0:0:0:
256,192,223024,1,0,0:0:0:0:
256,192,223388,1,4,0:0:0:0:
256,192,223570,1,4,0:0:0:0:
256,192,223752,1,2,0:0:0:0:
256,192,223933,1,2,0:0:0:0:
256,192,224115,1,0,0:0:0:0:
256,192,224297,1,2,0:0:0:0:
256,192,224479,1,0,0:0:0:0:
256,192,224843,1,2,0:0:0:0:
256,192,225206,1,0,0:0:0:0:
256,192,225570,1,2,0:0:0:0:
256,192,225933,1,0,0:0:0:0:
256,192,226297,1,2,0:0:0:0:
256,192,226661,1,2,0:0:0:0:
256,192,226843,1,2,0:0:0:0:
256,192,227024,1,0,0:0:0:0:
