osu file format v14

[General]
AudioFilename: Honeyworks - .mp3
AudioLeadIn: 0
PreviewTime: 752
Countdown: 0
SampleSet: Soft
StackLeniency: 0.7
Mode: 0
LetterboxInBreaks: 0
WidescreenStoryboard: 1

[Editor]
DistanceSpacing: 1
BeatDivisor: 4
GridSize: 4
TimelineZoom: 1.5

[Metadata]
Title:Kokuhaku Rival Sengen
TitleUnicode:告白ライバル宣言
Artist:Sana
ArtistUnicode:鎖那
Creator:newyams99
Version:Normal
Source:告白予行練習
Tags:confession rival declaration cover utaite vocaloid honeyworks megpoid gumi kokuhaku yokou renshuu reiki lixrei
BeatmapID:765317
BeatmapSetID:331391

[Difficulty]
HPDrainRate:4.5
CircleSize:3.5
OverallDifficulty:4
ApproachRate:5
SliderMultiplier:1
SliderTickRate:1

[Events]
//Background and Video events
0,0,"BG Kokuhaku.png",0,0
//Break Periods
2,18497,34552
2,99952,110188
2,198861,203279
//Storyboard Layer 0 (Background)
//Storyboard Layer 1 (Fail)
//Storyboard Layer 2 (Pass)
//Storyboard Layer 3 (Foreground)
//Storyboard Sound Samples

[TimingPoints]
843,363.636363636364,4,2,0,80,1,0
843,-100,4,2,0,80,0,0
12479,-200,4,2,0,80,0,0
13933,-100,4,2,0,80,0,0
70661,-100,4,2,0,80,0,1
93933,-100,4,2,0,80,0,0
146297,-100,4,2,0,80,0,1
169570,-100,4,2,0,80,0,0
204479,-100,4,2,0,80,0,1
221933,-100,4,2,0,80,0,0

[Colours]
Combo1 : 255,255,128
Combo2 : 255,168,255
Combo3 : 0,128,192
Combo4 : 255,0,128

[HitObjects]
148,224,843,6,0,P|184:240|248:224,1,100,2|0,0:0|0:0,0:0:0:0:
320,164,1570,2,0,P|376:140|424:152,1,100,2|0,0:0|0:0,0:0:0:0:
428,244,2297,2,0,B|320:296|320:296|232:268,1,200,2|2,0:0|0:0,0:0:0:0:
156,228,3388,1,2,0:0:0:0:
92,152,3752,2,0,P|124:104|120:64,2,100,2|0|0,0:0|0:0|0:0,0:0:0:0:
92,152,4661,1,2,0:0:0:0:
240,128,5206,2,0,P|288:168|304:212,1,100,2|0,0:0|0:0,0:0:0:0:
204,224,5933,2,0,P|240:284|280:296,1,100,0|2,0:0|0:0,0:0:0:0:
328,216,6661,6,2,P|320:148|332:96,1,100,6|2,0:0|0:0,0:0:0:0:
424,108,7388,2,0,P|440:168|432:224,1,100,2|0,0:0|0:0,0:0:0:0:
344,164,8115,2,0,B|240:148|240:148|156:96,1,200,0|2,0:0|0:0,0:0:0:0:
60,96,9206,1,2,0:0:0:0:
144,148,9570,2,0,P|184:196|176:252,2,100,2|0|0,0:0|0:0|0:0,0:0:0:0:
144,148,10479,1,2,0:0:0:0:
288,108,11024,2,0,P|328:159|316:195,1,100
320,188,11752,2,0,L|376:188,3,50
370,188,12479,6,0,B|336:248|336:248|248:268,1,150
256,265,13933,1,0,0:0:0:0:
92,152,14661,1,0,0:0:0:0:
292,148,15388,6,0,P|336:112|388:108,1,100,2|0,0:0|0:0,0:0:0:0:
428,192,16115,2,0,P|384:224|340:228,1,100,2|0,0:0|0:0,0:0:0:0:
256,192,16843,12,4,18297,0:0:0:0:
160,104,35752,6,0,P|196:160|240:180,1,100,4|2,0:0|0:0,0:0:0:0:
300,112,36479,2,0,P|364:156|364:192,1,100,0|2,0:0|0:0,0:0:0:0:
356,220,37024,1,2,0:0:0:0:
336,264,37206,2,0,P|296:296|248:304,1,100
184,228,37933,5,2,0:0:0:0:
184,228,38115,2,0,P|156:176|112:156,1,100
120,108,38661,2,0,P|192:76|204:44,1,100,2|0,0:0|0:0,0:0:0:0:
300,60,39388,2,0,P|328:100|376:112,1,100,2|0,0:0|0:0,0:0:0:0:
304,184,40115,2,0,B|200:160|200:160|152:192,1,150
163,184,40843,1,0,0:0:0:0:
216,268,41206,1,0,0:0:0:0:
312,240,41570,6,0,P|368:200|372:160,1,100,4|2,0:0|0:0,0:0:0:0:
276,148,42297,2,0,P|220:180|216:228,1,100,2|0,0:0|0:0,0:0:0:0:
188,256,42843,1,2,0:0:0:0:
152,292,43024,2,0,P|96:324|48:312,1,100,2|2,0:0|0:0,0:0:0:0:
48,272,43570,1,0,0:0:0:0:
64,224,43752,2,0,L|104:176,3,50
120,144,44479,6,0,P|152:96|192:80,1,100,0|2,0:0|0:0,0:0:0:0:
288,96,45206,2,0,P|256:148|204:168,1,100,0|2,0:0|0:0,0:0:0:0:
304,224,45933,2,0,P|264:260|212:268,1,100
219,268,46479,1,0,0:0:0:0:
219,268,46661,1,0,0:0:0:0:
156,80,47388,6,0,P|184:132|232:152,1,100,4|2,0:0|0:0,0:0:0:0:
288,76,48115,2,0,P|344:116|352:144,1,100,2|2,0:0|0:0,0:0:0:0:
376,188,48661,1,2,0:0:0:0:
420,216,48843,2,0,P|444:280|480:312,1,100
368,308,49570,1,0,0:0:0:0:
368,308,49752,2,0,P|316:276|260:268,1,100,2|0,0:0|0:0,0:0:0:0:
278,268,50297,6,0,P|196:228|184:208,1,100,0|2,0:0|0:0,0:0:0:0:
176,124,51024,2,0,P|96:84|72:88,1,100,2|0,0:0|0:0,0:0:0:0:
72,184,51752,2,0,B|124:280|124:280|168:292,1,150,2|0,0:0|0:0,0:0:0:0:
163,290,52479,1,0,0:0:0:0:
256,256,52843,1,0,0:0:0:0:
332,192,53206,6,0,P|288:156|232:152,1,100,0|2,0:0|0:0,0:0:0:0:
168,212,53933,2,0,P|92:184|76:164,1,100,0|2,0:0|0:0,0:0:0:0:
64,124,54479,1,2,0:0:0:0:
60,76,54661,2,0,P|100:32|144:24,1,100,2|2,0:0|0:0,0:0:0:0:
188,28,55206,1,0,0:0:0:0:
232,52,55388,2,0,L|284:84,3,50,2|0|0|0,0:0|0:0|0:0|0:0,0:0:0:0:
312,112,56115,6,0,P|344:168|336:200,1,100,0|2,0:0|0:0,0:0:0:0:
236,196,56843,2,0,P|220:264|244:300,1,100,0|2,0:0|0:0,0:0:0:0:
328,320,57570,2,0,P|368:280|416:276,1,100,2|0,0:0|0:0,0:0:0:0:
409,274,58115,1,0,0:0:0:0:
409,274,58297,1,0,0:0:0:0:
396,176,58661,1,0,0:0:0:0:
312,120,59024,6,0,P|248:104|204:116,1,100,4|0,0:0|0:0,0:0:0:0:
248,208,59752,2,0,P|164:228|136:212,1,100,0|2,0:0|0:0,0:0:0:0:
116,192,60297,1,2,0:0:0:0:
88,152,60479,2,0,P|120:104|168:72,1,100,2|0,0:0|0:0,0:0:0:0:
153,78,61024,1,2,0:0:0:0:
153,78,61206,2,0,B|256:68|256:68|348:96,1,200,2|2,0:0|0:0,0:0:0:0:
416,168,62297,5,0,0:0:0:0:
416,268,62661,1,0,0:0:0:0:
316,268,63024,2,0,P|264:304|228:292,1,100
228,244,63570,1,0,0:0:0:0:
216,196,63752,2,0,L|148:172,2,50
212,96,64479,1,0,0:0:0:0:
312,112,64843,6,0,P|356:164|348:208,1,100,4|2,0:0|0:0,0:0:0:0:
256,188,65570,2,0,P|280:256|324:272,1,100,4|2,0:0|0:0,0:0:0:0:
380,204,66297,1,2,0:0:0:0:
428,116,66661,1,2,0:0:0:0:
328,116,67024,1,0,0:0:0:0:
380,32,67388,2,0,P|320:56|284:48,1,100
192,84,68115,6,0,P|144:132|132:176,2,100
292,88,69206,2,0,P|292:160|256:176,1,100,2|0,0:0|0:0,0:0:0:0:
284,272,69933,2,0,P|340:272|384:296,1,100
378,291,70479,1,0,0:0:0:0:
378,291,70661,6,0,P|384:240|344:192,1,100,4|2,0:0|0:0,0:0:0:0:
324,164,71206,2,0,L|272:132,3,50,0|2|2|0,0:0|0:0|0:0|0:0,0:0:0:0:
236,120,71933,2,0,B|144:168|144:168|76:172,1,150,2|0,0:0|0:0,0:0:0:0:
152,256,72843,1,2,0:0:0:0:
252,256,73206,1,0,0:0:0:0:
200,348,73570,1,4,0:0:0:0:
287,307,73933,6,0,P|335:267|355:227,1,100,2|0,0:0|0:0,0:0:0:0:
353,235,74479,1,2,0:0:0:0:
408,152,74843,1,2,0:0:0:0:
408,152,75024,2,0,B|384:104|336:84|336:84,3,100,0|2|0|2,0:0|0:0|0:0|0:0,0:0:0:0:
288,84,76297,1,0,0:0:0:0:
248,116,76479,6,0,P|192:140|140:136,1,100,4|2,0:0|0:0,0:0:0:0:
108,156,77024,2,0,L|64:192,3,50,0|2|2|0,0:0|0:0|0:0|0:0,0:0:0:0:
36,224,77752,2,0,B|96:308|96:308|152:320,1,150,2|0,0:0|0:0,0:0:0:0:
212,244,78661,1,2,0:0:0:0:
268,160,79024,1,2,0:0:0:0:
168,160,79388,1,4,0:0:0:0:
204,68,79752,6,0,P|284:48|312:48,1,100,2|0,0:0|0:0,0:0:0:0:
301,47,80297,1,2,0:0:0:0:
388,96,80661,1,0,0:0:0:0:
388,96,80843,2,0,P|416:156|412:196,1,100
404,236,81388,1,0,0:0:0:0:
376,276,81570,2,0,L|276:312,2,100,0|0|4,0:0|0:0|0:0,0:0:0:0:
204,172,83024,6,0,P|152:144|104:152,1,100
112,248,83752,2,0,P|168:284|208:284,1,100,0|2,0:0|0:0,0:0:0:0:
292,244,84479,2,0,P|328:192|376:172,1,100,0|2,0:0|0:0,0:0:0:0:
460,180,85206,1,4,0:0:0:0:
296,296,85933,6,0,P|232:280|204:248,1,100,2|0,0:0|0:0,0:0:0:0:
168,164,86661,2,0,P|128:104|84:92,1,100,2|0,0:0|0:0,0:0:0:0:
60,120,87206,1,2,0:0:0:0:
28,160,87388,2,0,P|16:220|32:252,2,100,2|2|4,0:0|0:0|0:0,0:0:0:0:
228,136,88843,6,0,P|264:180|264:240,1,100
172,244,89570,2,0,P|208:316|240:324,2,100,2|0|2,0:0|0:0|0:0,0:0:0:0:
168,144,90661,1,4,0:0:0:0:
168,44,91024,1,4,0:0:0:0:
312,80,91570,5,2,0:0:0:0:
312,80,91752,1,0,0:0:0:0:
312,80,91933,2,0,P|344:152|340:180,1,100,2|0,0:0|0:0,0:0:0:0:
320,216,92479,1,0,0:0:0:0:
292,260,92661,2,0,B|252:324|252:324|168:316,1,150
92,264,93570,1,0,0:0:0:0:
176,208,93933,5,4,0:0:0:0:
176,208,94115,1,4,0:0:0:0:
256,192,95388,5,4,0:0:0:0:
256,192,95570,1,4,0:0:0:0:
384,92,96843,6,0,P|376:156|340:176,1,100,2|0,0:0|0:0,0:0:0:0:
260,128,97570,2,0,P|240:188|256:224,1,100,0|2,0:0|0:0,0:0:0:0:
256,192,98297,12,4,99752,0:0:0:0:
368,92,111388,6,0,P|352:160|316:168,1,100,4|2,0:0|0:0,0:0:0:0:
396,244,112115,2,0,P|340:288|304:280,1,100,2|2,0:0|0:0,0:0:0:0:
268,268,112661,1,0,0:0:0:0:
224,240,112843,2,0,P|164:200|120:200,1,100
220,144,113570,5,0,0:0:0:0:
220,144,113752,2,0,P|276:104|316:104,1,100
305,102,114297,2,0,B|336:96|368:136|376:164,2,100,2|0|2,0:0|0:0|0:0,0:0:0:0:
304,204,115388,1,2,0:0:0:0:
212,244,115752,2,0,P|160:236|120:196,1,100
116,104,116479,2,0,P|168:68|220:68,1,100
304,68,117206,6,0,P|356:104|368:148,1,100,4|2,0:0|0:0,0:0:0:0:
284,192,117933,2,0,P|288:248|328:280,1,100,2|2,0:0|0:0,0:0:0:0:
364,296,118479,1,0,0:0:0:0:
412,308,118661,2,0,P|464:264|472:228,1,100,2|2,0:0|0:0,0:0:0:0:
460,188,119206,2,0,L|416:132,3,50,2|0|2|0,0:0|0:0|0:0|0:0,0:0:0:0:
384,124,119933,1,0,0:0:0:0:
336,108,120115,6,0,P|260:112|240:132,3,100,0|2|0|2,0:0|0:0|0:0|0:0,0:0:0:0:
148,152,121570,2,0,B|124:232|124:232|56:272,1,150,2|0,0:0|0:0,0:0:0:0:
66,265,122297,2,0,P|124:296|168:292,1,100
204,204,123024,6,0,P|232:140|264:120,1,100,4|2,0:0|0:0,0:0:0:0:
348,88,123752,2,0,P|376:136|368:184,1,100,2|0,0:0|0:0,0:0:0:0:
336,216,124297,1,2,0:0:0:0:
304,252,124479,2,0,P|248:296|204:288,1,100
240,196,125206,5,2,0:0:0:0:
240,196,125388,2,0,P|248:124|228:92,1,100
236,101,125933,2,0,P|192:72|136:76,1,100,0|2,0:0|0:0,0:0:0:0:
116,168,126661,2,0,P|116:228|80:272,1,100,2|0,0:0|0:0,0:0:0:0:
196,256,127388,2,0,B|304:216|304:216|320:172,1,150,2|0,0:0|0:0,0:0:0:0:
315,183,128115,1,0,0:0:0:0:
216,188,128479,1,0,0:0:0:0:
116,188,128843,6,0,P|76:240|80:280,1,100,4|2,0:0|0:0,0:0:0:0:
156,332,129570,2,0,P|236:312|268:320,1,100,2|2,0:0|0:0,0:0:0:0:
300,308,130115,1,0,0:0:0:0:
348,292,130297,2,0,P|416:264|432:236,1,100,2|2,0:0|0:0,0:0:0:0:
452,200,130843,2,0,L|480:140,3,50,2|2|0|0,0:0|0:0|0:0|0:0,0:0:0:0:
416,72,131752,6,0,P|344:72|304:96,1,100,2|0,0:0|0:0,0:0:0:0:
236,136,132479,2,0,P|172:172|144:164,1,100,2|0,0:0|0:0,0:0:0:0:
224,232,133206,2,0,B|160:292|160:292|140:356,1,150,2|0,0:0|0:0,0:0:0:0:
141,351,133933,1,0,0:0:0:0:
92,264,134297,1,0,0:0:0:0:
92,164,134661,6,0,P|108:96|132:72,1,100,4|2,0:0|0:0,0:0:0:0:
224,100,135388,2,0,P|276:136|324:132,1,100,2|0,0:0|0:0,0:0:0:0:
356,120,135933,1,2,0:0:0:0:
404,112,136115,2,0,P|432:176|420:216,1,100,2|0,0:0|0:0,0:0:0:0:
426,203,136661,1,0,0:0:0:0:
426,203,136843,1,2,0:0:0:0:
232,164,137570,6,0,P|184:200|172:236,2,100,6|0|2,0:0|0:0|0:0,0:0:0:0:
268,132,138479,2,0,L|272:80,3,50,2|0|0|2,0:0|0:0|0:0|0:0,0:0:0:0:
176,56,139388,1,0,0:0:0:0:
176,56,139570,1,0,0:0:0:0:
176,56,139752,2,0,P|120:112|116:136,1,100
100,228,140479,6,0,P|144:248|176:296,1,100,4|2,0:0|0:0,0:0:0:0:
264,244,141206,2,4,P|328:200|340:176,1,100,4|0,0:0|0:0,0:0:0:0:
288,96,141933,1,2,0:0:0:0:
388,96,142297,1,2,0:0:0:0:
336,12,142661,1,0,0:0:0:0:
168,120,143388,6,0,P|120:164|112:200,1,100,4|0,0:0|0:0,0:0:0:0:
52,276,144115,2,0,P|28:232|32:184,1,100,2|0,0:0|0:0,0:0:0:0:
56,140,144661,1,0,0:0:0:0:
80,96,144843,2,0,P|128:64|176:60,2,100,2|0|0,0:0|0:0|0:0,0:0:0:0:
180,88,145933,1,0,0:0:0:0:
180,88,146115,1,0,0:0:0:0:
180,88,146297,6,0,P|232:128|268:128,1,100,4|2,0:0|0:0,0:0:0:0:
308,108,146843,2,0,L|360:72,3,50,0|2|2|0,0:0|0:0|0:0|0:0,0:0:0:0:
392,52,147570,2,0,B|424:104|424:104|396:200,1,150,2|0,0:0|0:0,0:0:0:0:
312,144,148479,1,2,0:0:0:0:
316,244,148843,1,2,0:0:0:0:
228,192,149206,1,4,0:0:0:0:
220,92,149570,6,0,P|168:120|124:116,1,100,2|0,0:0|0:0,0:0:0:0:
128,117,150115,1,2,0:0:0:0:
148,216,150479,1,2,0:0:0:0:
148,216,150661,2,0,P|160:280|200:312,1,100
232,320,151206,1,2,0:0:0:0:
280,316,151388,2,0,L|352:304,3,50,0|2|2|0,0:0|0:0|0:0|0:0,0:0:0:0:
376,284,152115,6,0,P|436:216|436:204,1,100,4|0,0:0|0:0,0:0:0:0:
376,132,152843,2,0,L|332:104,1,50
288,88,153206,1,0,0:0:0:0:
236,92,153388,2,0,B|168:148|168:148|108:136,1,150
200,172,154297,1,2,0:0:0:0:
148,256,154661,1,2,0:0:0:0:
248,260,155024,5,4,0:0:0:0:
320,188,155388,1,2,0:0:0:0:
320,188,155570,1,0,0:0:0:0:
320,188,155752,2,0,L|360:136,1,50,0|2,0:0|0:0,0:0:0:0:
440,192,156297,1,2,0:0:0:0:
440,192,156479,2,0,P|432:248|388:288,1,100
360,300,157024,1,2,0:0:0:0:
312,312,157206,2,0,P|240:320|208:304,2,100,0|2|4,0:0|0:0|0:0,0:0:0:0:
248,236,158297,5,2,0:0:0:0:
248,236,158479,1,0,0:0:0:0:
248,236,158661,2,0,L|208:192,1,50,2|0,0:0|0:0,0:0:0:0:
124,228,159206,2,0,L|124:280,1,50,0|2,0:0|0:0,0:0:0:0:
212,324,159752,2,0,P|296:316|312:304,1,100,2|0,0:0|0:0,0:0:0:0:
304,208,160479,2,0,P|260:192|208:208,1,100,2|4,0:0|0:0,0:0:0:0:
128,80,161388,6,0,L|112:128,2,50,2|0|2,0:0|0:0|0:0,0:0:0:0:
228,80,162115,2,0,L|248:144,2,50,0|2|0,0:0|0:0|0:0,0:0:0:0:
276,60,162661,2,0,P|320:44|376:48,1,100,0|2,0:0|0:0,0:0:0:0:
384,96,163206,1,0,0:0:0:0:
376,148,163388,2,0,P|432:160|480:144,1,100,2|4,0:0|0:0,0:0:0:0:
348,232,164297,5,0,0:0:0:0:
348,232,164479,1,2,0:0:0:0:
348,232,164661,2,0,P|312:288|264:312,1,100
240,324,165206,2,0,L|124:296,2,100,2|0|2,0:0|0:0|0:0,0:0:0:0:
244,224,166297,1,0,0:0:0:0:
244,124,166661,1,4,0:0:0:0:
388,80,167206,5,2,0:0:0:0:
388,80,167388,2,0,L|368:144,1,50,0|2,0:0|0:0,0:0:0:0:
392,224,167933,1,2,0:0:0:0:
356,260,168115,2,0,L|304:296,3,50,0|2|2|0,0:0|0:0|0:0|0:0,0:0:0:0:
268,300,168843,1,2,0:0:0:0:
204,224,169206,1,2,0:0:0:0:
140,300,169570,5,4,0:0:0:0:
140,300,169752,1,4,0:0:0:0:
404,72,171024,5,4,0:0:0:0:
404,72,171206,1,4,0:0:0:0:
68,172,172479,6,0,P|144:244|152:244,1,100,2|0,0:0|0:0,0:0:0:0:
184,156,173206,2,0,P|272:192|280:212,1,100,0|2,0:0|0:0,0:0:0:0:
364,224,173933,1,2,0:0:0:0:
364,224,174297,2,0,L|352:284,2,50,2|2|0,0:0|0:0|0:0,0:0:0:0:
200,108,175388,6,0,P|152:164|152:192,1,100,4|0,0:0|0:0,0:0:0:0:
236,240,176115,1,0,0:0:0:0:
236,240,176297,1,2,0:0:0:0:
236,240,176479,2,0,P|304:220|316:196,1,100
360,108,177206,2,0,P|316:68|268:68,1,100,2|0,0:0|0:0,0:0:0:0:
192,116,177933,2,0,P|140:160|108:152,1,100,2|0,0:0|0:0,0:0:0:0:
88,252,178661,2,0,P|152:292|176:288,1,100,2|0,0:0|0:0,0:0:0:0:
172,289,179206,1,2,0:0:0:0:
240,216,179570,1,0,0:0:0:0:
256,168,179752,2,0,L|276:116,3,50,2|0|0|2,0:0|0:0|0:0|0:0,0:0:0:0:
296,76,180479,2,0,P|360:48|400:56,1,100,2|0,0:0|0:0,0:0:0:0:
420,148,181206,6,0,L|420:220,2,50,2|2|0,0:0|0:0|0:0,0:0:0:0:
368,148,181752,2,0,L|368:76,2,50,2|2|0,0:0|0:0|0:0,0:0:0:0:
316,148,182297,2,0,L|316:204,2,50,2|2|0,0:0|0:0|0:0,0:0:0:0:
264,148,182843,2,0,L|264:88,2,50,2|2|0,0:0|0:0|0:0,0:0:0:0:
212,148,183388,2,0,L|112:148,2,100,2|2|4,0:0|0:0|0:0,0:0:0:0:
100,248,184661,5,2,0:0:0:0:
100,248,184843,1,0,0:0:0:0:
100,248,185024,2,0,P|148:292|184:308,1,100,2|2,0:0|0:0,0:0:0:0:
228,300,185570,2,0,L|288:264,3,50,2|2|0|2,0:0|0:0|0:0|0:0,0:0:0:0:
316,252,186297,2,0,P|372:196|376:172,2,100,2|2|4,0:0|0:0|0:0,0:0:0:0:
168,116,187752,5,0,0:0:0:0:
116,308,188479,2,0,P|180:324|212:308,1,100,2|0,0:0|0:0,0:0:0:0:
248,280,189024,1,0,0:0:0:0:
296,260,189206,2,0,P|352:228|368:192,1,100,2|0,0:0|0:0,0:0:0:0:
340,100,189933,5,4,0:0:0:0:
340,100,190115,1,2,0:0:0:0:
340,100,190297,2,0,P|280:72|248:84,1,100,0|2,0:0|0:0,0:0:0:0:
204,92,190843,1,2,0:0:0:0:
156,108,191024,2,0,P|104:120|48:100,1,100
104,200,191752,2,0,P|116:292|104:312,1,100
208,260,192479,1,0,0:0:0:0:
292,204,192843,6,0,P|352:168|392:164,1,100,4|2,0:0|0:0,0:0:0:0:
416,256,193570,2,0,P|440:188|424:148,1,100,4|2,0:0|0:0,0:0:0:0:
384,76,194297,2,0,P|324:64|272:72,1,100,4|2,0:0|0:0,0:0:0:0:
184,60,195024,1,4,0:0:0:0:
184,60,195752,1,0,0:0:0:0:
304,196,197206,6,0,P|268:256|240:276,2,100,2|2|0,0:0|0:0|0:0,0:0:0:0:
224,136,198297,1,0,0:0:0:0:
224,136,198479,1,0,0:0:0:0:
224,136,198661,1,4,0:0:0:0:
216,80,204479,6,0,P|224:144|212:184,1,100,4|2,0:0|0:0,0:0:0:0:
192,220,205024,2,0,L|168:276,3,50,0|2|2|0,0:0|0:0|0:0|0:0,0:0:0:0:
136,304,205752,2,0,B|92:336|92:336|24:268,1,150,2|0,0:0|0:0,0:0:0:0:
72,180,206661,1,2,0:0:0:0:
132,100,207024,1,2,0:0:0:0:
192,180,207388,1,4,0:0:0:0:
280,128,207752,6,0,L|328:156,1,50,2|0,0:0|0:0,0:0:0:0:
276,168,208115,2,0,L|320:196,1,50,2|0,0:0|0:0,0:0:0:0:
416,224,208661,1,0,0:0:0:0:
416,224,208843,2,0,P|448:148|472:128,1,100,2|0,0:0|0:0,0:0:0:0:
456,88,209388,2,0,L|420:40,3,50,2|2|0|0,0:0|0:0|0:0|0:0,0:0:0:0:
380,32,210115,1,2,0:0:0:0:
332,44,210297,1,4,0:0:0:0:
244,92,210661,6,0,P|164:124|156:120,1,100,0|2,0:0|0:0,0:0:0:0:
120,212,211388,2,0,P|168:224|224:208,1,100
316,216,212115,1,2,0:0:0:0:
392,280,212479,1,0,0:0:0:0:
320,348,212843,1,2,0:0:0:0:
248,280,213206,1,4,0:0:0:0:
196,140,213752,5,0,0:0:0:0:
196,92,213933,2,0,L|196:40,1,50,2|0,0:0|0:0,0:0:0:0:
292,64,214479,1,0,0:0:0:0:
292,64,214661,2,0,L|336:112,3,50,2|0|0|0,0:0|0:0|0:0|0:0,0:0:0:0:
360,136,215388,1,0,0:0:0:0:
460,136,215752,1,0,0:0:0:0:
408,48,216115,1,4,0:0:0:0:
256,52,216661,6,0,L|220:100,2,50,0|2|0,0:0|0:0|0:0,0:0:0:0:
192,128,217388,1,2,0:0:0:0:
148,152,217570,2,0,P|96:232|80:236,2,100,2|2|0,0:0|0:0|0:0,0:0:0:0:
244,176,218661,1,6,0:0:0:0:
244,276,219024,1,6,0:0:0:0:
340,160,219570,5,2,0:0:0:0:
340,160,219752,1,0,0:0:0:0:
340,160,219933,2,0,P|292:108|252:92,1,100,2|0,0:0|0:0,0:0:0:0:
216,88,220479,2,0,L|164:120,3,50,0|2|2|2,0:0|0:0|0:0|0:0,0:0:0:0:
156,160,221206,1,0,0:0:0:0:
104,248,221570,1,0,0:0:0:0:
204,248,221933,5,4,0:0:0:0:
204,248,222115,1,4,0:0:0:0:
368,168,223388,5,4,0:0:0:0:
368,168,223570,1,4,0:0:0:0:
28,88,224843,2,0,P|84:108|128:100,1,100,2|0,0:0|0:0,0:0:0:0:
224,92,225570,2,0,P|272:76|324:84,1,100,0|2,0:0|0:0,0:0:0:0:
384,160,226297,1,2,0:0:0:0:
384,160,226661,2,0,L|364:212,2,50,2|2|0,0:0|0:0|0:0,0:0:0:0:
