osu file format v14

[General]
AudioFilename: Honeyworks - .mp3
AudioLeadIn: 0
PreviewTime: 752
Countdown: 0
SampleSet: Normal
StackLeniency: 0.7
Mode: 1
LetterboxInBreaks: 0
WidescreenStoryboard: 0

[Editor]
DistanceSpacing: 1.1
BeatDivisor: 4
GridSize: 32
TimelineZoom: 1

[Metadata]
Title:Kokuhaku Rival Sengen
TitleUnicode:告白ライバル宣言
Artist:Sana
ArtistUnicode:鎖那
Creator:newyams99
Version:Kantan
Source:告白予行練習
Tags:confession rival declaration cover utaite vocaloid honeyworks megpoid gumi kokuhaku yokou renshuu reiki lixrei
BeatmapID:765320
BeatmapSetID:331391

[Difficulty]
HPDrainRate:3
CircleSize:5
OverallDifficulty:3
ApproachRate:5
SliderMultiplier:1.2
SliderTickRate:1

[Events]
//Background and Video events
0,0,"BG Kokuhaku.png",0,0
//Break Periods
//Storyboard Layer 0 (Background)
//Storyboard Layer 1 (Fail)
//Storyboard Layer 2 (Pass)
//Storyboard Layer 3 (Foreground)
//Storyboard Sound Samples

[TimingPoints]
843,363.636363636364,4,1,0,80,1,0
70661,-100,4,1,0,80,0,1
93933,-100,4,1,0,80,0,0
146297,-100,4,1,0,80,0,1
169570,-100,4,1,0,80,0,0
204479,-100,4,1,0,80,0,1
221933,-100,4,1,0,80,0,0

[HitObjects]
256,192,843,5,0,0:0:0:0:
256,192,2297,1,2,0:0:0:0:
256,192,3752,1,2,0:0:0:0:
256,192,5206,1,0,0:0:0:0:
256,192,5933,1,0,0:0:0:0:
256,192,6661,1,2,0:0:0:0:
256,192,8115,1,0,0:0:0:0:
256,192,9570,1,2,0:0:0:0:
256,192,11024,1,0,0:0:0:0:
256,192,11752,1,0,0:0:0:0:
256,192,12479,1,2,0:0:0:0:
256,192,13933,1,2,0:0:0:0:
256,192,15388,1,2,0:0:0:0:
256,192,16843,1,2,0:0:0:0:
256,192,17570,1,0,0:0:0:0:
256,192,18297,1,6,0:0:0:0:
256,192,19752,1,0,0:0:0:0:
256,192,20479,1,2,0:0:0:0:
256,192,21206,1,0,0:0:0:0:
256,192,22661,1,2,0:0:0:0:
256,192,23388,1,0,0:0:0:0:
256,192,24115,1,6,0:0:0:0:
256,192,25570,1,0,0:0:0:0:
256,192,26297,1,0,0:0:0:0:
256,192,27024,1,2,0:0:0:0:
256,192,28479,1,2,0:0:0:0:
256,192,29206,1,0,0:0:0:0:
256,192,29933,1,2,0:0:0:0:
256,192,31388,1,0,0:0:0:0:
256,192,32843,1,2,0:0:0:0:
256,192,34297,1,0,0:0:0:0:
256,192,35024,1,0,0:0:0:0:
256,192,35752,1,2,0:0:0:0:
256,192,37206,1,0,0:0:0:0:
256,192,38661,1,0,0:0:0:0:
256,192,39388,1,2,0:0:0:0:
256,192,40115,1,2,0:0:0:0:
256,192,40843,1,0,0:0:0:0:
256,192,41570,1,2,0:0:0:0:
256,192,43024,1,2,0:0:0:0:
256,192,44479,1,0,0:0:0:0:
256,192,45206,1,2,0:0:0:0:
256,192,45933,1,0,0:0:0:0:
256,192,46661,1,0,0:0:0:0:
256,192,47388,1,2,0:0:0:0:
256,192,48843,1,0,0:0:0:0:
256,192,50297,1,0,0:0:0:0:
256,192,51024,1,2,0:0:0:0:
256,192,51752,1,2,0:0:0:0:
256,192,52479,1,0,0:0:0:0:
256,192,53206,1,2,0:0:0:0:
256,192,54661,1,2,0:0:0:0:
256,192,56115,1,0,0:0:0:0:
256,192,56843,1,2,0:0:0:0:
256,192,57570,1,0,0:0:0:0:
256,192,58297,1,0,0:0:0:0:
256,192,59024,1,2,0:0:0:0:
256,192,60479,1,0,0:0:0:0:
256,192,61933,1,2,0:0:0:0:
256,192,62661,1,2,0:0:0:0:
256,192,63388,1,0,0:0:0:0:
256,192,64115,1,0,0:0:0:0:
256,192,64843,1,2,0:0:0:0:
256,192,66297,1,2,0:0:0:0:
256,192,67752,1,2,0:0:0:0:
256,192,68479,1,0,0:0:0:0:
256,192,69206,1,0,0:0:0:0:
256,192,69933,1,0,0:0:0:0:
256,192,70661,1,6,0:0:0:0:
256,192,72115,1,0,0:0:0:0:
256,192,72843,1,2,0:0:0:0:
256,192,73570,1,0,0:0:0:0:
256,192,75024,1,0,0:0:0:0:
256,192,75752,1,0,0:0:0:0:
256,192,76479,1,6,0:0:0:0:
256,192,77933,1,0,0:0:0:0:
256,192,78661,1,2,0:0:0:0:
256,192,79388,1,0,0:0:0:0:
256,192,80843,1,0,0:0:0:0:
256,192,81570,1,0,0:0:0:0:
256,192,82297,1,2,0:0:0:0:
256,192,83752,1,0,0:0:0:0:
256,192,84479,1,2,0:0:0:0:
256,192,85206,1,0,0:0:0:0:
256,192,86661,1,2,0:0:0:0:
256,192,87388,1,0,0:0:0:0:
256,192,88115,1,2,0:0:0:0:
256,192,89570,1,0,0:0:0:0:
256,192,90661,1,6,0:0:0:0:
256,192,91024,1,6,0:0:0:0:
256,192,92479,1,0,0:0:0:0:
256,192,93206,1,2,0:0:0:0:
256,192,93933,1,4,0:0:0:0:
256,192,95388,1,4,0:0:0:0:
256,192,96843,1,0,0:0:0:0:
256,192,98297,1,2,0:0:0:0:
256,192,99024,1,0,0:0:0:0:
256,192,99752,1,6,0:0:0:0:
256,192,101206,1,0,0:0:0:0:
256,192,101933,1,2,0:0:0:0:
256,192,102661,1,0,0:0:0:0:
256,192,104115,1,2,0:0:0:0:
256,192,104843,1,0,0:0:0:0:
256,192,105570,1,6,0:0:0:0:
256,192,107024,1,0,0:0:0:0:
256,192,107752,1,0,0:0:0:0:
256,192,108479,1,2,0:0:0:0:
256,192,109933,1,2,0:0:0:0:
256,192,110661,1,0,0:0:0:0:
256,192,111388,1,2,0:0:0:0:
256,192,112843,1,0,0:0:0:0:
256,192,114297,1,0,0:0:0:0:
256,192,115024,1,2,0:0:0:0:
256,192,115752,1,2,0:0:0:0:
256,192,116479,1,0,0:0:0:0:
256,192,117206,1,2,0:0:0:0:
256,192,118661,1,2,0:0:0:0:
256,192,120115,1,0,0:0:0:0:
256,192,120843,1,2,0:0:0:0:
256,192,121570,1,0,0:0:0:0:
256,192,122297,1,0,0:0:0:0:
256,192,123024,1,2,0:0:0:0:
256,192,124479,1,0,0:0:0:0:
256,192,125933,1,0,0:0:0:0:
256,192,126661,1,2,0:0:0:0:
256,192,127388,1,2,0:0:0:0:
256,192,128115,1,0,0:0:0:0:
256,192,128843,1,2,0:0:0:0:
256,192,130297,1,2,0:0:0:0:
256,192,131752,1,0,0:0:0:0:
256,192,132479,1,2,0:0:0:0:
256,192,133206,1,0,0:0:0:0:
256,192,133933,1,0,0:0:0:0:
256,192,134661,1,2,0:0:0:0:
256,192,136115,1,0,0:0:0:0:
256,192,137570,1,2,0:0:0:0:
256,192,138297,1,2,0:0:0:0:
256,192,139024,1,0,0:0:0:0:
256,192,139752,1,0,0:0:0:0:
256,192,140479,1,2,0:0:0:0:
256,192,141933,1,2,0:0:0:0:
256,192,143388,1,2,0:0:0:0:
256,192,144115,1,0,0:0:0:0:
256,192,144843,1,0,0:0:0:0:
256,192,145570,1,0,0:0:0:0:
256,192,146297,1,6,0:0:0:0:
256,192,147752,1,0,0:0:0:0:
256,192,148479,1,2,0:0:0:0:
256,192,149206,1,0,0:0:0:0:
256,192,150661,1,0,0:0:0:0:
256,192,151388,1,0,0:0:0:0:
256,192,152115,1,6,0:0:0:0:
256,192,153570,1,0,0:0:0:0:
256,192,154297,1,2,0:0:0:0:
256,192,155024,1,0,0:0:0:0:
256,192,156479,1,2,0:0:0:0:
256,192,157206,1,0,0:0:0:0:
256,192,157933,1,2,0:0:0:0:
256,192,159388,1,0,0:0:0:0:
256,192,160115,1,2,0:0:0:0:
256,192,160843,1,0,0:0:0:0:
256,192,162297,1,0,0:0:0:0:
256,192,163024,1,0,0:0:0:0:
256,192,163752,1,6,0:0:0:0:
256,192,165206,1,2,0:0:0:0:
256,192,166661,1,0,0:0:0:0:
256,192,167388,1,2,0:0:0:0:
256,192,168115,1,0,0:0:0:0:
256,192,168479,1,0,0:0:0:0:
256,192,168843,1,2,0:0:0:0:
256,192,169570,1,4,0:0:0:0:
256,192,171024,1,4,0:0:0:0:
256,192,172479,1,2,0:0:0:0:
256,192,173933,1,2,0:0:0:0:
256,192,174661,1,0,0:0:0:0:
256,192,175388,1,6,0:0:0:0:
256,192,176843,1,0,0:0:0:0:
256,192,177570,1,2,0:0:0:0:
256,192,178297,1,0,0:0:0:0:
256,192,179752,1,2,0:0:0:0:
256,192,180479,1,0,0:0:0:0:
256,192,181206,1,6,0:0:0:0:
256,192,182661,1,0,0:0:0:0:
256,192,183388,1,2,0:0:0:0:
256,192,183752,1,2,0:0:0:0:
256,192,184115,1,0,0:0:0:0:
256,192,185570,1,0,0:0:0:0:
256,192,186297,1,2,0:0:0:0:
256,192,186661,1,2,0:0:0:0:
256,192,187024,1,0,0:0:0:0:
256,192,188479,1,0,0:0:0:0:
256,192,189206,1,2,0:0:0:0:
256,192,189933,1,2,0:0:0:0:
256,192,191388,1,0,0:0:0:0:
256,192,192115,1,0,0:0:0:0:
256,192,192843,1,2,0:0:0:0:
256,192,194297,1,2,0:0:0:0:
256,192,195024,1,2,0:0:0:0:
256,192,195752,1,0,0:0:0:0:
256,192,197206,1,2,0:0:0:0:
256,192,197933,1,0,0:0:0:0:
256,192,198661,1,2,0:0:0:0:
256,192,200115,1,2,0:0:0:0:
256,192,201570,1,2,0:0:0:0:
256,192,202297,1,0,0:0:0:0:
256,192,203024,1,2,0:0:0:0:
256,192,204479,1,6,0:0:0:0:
256,192,205933,1,0,0:0:0:0:
256,192,206661,1,2,0:0:0:0:
256,192,207388,1,0,0:0:0:0:
256,192,208843,1,0,0:0:0:0:
256,192,209570,1,0,0:0:0:0:
256,192,210297,1,6,0:0:0:0:
256,192,211752,1,0,0:0:0:0:
256,192,212479,1,2,0:0:0:0:
256,192,212843,1,2,0:0:0:0:
256,192,213206,1,0,0:0:0:0:
256,192,214661,1,0,0:0:0:0:
256,192,215388,1,2,0:0:0:0:
256,192,216115,1,0,0:0:0:0:
256,192,217570,1,2,0:0:0:0:
256,192,218661,1,6,0:0:0:0:
256,192,219024,1,6,0:0:0:0:
256,192,219752,1,0,0:0:0:0:
256,192,220479,1,2,0:0:0:0:
256,192,221206,1,2,0:0:0:0:
256,192,221570,1,2,0:0:0:0:
256,192,221933,1,4,0:0:0:0:
256,192,223388,1,4,0:0:0:0:
256,192,224843,1,2,0:0:0:0:
256,192,226297,1,2,0:0:0:0:
256,192,227024,1,0,0:0:0:0:
