osu file format v14

[General]
AudioFilename: Sana.mp3
AudioLeadIn: 0
PreviewTime: 64529
Countdown: 0
SampleSet: Soft
StackLeniency: 0.7
Mode: 0
LetterboxInBreaks: 0
WidescreenStoryboard: 0

[Editor]
DistanceSpacing: 0.6
BeatDivisor: 4
GridSize: 4
TimelineZoom: 1.9

[Metadata]
Title:Byoumei Koiwazurai
TitleUnicode:病名恋ワズライ
Artist:Sana
ArtistUnicode:鎖那
Creator:[ Joey ]
Version:Lovesick
Source:
Tags:Vocaloid Megpoid GUMI HoneyWorks utaite Lovesickness
BeatmapID:516322
BeatmapSetID:220636

[Difficulty]
HPDrainRate:7
CircleSize:4
OverallDifficulty:8
ApproachRate:9
SliderMultiplier:1.8
SliderTickRate:1

[Events]
//Background and Video events
Video,0,"video.avi"
0,0,"BG.jpg",0,0
//Break Periods
2,106729,116429
2,190529,195179
//Storyboard Layer 0 (Background)
//Storyboard Layer 1 (Fail)
//Storyboard Layer 2 (Pass)
//Storyboard Layer 3 (Foreground)
//Storyboard Sound Samples

[TimingPoints]
10529,375,4,1,0,100,1,0
11841,-100,4,2,0,40,0,0
13529,-100,4,2,1,75,0,0
25529,-111.111111111111,4,2,1,60,0,0
37529,-111.111111111111,4,2,1,65,0,0
49529,-111.111111111111,4,2,1,55,0,0
54216,-111.111111111111,4,2,1,50,0,0
54404,-111.111111111111,4,2,1,55,0,0
54591,-111.111111111111,4,2,1,60,0,0
54779,-111.111111111111,4,2,1,65,0,0
54966,-111.111111111111,4,2,1,70,0,0
55154,-111.111111111111,4,2,1,75,0,0
55341,-111.111111111111,4,2,1,55,0,0
55529,-111.111111111111,4,2,1,70,0,0
55810,-111.111111111111,4,2,1,45,0,0
58529,-111.111111111111,4,2,1,50,0,0
61904,-111.111111111111,4,2,1,40,0,0
62279,-111.111111111111,4,2,1,45,0,0
62654,-111.111111111111,4,2,1,50,0,0
63029,-111.111111111111,4,2,1,55,0,0
63404,-111.111111111111,4,2,1,60,0,0
63779,-111.111111111111,4,2,1,65,0,0
64154,-111.111111111111,4,2,1,70,0,0
64529,-100,4,2,1,75,0,1
76482,-100,4,2,1,75,0,0
76529,-100,4,2,1,75,0,1
87779,-100,4,2,1,80,0,1
88529,-200,4,2,1,85,0,0
89279,-200,4,2,1,50,0,0
89654,-166.666666666667,4,2,0,50,0,0
91529,-100,4,2,1,70,0,0
91904,-100,4,2,1,40,0,0
92279,-100,4,2,1,45,0,0
92654,-100,4,2,1,50,0,0
93029,-100,4,2,1,55,0,0
93404,-100,4,2,1,60,0,0
93779,-100,4,2,1,65,0,0
94154,-100,4,2,1,70,0,0
94529,-200,4,2,1,40,0,0
94810,-200,4,2,1,5,0,0
94904,-100,4,2,1,75,0,0
117029,-133.333333333333,4,2,1,40,0,0
118529,-111.111111111111,4,2,1,60,0,0
130529,-111.111111111111,4,2,1,55,0,0
142904,-111.111111111111,4,2,1,40,0,0
143279,-111.111111111111,4,2,1,45,0,0
143654,-111.111111111111,4,2,1,50,0,0
144029,-111.111111111111,4,2,1,55,0,0
144404,-111.111111111111,4,2,1,60,0,0
144779,-111.111111111111,4,2,1,65,0,0
145154,-111.111111111111,4,2,1,70,0,0
145529,-100,4,2,1,70,0,1
157482,-100,4,2,1,70,0,0
157529,-100,4,2,1,70,0,1
169529,-200,4,2,1,70,0,0
170654,-166.666666666667,4,2,1,40,0,0
172154,-166.666666666667,4,2,1,45,0,0
172529,-133.333333333333,4,2,1,50,0,0
184529,-166.666666666667,4,2,0,35,0,0
195779,-111.111111111111,4,2,1,60,0,0
196529,-133.333333333333,4,2,1,50,0,0
201029,-200,4,2,0,30,0,0
202529,-100,4,2,1,70,0,1
214482,-100,4,2,1,70,0,0
214529,-100,4,2,1,70,0,1
226529,-200,4,2,1,70,0,0
227279,-200,4,2,1,20,0,0
229529,-100,4,2,1,70,0,0
241529,-100,4,2,1,60,0,0

[Colours]
Combo1 : 0,128,255
Combo2 : 255,128,255
Combo3 : 125,190,255
Combo4 : 255,0,128

[HitObjects]
256,192,11841,12,0,13154,0:0:0:0:
339,252,13529,6,0,P|318:181|351:103,1,135,6|2,0:0|0:0,0:0:0:0:
407,98,13904,2,0,P|372:57|299:59,1,90,8|2,0:0|0:0,0:0:0:0:
227,126,14279,1,0,0:0:0:0:
425,185,14466,1,2,0:0:0:0:
264,299,14654,2,0,P|248:251|260:209,1,90,8|0,0:0|0:0,0:0:0:0:
178,320,15029,6,0,B|138:343|138:343|32:353,1,135,2|2,0:0|0:0,0:0:0:0:
23,344,15404,1,8,0:0:0:0:
87,211,15591,2,0,L|188:221,2,90,2|0|2,0:0|0:0|0:0,0:0:0:0:
178,320,16154,1,8,0:0:0:0:
266,192,16341,1,0,0:0:0:0:
272,165,16435,1,0,0:0:0:0:
271,137,16529,6,0,P|251:73|226:50,1,90,2|0,0:0|0:0,0:0:0:0:
112,98,16904,1,8,0:0:0:0:
219,244,17091,2,0,L|327:240,1,90,2|0,0:0|0:0,0:0:0:0:
483,139,17466,5,2,0:0:0:0:
366,160,17654,1,8,0:0:0:0:
444,249,17841,1,0,0:0:0:0:
354,44,18029,6,0,L|208:36,1,135,2|2,0:0|0:0,0:0:0:0:
170,77,18404,2,0,L|266:82,1,90,8|2,0:0|0:0,0:0:0:0:
272,105,18685,1,0,0:0:0:0:
282,129,18779,2,0,P|291:177|280:235,1,90,0|2,0:0|0:0,0:0:0:0:
220,352,19154,1,8,0:0:0:0:
75,256,19341,1,0,0:0:0:0:
75,256,19435,1,0,0:0:0:0:
75,256,19529,6,0,B|131:256|131:256|156:266|156:266|212:266,1,135,6|2,0:0|0:0,0:0:0:0:
182,149,19904,2,0,B|154:189|154:189|147:241,1,90,8|2,0:0|0:0,0:0:0:0:
260,350,20279,1,0,0:0:0:0:
349,218,20466,2,0,P|296:226|249:251,2,90,2|8|0,0:0|0:0|0:0,0:0:0:0:
182,148,21029,6,0,L|18:127,1,135,2|2,0:0|0:0,0:0:0:0:
32,108,21404,1,8,0:0:0:0:
132,228,21591,2,0,L|237:241,2,90,2|0|2,0:0|0:0|0:0,0:0:0:0:
107,240,22060,1,0,0:0:0:0:
107,240,22154,1,8,0:0:0:0:
284,162,22341,1,0,0:0:0:0:
286,349,22529,6,0,P|236:300|223:222,1,135,2|2,0:0|0:0,0:0:0:0:
221,212,22904,1,8,0:0:0:0:
368,136,23091,2,0,L|470:150,1,90,2|0,0:0|0:0,0:0:0:0:
329,240,23466,1,2,0:0:0:0:
182,315,23654,1,8,0:0:0:0:
345,257,23841,1,0,0:0:0:0:
272,115,24029,6,0,P|269:36|280:-2,1,90,8|0,0:0|0:0,0:0:0:0:
272,115,24310,6,0,P|268:175|249:227,1,90,8|0,0:0|0:0,0:0:0:0:
182,114,24591,6,0,L|282:115,1,90,8|8,0:0|0:0,0:0:0:0:
296,125,24872,1,8,0:0:0:0:
319,139,24966,1,8,0:0:0:0:
339,156,25060,1,8,0:0:0:0:
362,170,25154,2,0,L|429:168,2,45,8|8|8,0:3|0:3|0:3,0:0:0:0:
226,269,25529,6,0,P|169:268|114:321,1,121.499996292114,4|2,0:0|0:0,0:0:0:0:
109,328,25904,1,8,0:0:0:0:
208,168,26091,2,0,P|125:178|50:238,1,161.999995056153,2|2,0:0|0:0,0:0:0:0:
17,75,26654,2,0,L|117:113,1,80.9999975280763,8|0,0:0|0:0,0:0:0:0:
296,211,27029,6,0,P|304:129|256:83,1,121.499996292114,2|2,0:0|0:0,0:0:0:0:
290,73,27404,1,8,0:0:0:0:
208,168,27591,1,2,0:0:0:0:
296,211,27779,1,0,0:0:0:0:
206,84,27966,1,2,0:0:0:0:
114,195,28154,1,8,0:0:0:0:
266,297,28341,1,0,0:0:0:0:
266,297,28435,1,0,0:0:0:0:
266,297,28529,6,0,P|319:301|376:243,1,121.499996292114,2|2,0:0|0:0,0:0:0:0:
458,202,28904,2,0,P|418:224|399:260,1,80.9999975280763,8|2,0:0|0:0,0:0:0:0:
424,363,29279,1,0,0:0:0:0:
295,217,29466,2,0,L|185:217,1,80.9999975280763,2|8,0:0|0:0,0:0:0:0:
139,296,29841,1,0,0:0:0:0:
31,131,30029,6,0,P|91:143|155:128,1,121.499996292114,2|2,0:0|0:0,0:0:0:0:
159,37,30404,2,0,L|175:127,1,80.9999975280763,8|2,0:0|0:0,0:0:0:0:
198,210,30779,1,0,0:0:0:0:
287,247,30966,1,2,0:0:0:0:
376,286,31154,1,8,0:0:0:0:
463,328,31341,1,0,0:0:0:0:
438,189,31529,6,0,L|266:255,1,161.999995056153,6|8,0:0|0:0,0:0:0:0:
278,148,32091,1,0,0:0:0:0:
376,302,32279,2,0,L|376:391,1,80.9999975280763,2|0,0:0|0:0,0:0:0:0:
286,247,32654,1,8,0:0:0:0:
438,189,32841,1,0,0:0:0:0:
299,325,33029,6,0,P|236:309|213:271,1,80.9999975280763,2|0,0:0|0:0,0:0:0:0:
278,148,33404,1,8,0:0:0:0:
227,299,33591,1,0,0:0:0:0:
189,207,33779,1,2,0:0:0:0:
113,357,33966,1,0,0:0:0:0:
203,384,34154,1,8,0:0:0:0:
71,283,34341,1,0,0:0:0:0:
40,99,34529,6,0,L|221:121,1,161.999995056153,2|8,0:0|0:0,0:0:0:0:
60,23,35091,2,0,P|42:60|42:107,1,80.9999975280763,0|2,0:0|0:0,0:0:0:0:
71,283,35466,2,0,P|89:246|89:199,1,80.9999975280763,0|8,0:0|0:0,0:0:0:0:
0,222,35841,1,0,0:0:0:0:
189,208,36029,6,0,B|252:199|252:199|289:202|289:202|364:193,1,161.999995056153,2|8,0:0|0:0,0:0:0:0:
435,21,36591,1,0,0:0:0:0:
435,21,36685,1,0,0:0:0:0:
435,21,36779,1,2,0:0:0:0:
395,109,36966,1,0,0:0:0:0:
350,195,37154,1,8,0:0:0:0:
304,280,37341,1,0,0:0:0:0:
489,243,37529,6,0,L|352:197,1,121.499996292114,6|0,0:0|0:0,0:0:0:0:
351,195,37904,1,8,0:0:0:0:
368,376,38091,2,0,P|394:331|402:294,1,80.9999975280763,2|0,0:0|0:0,0:0:0:0:
351,195,38466,1,2,0:0:0:0:
489,243,38654,1,8,0:0:0:0:
304,280,38841,1,0,0:0:0:0:
337,111,39029,6,0,P|405:127|430:206,1,121.499996292114,2|2,0:0|0:0,0:0:0:0:
429,192,39404,1,8,0:0:0:0:
351,195,39591,1,2,0:0:0:0:
489,243,39779,1,0,0:0:0:0:
315,283,39966,1,2,0:0:0:0:
411,116,40154,1,8,0:0:0:0:
416,318,40341,1,0,0:0:0:0:
260,204,40529,6,0,P|203:197|153:222,1,80.9999975280763,2|0,0:0|0:0,0:0:0:0:
162,219,40810,1,2,0:0:0:0:
147,238,40904,1,8,0:0:0:0:
72,360,41091,2,0,L|176:352,1,80.9999975280763,2|0,0:0|0:0,0:0:0:0:
368,224,41466,1,2,0:0:0:0:
280,356,41654,1,8,0:0:0:0:
368,224,41841,1,0,0:0:0:0:
148,238,42029,6,0,L|-4:254,1,121.499996292114,2|2,0:0|0:0,0:0:0:0:
3,256,42404,1,8,0:0:0:0:
26,61,42591,2,0,P|92:52|167:124,1,161.999995056153,2|2,0:0|0:0,0:0:0:0:
282,182,43154,1,8,0:0:0:0:
76,223,43341,1,0,0:0:0:0:
157,58,43529,6,0,L|265:75,1,80.9999975280763,6|0,0:0|0:0,0:0:0:0:
248,91,43810,1,2,0:0:0:0:
259,112,43904,1,8,0:0:0:0:
386,74,44091,2,0,P|409:132|379:227,1,161.999995056153,2|2,0:0|0:0,0:0:0:0:
193,318,44654,1,8,0:0:0:0:
193,318,45029,6,0,L|319:285,1,121.499996292114,2|2,0:0|0:0,0:0:0:0:
402,304,45404,2,0,L|308:329,1,80.9999975280763,8|2,0:0|0:0,0:0:0:0:
253,176,45779,2,0,P|251:110|317:28,1,161.999995056153,2|8,0:0|0:0,0:0:0:0:
482,70,46341,1,0,0:0:0:0:
483,93,46435,1,0,0:0:0:0:
480,114,46529,6,0,P|456:170|393:201,1,121.499996292114,2|2,0:0|0:0,0:0:0:0:
381,205,46904,1,8,0:0:0:0:
189,294,47091,2,0,L|351:294,1,161.999995056153,2|2,0:0|0:0,0:0:0:0:
272,376,47654,1,8,0:0:0:0:
328,209,47841,1,0,0:0:0:0:
128,236,48029,6,0,P|109:270|148:365,1,121.499996292114,2|2,0:0|0:0,0:0:0:0:
143,365,48404,1,8,0:0:0:0:
272,376,48591,1,2,0:0:0:0:
190,295,48779,1,0,0:0:0:0:
107,217,48966,1,2,0:0:0:0:
21,141,49154,1,8,0:0:0:0:
5,251,49341,1,0,0:0:0:0:
196,213,49529,6,0,L|297:213,1,80.9999975280763,6|0,0:0|0:0,0:0:0:0:
262,41,49904,2,0,L|240:119,1,80.9999975280763,8|0,0:0|0:0,0:0:0:0:
107,217,50279,2,0,L|107:134,1,80.9999975280763,2|0,0:0|0:0,0:0:0:0:
277,213,50654,2,0,L|302:291,1,80.9999975280763,8|0,0:0|0:0,0:0:0:0:
107,217,51029,5,2,0:0:0:0:
302,289,51216,1,0,0:0:0:0:
171,339,51404,1,8,0:0:0:0:
173,160,51591,1,0,0:0:0:0:
10,250,51779,2,0,P|3:207|19:162,1,80.9999975280763,2|0,0:0|0:0,0:0:0:0:
177,79,52154,1,12,0:0:0:0:
176,79,52529,6,0,L|172:171,1,80.9999975280763,2|0,0:0|0:0,0:0:0:0:
124,303,52904,1,8,0:0:0:0:
139,284,52997,1,2,0:0:0:0:
157,268,53091,1,2,0:0:0:0:
177,255,53185,1,8,0:0:0:0:
201,250,53279,2,0,P|245:221|270:180,1,80.9999975280763,2|2,0:0|0:0,0:0:0:0:
124,158,53654,1,8,0:0:0:0:
208,338,53841,1,2,0:0:0:0:
208,338,53935,1,8,0:0:0:0:
208,338,54029,5,8,0:0:0:0:
295,285,54216,1,8,0:0:0:0:
367,355,54404,1,8,0:0:0:0:
297,258,54591,1,8,0:0:0:0:
411,251,54779,1,8,0:0:0:0:
286,366,54966,1,2,0:0:0:0:
304,177,55154,1,2,0:0:0:0:
220,46,55341,1,8,0:0:0:0:
200,59,55435,1,2,0:0:0:0:
179,71,55529,6,0,P|101:84|26:56,1,121.499996292114,6|0,0:0|0:0,0:0:0:0:
60,74,55904,2,0,P|40:123|-8:151,1,80.9999975280763,8|0,0:0|0:0,0:0:0:0:
140,273,56279,2,0,L|247:252,1,80.9999975280763,2|0,0:0|0:0,0:0:0:0:
383,160,56654,2,0,L|293:178,1,80.9999975280763,8|0,0:0|0:0,0:0:0:0:
196,336,57029,6,0,P|219:256|147:188,1,161.999995056153,2|8,0:0|0:0,0:0:0:0:
40,293,57591,2,0,P|32:340|33:381,1,80.9999975280763,0|2,0:0|0:0,0:0:0:0:
76,185,57966,2,0,P|84:138|83:97,1,80.9999975280763,0|8,0:0|0:0,0:0:0:0:
0,218,58341,1,0,0:0:0:0:
206,216,58529,6,0,L|317:216,1,80.9999975280763,6|2,0:0|0:0,0:0:0:0:
121,292,58904,2,0,L|6:292,1,80.9999975280763,14|2,0:0|0:0,0:0:0:0:
205,135,59279,2,0,L|205:217,1,80.9999975280763,6|2,0:0|0:0,0:0:0:0:
338,338,59654,2,0,L|338:234,1,80.9999975280763,14|2,0:0|0:0,0:0:0:0:
412,218,60029,5,6,0:0:0:0:
247,300,60216,1,2,0:0:0:0:
338,338,60404,1,14,0:0:0:0:
262,207,60591,1,2,0:0:0:0:
148,334,60779,1,6,0:0:0:0:
334,253,60966,1,2,0:0:0:0:
256,380,61154,2,0,L|245:283,1,80.9999975280763,14|2,0:0|0:0,0:0:0:0:
231,272,61435,1,0,0:0:0:0:
218,248,61529,6,0,L|211:148,1,80.9999975280763,10|0,0:0|0:0,0:0:0:0:
334,252,61904,1,8,0:0:0:0:
444,193,62091,1,8,0:0:0:0:
465,285,62279,1,8,0:0:0:0:
358,176,62466,1,8,0:0:0:0:
429,76,62654,1,8,0:0:0:0:
444,193,62841,1,8,0:0:0:0:
288,237,63029,5,8,0:0:0:0:
465,285,63216,1,8,0:0:0:0:
274,150,63404,1,8,0:0:0:0:
356,330,63591,1,8,0:0:0:0:
444,193,63779,1,8,0:0:0:0:
216,290,63966,1,8,0:0:0:0:
184,114,64154,1,8,0:0:0:0:
358,175,64341,1,0,0:0:0:0:
129,255,64529,6,0,P|154:218|195:200,1,90,6|8,0:0|0:0,0:0:0:0:
358,175,64904,1,2,0:0:0:0:
185,114,65091,1,8,0:0:0:0:
445,194,65279,2,0,P|422:240|366:259,1,90,2|8,0:0|0:0,0:0:0:0:
293,88,65654,1,2,0:0:0:0:
246,329,65841,1,8,0:0:0:0:
246,329,65935,1,0,0:0:0:0:
246,329,66029,6,0,L|364:354,1,90,6|8,0:0|0:0,0:0:0:0:
297,178,66404,2,0,L|291:60,1,90,2|8,0:0|0:0,0:0:0:0:
439,301,66779,1,2,0:0:0:0:
439,301,66872,1,2,0:0:0:0:
439,301,66966,1,8,0:0:0:0:
185,115,67154,1,2,0:0:0:0:
185,115,67247,1,2,0:0:0:0:
185,115,67341,1,8,0:0:0:0:
31,225,67529,5,6,0:0:0:0:
156,325,67716,1,8,0:0:0:0:
58,139,67904,2,0,L|27:240,1,90,2|8,0:0|0:0,0:0:0:0:
156,325,68279,1,2,0:0:0:0:
31,225,68466,1,8,0:0:0:0:
85,382,68654,2,0,L|176:309,1,90,2|8,0:0|0:0,0:0:0:0:
204,132,69029,5,6,0:0:0:0:
297,274,69216,1,8,0:0:0:0:
75,219,69404,2,0,L|18:227,2,45,2|2|8,0:0|0:0|0:0,0:0:0:0:
335,199,69779,2,0,P|377:250|379:288,1,90,6|8,0:0|0:0,0:0:0:0:
488,226,70154,1,2,0:0:0:0:
274,282,70341,1,8,0:0:0:0:
248,291,70435,1,0,0:0:0:0:
221,296,70529,6,0,P|176:299|117:280,1,90,6|8,0:0|0:0,0:0:0:0:
307,117,70904,2,0,B|326:137|326:137|338:222,1,90,2|8,0:0|0:0,0:0:0:0:
353,363,71279,1,2,0:0:0:0:
428,136,71466,1,8,0:0:0:0:
428,136,71560,1,0,0:0:0:0:
428,136,71654,1,2,0:0:0:0:
486,285,71841,1,8,0:0:0:0:
236,259,72029,6,0,P|188:243|153:211,1,90,6|8,0:0|0:0,0:0:0:0:
18,358,72404,2,0,P|67:347|113:307,1,90,2|8,0:0|0:0,0:0:0:0:
9,223,72779,1,2,0:0:0:0:
9,223,72872,1,2,0:0:0:0:
9,223,72966,1,8,0:0:0:0:
216,371,73154,1,2,0:0:0:0:
216,371,73247,1,2,0:0:0:0:
216,371,73341,1,8,0:0:0:0:
163,173,73529,6,0,P|163:127|156:64,1,90,6|8,0:0|0:0,0:0:0:0:
9,224,73904,2,0,P|7:275|15:348,1,90,2|8,0:0|0:0,0:0:0:0:
235,266,74279,1,2,0:0:0:0:
67,124,74466,1,8,0:0:0:0:
67,124,74560,1,0,0:0:0:0:
67,124,74654,2,0,P|66:61|72:29,1,90,2|8,0:0|0:0,0:0:0:0:
285,135,75029,5,6,0:0:0:0:
154,254,75216,1,10,0:0:0:0:
156,134,75404,1,2,0:0:0:0:
278,261,75591,1,10,0:0:0:0:
143,289,75779,1,2,0:0:0:0:
280,102,75966,1,10,0:0:0:0:
75,202,76154,1,2,0:0:0:0:
323,356,76341,1,8,0:0:0:0:
323,356,76435,1,2,0:0:0:0:
323,356,76529,6,0,P|368:314|370:250,1,90,6|8,0:0|0:0,0:0:0:0:
279,102,76904,1,2,0:0:0:0:
435,143,77091,1,8,0:0:0:0:
225,182,77279,2,0,P|178:187|129:181,1,90,2|8,0:0|0:0,0:0:0:0:
66,76,77654,1,2,0:0:0:0:
317,184,77841,1,8,0:0:0:0:
317,184,77935,1,0,0:0:0:0:
317,184,78029,6,0,P|315:244|303:275,1,90,6|8,0:0|0:0,0:0:0:0:
53,164,78404,2,0,P|55:104|67:73,1,90,2|8,0:0|0:0,0:0:0:0:
190,141,78779,1,2,0:0:0:0:
192,167,78872,1,2,0:0:0:0:
194,193,78966,1,8,0:0:0:0:
25,317,79154,1,2,0:0:0:0:
35,292,79248,1,2,0:0:0:0:
46,267,79341,1,10,0:0:0:0:
230,291,79529,5,6,0:0:0:0:
53,165,79716,1,8,0:0:0:0:
197,52,79904,2,0,P|188:84|195:158,1,90,2|8,0:0|0:0,0:0:0:0:
348,156,80279,1,2,0:0:0:0:
191,140,80466,1,8,0:0:0:0:
230,291,80654,2,0,P|283:311|344:300,1,90,2|8,0:0|0:0,0:0:0:0:
439,241,81029,5,6,0:0:0:0:
230,291,81216,1,8,0:0:0:0:
510,328,81404,1,2,0:0:0:0:
510,327,81497,1,2,0:0:0:0:
510,327,81591,1,8,0:0:0:0:
347,155,81779,1,6,0:0:0:0:
404,48,81966,1,8,0:0:0:0:
439,241,82154,1,2,0:0:0:0:
231,291,82341,1,8,0:0:0:0:
231,291,82435,1,2,0:0:0:0:
231,291,82529,6,0,P|279:269|342:274,1,90,6|8,0:0|0:0,0:0:0:0:
510,327,82904,1,2,0:0:0:0:
347,155,83091,1,8,0:0:0:0:
512,134,83279,2,0,P|491:188|436:212,1,90,2|8,0:0|0:0,0:0:0:0:
233,99,83654,1,2,0:0:0:0:
86,286,83841,1,8,0:0:0:0:
99,262,83935,1,0,0:0:0:0:
111,237,84029,6,0,L|115:127,1,90,6|8,0:0|0:0,0:0:0:0:
186,324,84404,2,0,P|230:345|289:341,1,90,2|8,0:0|0:0,0:0:0:0:
233,99,84779,2,0,L|191:73,2,45,2|2|8,0:0|0:0|0:0,0:0:0:0:
443,270,85154,2,0,L|499:249,2,45,2|2|8,0:0|0:0|0:0,0:0:0:0:
277,252,85529,5,6,0:0:0:0:
372,134,85716,1,8,0:0:0:0:
311,336,85904,2,0,L|265:224,1,90,2|8,0:0|0:0,0:0:0:0:
372,133,86279,1,2,0:0:0:0:
175,194,86466,1,8,0:0:0:0:
434,194,86654,2,0,P|455:161|438:78,1,90,2|8,0:0|0:0,0:0:0:0:
277,253,87029,5,6,0:0:0:0:
259,132,87216,1,10,0:0:0:0:
158,290,87404,1,2,0:0:0:0:
380,302,87591,1,10,0:0:0:0:
257,110,87779,1,10,0:0:0:0:
280,364,87966,1,10,0:0:0:0:
126,152,88154,1,10,0:0:0:0:
395,139,88341,1,10,0:0:0:0:
159,290,88529,6,0,B|134:308|124:344|124:344|115:311|96:290|96:290|77:269|83:232,1,180,4|0,0:0|0:0,0:0:0:0:
261,294,89654,5,0,0:0:0:0:
378,183,90029,2,0,P|399:154|413:62,2,107.999996704102,2|0|2,0:0|0:0|0:0,0:0:0:0:
144,167,91154,2,0,L|136:94,1,53.9999983520508,2|2,0:0|0:0,0:0:0:0:
175,49,91529,6,0,L|197:250,1,180,6|2,0:0|0:0,0:0:0:0:
128,310,92091,1,10,0:0:0:0:
144,167,92279,1,8,0:0:0:0:
208,241,92466,1,10,0:0:0:0:
65,233,92654,1,8,0:0:0:0:
231,268,92841,1,10,0:0:0:0:
67,152,93029,5,8,0:0:0:0:
116,334,93216,1,10,0:0:0:0:
226,162,93404,1,8,0:0:0:0:
51,261,93591,1,10,0:0:0:0:
256,162,93779,1,8,0:0:0:0:
43,132,93966,1,10,0:0:0:0:
205,298,94154,1,8,0:0:0:0:
19,259,94341,1,10,0:0:0:0:
207,97,94529,6,0,L|228:166,1,67.5
286,247,94904,6,0,L|250:147,1,90,12|0,0:0|0:0,0:0:0:0:
361,83,95279,1,0,0:0:0:0:
207,97,95466,1,2,0:0:0:0:
365,53,95654,1,8,0:0:0:0:
205,190,95841,1,0,0:0:0:0:
205,190,95935,1,0,0:0:0:0:
205,190,96029,6,0,P|202:267|272:316,1,135,2|2,0:0|0:0,0:0:0:0:
264,316,96404,1,8,0:0:0:0:
367,186,96591,2,0,P|325:199|292:229,2,90,2|0|2,0:0|0:0|0:0,0:0:0:0:
383,294,97154,1,8,0:0:0:0:
279,129,97341,1,0,0:0:0:0:
286,103,97435,1,0,0:0:0:0:
293,76,97529,6,0,P|354:81|431:11,1,135,2|2,0:0|0:0,0:0:0:0:
428,20,97904,1,8,0:0:0:0:
367,186,98091,2,0,L|335:307,1,90,2|0,0:0|0:0,0:0:0:0:
208,249,98466,1,2,0:0:0:0:
114,113,98654,1,8,0:0:0:0:
55,254,98841,1,0,0:0:0:0:
303,266,99029,6,0,P|297:207|228:153,1,135,2|2,0:0|0:0,0:0:0:0:
216,154,99404,2,0,P|209:99|227:54,1,90,8|2,0:0|0:0,0:0:0:0:
224,60,99685,1,0,0:0:0:0:
230,54,99779,2,0,L|326:44,2,90,0|2|8,0:0|0:0|0:0,0:0:0:0:
104,246,100341,1,0,0:0:0:0:
119,223,100435,1,8,0:0:0:0:
124,196,100529,6,0,P|121:143|70:77,1,135,6|2,0:0|0:0,0:0:0:0:
38,175,100904,2,0,L|132:137,1,90,8|2,0:0|0:0,0:0:0:0:
248,106,101279,1,0,0:0:0:0:
232,284,101466,2,0,P|218:237|210:182,2,90,2|8|0,0:0|0:0|0:0,0:0:0:0:
380,124,102029,6,0,B|324:122|324:122|290:108|290:108|225:104,1,135,2|2,0:0|0:0,0:0:0:0:
220,108,102404,1,8,0:0:0:0:
64,54,102591,2,0,L|121:54,2,45,2|0|0,0:0|0:0|0:0,0:0:0:0:
131,155,102966,1,2,0:0:0:0:
59,273,103154,2,0,P|41:230|52:120,1,135,8|2,0:0|0:0,0:0:0:0:
131,155,103529,6,0,P|135:96|124:58,1,90,2|0,0:0|0:0,0:0:0:0:
119,58,103810,1,2,0:0:0:0:
106,52,103904,1,8,0:0:0:0:
220,108,104091,2,0,P|271:113|399:78,1,180,2|2,0:0|0:0,0:0:0:0:
209,190,104654,1,8,0:0:0:0:
295,31,104841,1,0,0:0:0:0:
416,156,105029,6,0,P|419:207|409:256,1,90,8|0,0:0|0:0,0:0:0:0:
404,334,105310,6,0,P|407:270|418:226,1,90,8|0,0:0|0:0,0:0:0:0:
503,248,105591,6,0,P|446:249|400:242,1,90,8|8,0:0|0:0,0:0:0:0:
209,190,105966,1,2,0:0:0:0:
74,319,106154,2,0,L|21:340,2,45,8|8|8,0:3|0:3|0:3,0:0:0:0:
64,171,106529,5,6,0:0:0:0:
243,197,117029,6,0,P|293:183|375:212,1,135.000005149842
299,293,117591,1,0,0:0:0:0:
299,293,117685,1,0,0:0:0:0:
299,293,117779,1,0,0:0:0:0:
191,285,117966,1,0,0:0:0:0:
108,119,118154,2,0,P|117:158|120:217,1,67.5000025749208
192,127,118435,1,0,0:0:0:0:
192,127,118529,6,0,P|242:91|266:30,1,121.499996292114,6|2,0:0|0:0,0:0:0:0:
268,12,118904,1,8,0:0:0:0:
108,119,119091,2,0,P|120:175|214:206,1,161.999995056153,2|2,0:0|0:0,0:0:0:0:
193,348,119654,2,0,L|101:291,1,80.9999975280763,8|0,0:0|0:0,0:0:0:0:
191,127,120029,2,0,P|176:68|99:37,1,121.499996292114,2|2,0:0|0:0,0:0:0:0:
102,35,120404,5,8,0:0:0:0:
191,128,120591,1,2,0:0:0:0:
95,130,120779,1,0,0:0:0:0:
3,87,120966,1,2,0:0:0:0:
143,213,121154,1,8,0:0:0:0:
186,35,121341,1,0,0:0:0:0:
301,161,121529,6,0,B|301:210|301:210|291:241|291:241|291:314,1,121.499996292114,2|2,0:0|0:0,0:0:0:0:
342,212,121904,2,0,L|342:116,1,80.9999975280763,8|2,0:0|0:0,0:0:0:0:
421,171,122279,1,0,0:0:0:0:
342,212,122466,1,2,0:0:0:0:
436,95,122654,1,8,0:0:0:0:
477,289,122841,1,0,0:0:0:0:
350,117,123029,6,0,P|348:66|411:10,1,121.499996292114,2|0,0:0|0:0,0:0:0:0:
436,95,123404,2,0,P|434:151|408:180,1,80.9999975280763,8|2,0:0|0:0,0:0:0:0:
342,212,123779,1,0,0:0:0:0:
253,171,123966,1,2,0:0:0:0:
168,121,124154,1,8,0:0:0:0:
168,217,124341,1,0,0:0:0:0:
168,217,124435,1,8,0:0:0:0:
168,217,124529,6,0,P|163:273|128:337,1,121.499996292114,6|2,0:0|0:0,0:0:0:0:
117,348,124904,1,8,0:0:0:0:
276,363,125091,2,0,P|256:289|312:319,1,161.999995056153,2|2,0:0|0:0,0:0:0:0:
168,217,125654,2,0,P|119:204|81:165,1,80.9999975280763,8|0,0:0|0:0,0:0:0:0:
252,108,126029,6,0,L|401:130,1,121.499996292114,2|2,0:0|0:0,0:0:0:0:
396,130,126404,1,8,0:0:0:0:
258,142,126591,2,0,L|84:118,1,161.999995056153,2|2,0:0|0:0,0:0:0:0:
207,244,127154,2,0,P|208:298|202:335,1,80.9999975280763,8|0,0:0|0:0,0:0:0:0:
50,335,127529,6,0,P|50:265|64:198,1,121.499996292114,2|2,0:0|0:0,0:0:0:0:
69,191,127904,1,8,0:0:0:0:
207,244,128091,2,0,P|247:247|287:246,1,80.9999975280763,2|0,0:0|0:0,0:0:0:0:
417,164,128466,1,2,0:0:0:0:
448,322,128654,1,8,0:0:0:0:
482,110,128841,1,0,0:0:0:0:
328,244,129029,6,0,P|278:218|276:134,1,121.499996292114,2|2,0:0|0:0,0:0:0:0:
280,132,129404,1,8,0:0:0:0:
367,90,129591,1,2,0:0:0:0:
280,132,129779,1,0,0:0:0:0:
192,173,129966,1,2,0:0:0:0:
103,214,130154,1,8,0:0:0:0:
271,228,130341,1,0,0:0:0:0:
271,228,130435,1,0,0:0:0:0:
271,228,130529,6,0,P|265:261|276:321,1,80.9999975280763,6|0,0:0|0:0,0:0:0:0:
289,323,130810,1,0,0:0:0:0:
312,328,130904,1,8,0:0:0:0:
192,174,131091,1,0,0:0:0:0:
192,174,131185,1,0,0:0:0:0:
192,174,131279,1,2,0:0:0:0:
367,90,131466,1,0,0:0:0:0:
367,90,131560,1,0,0:0:0:0:
367,90,131654,1,8,0:0:0:0:
187,285,131841,1,0,0:0:0:0:
187,285,131935,1,0,0:0:0:0:
187,285,132029,6,0,L|141:290,1,40.4999987640381,2|0,0:0|0:0,0:0:0:0:
103,209,132216,2,0,L|64:202,1,40.4999987640381,2|0,0:0|0:0,0:0:0:0:
131,124,132404,2,0,P|174:95|223:105,1,80.9999975280763,8|0,0:0|0:0,0:0:0:0:
215,75,132685,1,0,0:0:0:0:
228,54,132779,1,2,0:0:0:0:
50,143,132966,1,2,0:0:0:0:
300,172,133154,1,6,0:0:0:0:
283,150,133529,5,2,0:0:0:0:
61,189,133716,2,0,L|79:122,2,40.4999987640381,2|2|2,0:0|0:0|0:0,0:0:0:0:
198,268,134091,1,8,0:0:0:0:
222,271,134185,1,8,0:0:0:0:
246,271,134279,1,2,0:0:0:0:
269,266,134372,1,2,0:0:0:0:
291,256,134466,1,2,0:0:0:0:
310,241,134560,1,8,0:0:0:0:
328,224,134654,2,0,P|369:207|437:214,1,80.9999975280763,2|2,0:0|0:0,0:0:0:0:
475,280,134935,1,8,0:0:0:0:
475,280,135029,6,0,P|499:244|503:191,1,80.9999975280763,2|2,0:0|0:0,0:0:0:0:
376,292,135404,1,8,0:0:0:0:
459,120,135591,1,10,0:0:0:0:
326,170,135779,1,10,0:0:0:0:
389,40,135966,2,2,L|432:26,2,40.4999987640381,0|0|0,0:0|0:0|0:0,0:0:0:0:
365,47,136247,1,8,0:0:0:0:
342,57,136341,1,8,0:0:0:0:
319,66,136435,1,8,0:0:0:0:
297,76,136529,6,8,P|243:72|201:127,1,121.499996292114,6|2,0:0|0:0,0:0:0:0:
202,119,136904,2,0,P|164:112|114:147,1,80.9999975280763,8|0,0:0|0:0,0:0:0:0:
273,232,137279,2,0,L|360:232,1,80.9999975280763,2|0,0:0|0:0,0:0:0:0:
234,320,137654,2,0,L|147:320,1,80.9999975280763,8|0,0:0|0:0,0:0:0:0:
402,162,138029,6,0,P|439:211|377:308,1,161.999995056153,2|8,0:0|0:0,0:0:0:0:
273,232,138591,2,0,P|317:226|363:235,1,80.9999975280763,0|2,0:0|0:0,0:0:0:0:
185,245,138966,2,0,P|126:250|90:242,1,80.9999975280763,0|8,0:0|0:0,0:0:0:0:
219,160,139341,1,0,0:0:0:0:
411,81,139529,6,0,B|402:170,1,80.9999975280763,6|2,0:0|0:0,0:0:0:0:
277,313,139904,2,0,B|273:217,1,80.9999975280763,14|2,0:0|0:0,0:0:0:0:
471,293,140279,2,0,B|376:278,1,80.9999975280763,6|2,0:0|0:0,0:0:0:0:
231,138,140654,2,0,B|321:122,1,80.9999975280763,14|2,0:0|0:0,0:0:0:0:
311,124,140935,1,2,0:0:0:0:
311,124,141029,5,12,0:0:0:0:
149,202,141216,1,2,0:0:0:0:
228,32,141404,1,12,0:0:0:0:
110,80,141591,1,2,0:0:0:0:
311,124,141779,1,4,0:0:0:0:
116,198,141966,1,2,0:0:0:0:
116,198,142060,1,2,0:0:0:0:
116,198,142154,1,12,0:0:0:0:
270,311,142341,1,2,0:0:0:0:
270,311,142435,1,2,0:0:0:0:
270,311,142529,6,0,P|267:268|276:208,1,80.9999975280763,12|0,0:0|0:0,0:0:0:0:
311,124,142904,1,8,0:0:0:0:
200,119,143091,1,8,0:0:0:0:
263,49,143279,1,8,0:0:0:0:
366,196,143466,1,8,0:0:0:0:
200,119,143654,1,8,0:0:0:0:
360,47,143841,1,8,0:0:0:0:
260,209,144029,5,8,0:0:0:0:
177,34,144216,1,8,0:0:0:0:
360,47,144404,1,8,0:0:0:0:
168,203,144591,1,8,0:0:0:0:
346,63,144779,1,8,0:0:0:0:
209,275,144966,1,8,0:0:0:0:
372,151,145154,1,8,0:0:0:0:
120,134,145341,1,8,0:0:0:0:
377,241,145529,6,0,P|380:200|371:146,1,90,6|8,0:0|0:0,0:0:0:0:
247,265,145904,1,2,0:0:0:0:
447,357,146091,1,8,0:0:0:0:
288,186,146279,2,0,P|244:177|188:196,1,90,2|8,0:0|0:0,0:0:0:0:
62,141,146654,1,2,0:0:0:0:
247,265,146841,1,8,0:0:0:0:
247,265,146935,1,0,0:0:0:0:
247,265,147029,6,0,P|252:311|248:370,1,90,6|8,0:0|0:0,0:0:0:0:
178,134,147404,2,0,P|174:74|185:21,1,90,2|8,0:0|0:0,0:0:0:0:
51,239,147779,1,2,0:0:0:0:
51,239,147872,1,2,0:0:0:0:
51,239,147966,1,8,0:0:0:0:
357,131,148154,1,2,0:0:0:0:
357,131,148247,1,2,0:0:0:0:
357,131,148341,1,8,0:0:0:0:
246,265,148529,5,6,0:0:0:0:
179,134,148716,1,8,0:0:0:0:
354,237,148904,2,0,L|479:252,1,90,2|8,0:0|0:0,0:0:0:0:
247,265,149279,1,2,0:0:0:0:
357,131,149466,1,8,0:0:0:0:
139,219,149654,2,0,L|22:246,1,90,2|8,0:0|0:0,0:0:0:0:
208,92,150029,5,6,0:0:0:0:
248,265,150216,1,8,0:0:0:0:
440,224,150404,2,0,L|490:255,2,45,2|2|8,0:0|0:0|0:0,0:0:0:0:
355,72,150779,2,0,P|330:146|332:184,1,90,6|8,0:0|0:0,0:0:0:0:
394,321,151154,1,2,0:0:0:0:
216,152,151341,1,8,0:0:0:0:
189,146,151435,1,0,0:0:0:0:
162,141,151529,6,0,B|115:151|115:151|62:188,1,90,6|8,0:0|0:0,0:0:0:0:
355,159,151904,2,0,P|365:114|351:65,1,90,2|8,0:0|0:0,0:0:0:0:
280,242,152279,1,2,0:0:0:0:
482,85,152466,1,8,0:0:0:0:
482,85,152560,1,0,0:0:0:0:
482,85,152654,1,2,0:0:0:0:
277,115,152841,1,8,0:0:0:0:
470,297,153029,6,0,P|478:329|463:392,1,90,6|8,0:0|0:0,0:0:0:0:
345,185,153404,2,0,P|328:213|272:244,1,90,2|8,0:0|0:0,0:0:0:0:
113,143,153779,1,2,0:0:0:0:
113,143,153872,1,2,0:0:0:0:
113,143,153966,1,8,0:0:0:0:
439,201,154154,1,2,0:0:0:0:
439,201,154247,1,2,0:0:0:0:
439,201,154341,1,8,0:0:0:0:
191,182,154529,6,0,P|191:136|184:73,1,90,6|8,0:0|0:0,0:0:0:0:
381,112,154904,2,0,P|428:115|490:110,1,90,2|8,0:0|0:0,0:0:0:0:
289,46,155279,1,2,0:0:0:0:
280,276,155466,1,8,0:0:0:0:
280,276,155560,1,0,0:0:0:0:
280,276,155654,2,0,P|233:280|165:266,1,90,2|8,0:0|0:0,0:0:0:0:
178,144,156029,5,6,0:0:0:0:
139,291,156216,1,10,0:0:0:0:
159,126,156404,1,2,0:0:0:0:
295,259,156591,1,10,0:0:0:0:
116,296,156779,1,2,0:0:0:0:
277,158,156966,1,10,0:0:0:0:
88,196,157154,1,2,0:0:0:0:
255,323,157341,1,8,0:0:0:0:
270,301,157435,1,2,0:0:0:0:
284,277,157529,5,14,0:0:0:0:
407,127,157716,2,0,L|426:247,1,90,8|2,0:0|0:0,0:0:0:0:
292,66,158091,1,8,0:0:0:0:
223,179,158279,2,0,P|176:184|127:178,1,90,2|8,0:0|0:0,0:0:0:0:
61,90,158654,1,2,0:0:0:0:
109,289,158841,1,8,0:0:0:0:
109,289,158935,1,0,0:0:0:0:
109,289,159029,6,0,P|107:349|95:380,1,90,6|8,0:0|0:0,0:0:0:0:
48,179,159404,2,0,L|63:77,1,90,2|8,0:0|0:0,0:0:0:0:
259,143,159779,1,2,0:0:0:0:
232,138,159872,1,2,0:0:0:0:
205,134,159966,1,8,0:0:0:0:
348,265,160154,1,2,0:0:0:0:
335,289,160248,1,2,0:0:0:0:
323,312,160341,1,10,0:0:0:0:
363,158,160529,5,6,0:0:0:0:
156,238,160716,1,8,0:0:0:0:
185,47,160904,2,0,P|197:79|204:153,1,90,2|8,0:0|0:0,0:0:0:0:
19,182,161279,1,2,0:0:0:0:
205,134,161466,1,8,0:0:0:0:
161,326,161654,2,0,P|152:280|160:226,1,90,2|8,0:0|0:0,0:0:0:0:
343,74,162029,5,6,0:0:0:0:
185,47,162216,1,8,0:0:0:0:
244,219,162404,1,2,0:0:0:0:
244,219,162497,1,2,0:0:0:0:
244,219,162591,1,8,0:0:0:0:
101,177,162779,1,6,0:0:0:0:
343,74,162966,1,8,0:0:0:0:
185,47,163154,1,2,0:0:0:0:
359,188,163341,1,8,0:0:0:0:
359,188,163435,1,2,0:0:0:0:
359,188,163529,6,0,P|365:237|359:291,1,90,6|8,0:0|0:0,0:0:0:0:
501,322,163904,1,2,0:0:0:0:
329,166,164091,1,8,0:0:0:0:
177,274,164279,2,0,P|169:330|179:383,1,90,2|8,0:0|0:0,0:0:0:0:
57,279,164654,1,2,0:0:0:0:
286,292,164841,1,8,0:0:0:0:
308,276,164935,1,0,0:0:0:0:
326,256,165029,6,0,L|330:146,1,90,6|8,0:0|0:0,0:0:0:0:
397,339,165404,2,0,P|441:360|500:356,1,90,2|8,0:0|0:0,0:0:0:0:
241,190,165779,2,0,L|203:151,2,45,2|2|8,0:0|0:0|0:0,0:0:0:0:
470,250,166154,2,0,L|526:229,2,45,2|2|8,0:0|0:0|0:0,0:0:0:0:
273,306,166529,5,6,0:0:0:0:
296,114,166716,1,8,0:0:0:0:
163,277,166904,2,0,L|192:384,1,90,2|8,0:0|0:0,0:0:0:0:
373,241,167279,1,2,0:0:0:0:
297,114,167466,1,8,0:0:0:0:
471,250,167654,2,0,L|449:369,1,90,2|8,0:0|0:0,0:0:0:0:
273,306,168029,5,6,0:0:0:0:
297,115,168216,1,10,0:0:0:0:
163,278,168404,1,2,0:0:0:0:
373,241,168591,1,10,0:0:0:0:
131,259,168779,1,10,0:0:0:0:
232,57,168966,1,10,0:0:0:0:
274,306,169154,1,10,0:0:0:0:
395,139,169341,1,10,0:0:0:0:
132,259,169529,6,0,B|107:277|97:313|97:313|43:322|14:298|14:298|7:274|7:250,1,180,4|0,0:0|0:0,0:0:0:0:
143,57,170654,6,0,P|154:94|145:174,1,107.999996704102
34,120,171404,1,0,0:0:0:0:
269,51,171779,1,0,0:0:0:0:
463,104,172154,2,0,P|491:124|529:135,1,53.9999983520508
330,250,172529,6,0,L|325:174,1,67.5000025749208,6|0,0:0|0:0,0:0:0:0:
227,206,172904,2,0,L|222:130,1,67.5000025749208,2|0,0:0|0:0,0:0:0:0:
133,288,173279,2,0,L|128:212,1,67.5000025749208,2|0,0:0|0:0,0:0:0:0:
330,250,173654,1,2,0:0:0:0:
227,206,173841,1,0,0:0:0:0:
133,288,174029,6,0,L|49:309,1,67.5000025749208,2|0,0:0|0:0,0:0:0:0:
242,333,174404,1,2,0:0:0:0:
242,333,174779,2,0,L|307:316,1,67.5000025749208,2|0,0:0|0:0,0:0:0:0:
401,151,175154,1,2,0:0:0:0:
328,214,175341,1,0,0:0:0:0:
499,142,175529,6,0,L|513:72,1,67.5000025749208,2|0,0:0|0:0,0:0:0:0:
394,263,175904,2,0,P|346:295|274:277,1,135.000005149842,2|2,0:0|0:0,0:0:0:0:
198,303,176466,1,0,0:0:0:0:
192,221,176654,1,2,0:0:0:0:
129,169,176841,1,0,0:0:0:0:
54,200,177029,6,0,P|40:267|58:338,2,135.000005149842,2|2|2,0:0|0:0|0:0,0:0:0:0:
7,92,177966,1,0,0:0:0:0:
127,144,178154,1,2,0:0:0:0:
116,33,178341,1,0,0:0:0:0:
54,201,178529,6,0,P|125:237|180:221,1,135.000005149842,2|2,0:0|0:0,0:0:0:0:
276,44,179279,1,2,0:0:0:0:
321,283,179654,2,0,P|327:211|365:158,1,135.000005149842,2|2,0:0|0:0,0:0:0:0:
326,64,180216,1,0,0:0:0:0:
166,119,180404,6,0,L|253:124,1,67.5000025749208,2|0,0:0|0:0,0:0:0:0:
146,209,180779,2,0,L|0:201,2,135.000005149842,2|2|2,0:0|0:0|0:0,0:0:0:0:
294,181,181716,2,0,P|262:173|218:179,1,67.5000025749208,0|2,0:0|0:0,0:0:0:0:
255,265,182091,1,0,0:0:0:0:
325,119,182279,2,0,P|264:103|165:127,1,135.000005149842,2|2,0:0|0:0,0:0:0:0:
109,160,182841,1,0,0:0:0:0:
78,68,183029,6,0,P|134:67|198:120,1,135.000005149842,2|2,0:0|0:0,0:0:0:0:
262,62,183591,2,0,P|320:34|386:58,1,135.000005149842,2|0,0:0|0:0,0:0:0:0:
349,180,184154,2,0,P|329:144|327:106,1,67.5000025749208,2|0,0:0|0:0,0:0:0:0:
428,195,184529,6,0,P|396:249|333:257,1,107.999996704102,4|0,0:0|0:0,0:0:0:0:
191,204,185279,2,0,B|163:156|163:156|162:85,2,107.999996704102,0|2|2,0:0|0:0|0:0,0:0:0:0:
289,244,186216,1,0,0:0:0:0:
354,192,186404,2,0,P|373:232|375:260,1,53.9999983520508
279,162,186779,2,0,P|326:114|377:113,1,107.999996704102,2|0,0:0|0:0,0:0:0:0:
272,47,187341,1,0,0:0:0:0:
186,67,187529,6,0,L|121:47,1,53.9999983520508,2|0,0:0|0:0,0:0:0:0:
30,149,187904,1,0,0:0:0:0:
47,67,188091,1,2,0:0:0:0:
106,189,188279,2,0,P|112:228|105:261,1,53.9999983520508,2|2,0:0|0:0,0:0:0:0:
43,287,188654,1,0,0:0:0:0:
189,245,188841,2,0,P|225:241|262:249,1,53.9999983520508,0|2,0:0|0:0,0:0:0:0:
112,118,195779,5,8,0:3:0:0:
163,283,195966,1,2,0:0:0:0:
163,283,196060,1,2,0:0:0:0:
163,283,196154,2,2,P|179:254|189:212,1,40.4999987640381,2|2,0:0|0:0,0:0:0:0:
190,159,196341,2,2,P|200:137|213:119,1,40.4999987640381
302,24,196529,6,0,L|322:119,1,67.5000025749208,6|0,0:0|0:0,0:0:0:0:
300,252,196904,2,0,L|285:185,1,67.5000025749208,2|0,0:0|0:0,0:0:0:0:
428,100,197279,1,2,0:0:0:0:
375,177,197466,1,0,0:0:0:0:
190,159,197654,1,2,0:0:0:0:
267,342,197841,1,0,0:0:0:0:
283,333,197935,1,0,0:0:0:0:
296,319,198029,6,0,P|300:271|297:228,1,67.5000025749208,2|0,0:0|0:0,0:0:0:0:
270,73,198404,2,0,P|269:118|274:157,1,67.5000025749208,2|0,0:0|0:0,0:0:0:0:
362,84,198779,2,0,P|363:45|358:5,1,67.5000025749208,2|0,0:0|0:0,0:0:0:0:
190,159,199154,2,0,P|188:198|193:244,1,67.5000025749208,2|0,0:0|0:0,0:0:0:0:
295,193,199529,5,2,0:0:0:0:
181,73,199716,2,0,L|124:73,2,33.7500012874604,0|0|2,0:0|0:0|0:0,0:0:0:0:
270,73,200091,1,0,0:0:0:0:
295,193,200279,1,2,0:0:0:0:
262,47,200466,1,0,0:0:0:0:
390,95,200654,1,2,0:0:0:0:
390,95,201029,6,0,P|413:135|413:196,1,90,2|2,0:0|0:0,0:0:0:0:
416,204,201779,1,2,0:0:0:0:
410,228,202154,1,2,0:0:0:0:
129,253,202529,6,0,P|154:216|195:198,1,90,6|8,0:0|0:0,0:0:0:0:
399,250,202904,1,2,0:0:0:0:
313,71,203091,1,8,0:0:0:0:
210,282,203279,2,0,L|258:407,1,90,2|8,0:0|0:0,0:0:0:0:
50,231,203654,1,2,0:0:0:0:
284,213,203841,1,8,0:0:0:0:
284,213,203935,1,0,0:0:0:0:
284,213,204029,6,0,L|305:85,1,90,6|8,0:0|0:0,0:0:0:0:
129,253,204404,2,0,L|144:343,1,90,2|8,0:0|0:0,0:0:0:0:
377,183,204779,1,2,0:0:0:0:
377,183,204872,1,2,0:0:0:0:
377,183,204966,1,8,0:0:0:0:
115,176,205154,1,2,0:0:0:0:
115,176,205247,1,2,0:0:0:0:
115,176,205341,1,8,0:0:0:0:
221,295,205529,5,6,0:0:0:0:
306,123,205716,1,8,0:0:0:0:
130,254,205904,2,0,P|84:252|44:211,1,90,2|8,0:0|0:0,0:0:0:0:
193,60,206279,1,2,0:0:0:0:
116,176,206466,1,8,0:0:0:0:
221,295,206654,2,0,P|265:320|333:301,1,90,2|8,0:0|0:0,0:0:0:0:
306,123,207029,5,6,0:0:0:0:
116,177,207216,1,8,0:0:0:0:
312,202,207404,2,0,L|326:137,2,45,2|2|8,0:0|0:0|0:0,0:0:0:0:
144,276,207779,2,0,P|150:333|188:365,1,90,6|8,0:0|0:0,0:0:0:0:
397,234,208154,1,2,0:0:0:0:
213,131,208341,1,8,0:0:0:0:
210,104,208435,1,0,0:0:0:0:
214,77,208529,6,0,P|225:44|272:2,1,90,6|8,0:0|0:0,0:0:0:0:
229,263,208904,2,0,B|203:279|203:279|139:276,1,90,2|8,0:0|0:0,0:0:0:0:
286,347,209279,1,2,0:0:0:0:
126,170,209466,1,8,0:0:0:0:
126,170,209560,1,0,0:0:0:0:
126,170,209654,1,2,0:0:0:0:
311,175,209841,1,8,0:0:0:0:
50,207,210029,6,0,P|41:164|62:117,1,90,6|8,0:0|0:0,0:0:0:0:
240,237,210404,2,0,B|279:262|279:262|332:262,1,90,2|8,0:0|0:0,0:0:0:0:
238,72,210779,1,2,0:0:0:0:
238,72,210872,1,2,0:0:0:0:
238,72,210966,1,8,0:0:0:0:
145,266,211154,1,2,0:0:0:0:
145,266,211247,1,2,0:0:0:0:
145,266,211341,1,8,0:0:0:0:
339,144,211529,6,0,P|339:98|332:35,1,90,6|8,0:0|0:0,0:0:0:0:
144,175,211904,2,0,P|142:226|150:299,1,90,2|8,0:0|0:0,0:0:0:0:
286,271,212279,1,2,0:0:0:0:
51,233,212466,1,8,0:0:0:0:
51,233,212560,1,0,0:0:0:0:
51,233,212654,2,0,P|50:170|56:138,1,90,2|8,0:0|0:0,0:0:0:0:
228,76,213029,5,6,0:0:0:0:
286,271,213216,1,10,0:0:0:0:
82,135,213404,1,2,0:0:0:0:
342,186,213591,1,10,0:0:0:0:
137,344,213779,1,6,0:0:0:0:
82,135,213966,1,10,0:0:0:0:
348,156,214154,1,2,0:0:0:0:
137,345,214341,1,8,0:0:0:0:
137,345,214435,1,2,0:0:0:0:
137,345,214529,6,0,P|88:357|36:336,1,90,6|8,0:0|0:0,0:0:0:0:
225,182,214904,1,2,0:0:0:0:
92,275,215091,1,8,0:0:0:0:
343,269,215279,2,0,L|447:289,1,90,2|8,0:0|0:0,0:0:0:0:
240,341,215654,1,2,0:0:0:0:
407,184,215841,1,8,0:0:0:0:
407,184,215935,1,0,0:0:0:0:
407,184,216029,6,0,P|420:141|415:94,1,90,6|8,0:0|0:0,0:0:0:0:
253,253,216404,2,0,P|255:193|267:162,1,90,2|8,0:0|0:0,0:0:0:0:
145,248,216779,1,2,0:0:0:0:
139,221,216872,1,2,0:0:0:0:
131,194,216966,1,8,0:0:0:0:
354,93,217154,1,2,0:0:0:0:
363,67,217248,1,2,0:0:0:0:
372,42,217341,1,10,0:0:0:0:
359,280,217529,5,6,0:0:0:0:
208,121,217716,1,8,0:0:0:0:
167,98,217810,1,0,0:0:0:0:
123,72,217904,1,2,0:0:0:0:
292,19,218091,1,8,0:0:0:0:
98,58,218279,1,2,0:0:0:0:
316,116,218466,1,8,0:0:0:0:
171,252,218654,2,0,P|165:305|173:346,1,90,2|8,0:0|0:0,0:0:0:0:
378,361,219029,5,6,0:0:0:0:
171,252,219216,1,8,0:0:0:0:
407,244,219404,1,2,0:0:0:0:
407,244,219497,1,2,0:0:0:0:
407,244,219591,1,8,0:0:0:0:
171,252,219779,1,6,0:0:0:0:
279,73,219966,1,8,0:0:0:0:
407,243,220154,1,2,0:0:0:0:
109,316,220341,1,8,0:0:0:0:
109,316,220435,1,2,0:0:0:0:
109,316,220529,6,0,P|83:274|94:212,1,90,6|8,0:0|0:0,0:0:0:0:
191,93,220904,1,2,0:0:0:0:
1,165,221091,1,8,0:0:0:0:
172,252,221279,2,0,P|217:266|276:254,1,90,2|8,0:0|0:0,0:0:0:0:
334,139,221654,1,2,0:0:0:0:
101,166,221841,1,8,0:0:0:0:
91,191,221935,1,0,0:0:0:0:
84,217,222029,6,0,L|86:314,1,90,6|8,0:0|0:0,0:0:0:0:
287,252,222404,2,0,P|340:249|379:262,1,90,2|8,0:0|0:0,0:0:0:0:
468,154,222779,2,0,L|471:109,2,45,2|2|8,0:0|0:0|0:0,0:0:0:0:
323,340,223154,2,0,L|320:391,2,45,2|2|8,0:0|0:0|0:0,0:0:0:0:
353,157,223529,5,6,0:0:0:0:
496,259,223716,1,8,0:0:0:0:
287,252,223904,2,0,L|171:300,1,90,2|8,0:0|0:0,0:0:0:0:
246,95,224279,1,2,0:0:0:0:
204,287,224466,1,8,0:0:0:0:
417,215,224654,2,0,P|438:182|421:99,1,90,2|8,0:0|0:0,0:0:0:0:
256,196,225029,5,6,0:0:0:0:
256,64,225216,1,10,0:0:0:0:
136,272,225404,1,2,0:0:0:0:
368,272,225591,1,10,0:0:0:0:
120,240,225779,1,10,0:0:0:0:
380,244,225966,1,10,0:0:0:0:
256,344,226154,1,10,0:0:0:0:
256,44,226341,1,10,0:0:0:0:
256,312,226529,6,0,L|256:132,1,180,6|0,0:0|0:0,0:0:0:0:
173,132,229529,6,0,P|194:203|161:281,1,135,6|2,0:0|0:0,0:0:0:0:
90,254,229904,2,0,P|131:248|191:269,1,90,8|2,0:0|0:0,0:0:0:0:
267,322,230279,1,0,0:0:0:0:
173,132,230466,1,2,0:0:0:0:
329,142,230654,2,0,P|309:180|260:210,1,90,8|0,0:0|0:0,0:0:0:0:
294,43,231029,6,0,P|357:35|417:86,1,135,2|2,0:0|0:0,0:0:0:0:
422,99,231404,1,8,0:0:0:0:
378,244,231591,2,0,L|277:234,2,90,2|0|2,0:0|0:0|0:0,0:0:0:0:
353,107,232154,1,8,0:0:0:0:
225,185,232341,1,0,0:0:0:0:
213,214,232435,1,0,0:0:0:0:
211,245,232529,6,0,P|231:311|253:334,1,90,2|0,0:0|0:0,0:0:0:0:
341,314,232904,1,8,0:0:0:0:
133,319,233091,2,0,L|25:323,1,90,2|0,0:0|0:0,0:0:0:0:
156,129,233466,5,2,0:0:0:0:
74,224,233654,1,8,0:0:0:0:
29,108,233841,1,0,0:0:0:0:
186,135,234029,6,0,L|322:158,1,135,2|2,0:0|0:0,0:0:0:0:
407,206,234404,2,0,L|299:186,1,90,8|2,0:0|0:0,0:0:0:0:
293,208,234685,1,0,0:0:0:0:
269,228,234779,2,0,B|236:258|236:258|220:311,1,90,0|2,0:0|0:0,0:0:0:0:
74,224,235154,1,8,0:0:0:0:
163,78,235341,1,0,0:0:0:0:
174,107,235435,1,0,0:0:0:0:
186,135,235529,6,0,B|238:135|238:135|263:145|263:145|319:145,1,135,6|2,0:0|0:0,0:0:0:0:
411,182,235904,2,0,L|319:181,1,90,8|2,0:0|0:0,0:0:0:0:
299,47,236279,1,0,0:0:0:0:
493,141,236466,2,0,P|502:175|485:236,2,90,2|8|0,0:0|0:0|0:0,0:0:0:0:
329,295,237029,6,0,L|493:316,1,135,2|2,0:0|0:0,0:0:0:0:
493,303,237404,1,8,0:0:0:0:
261,349,237591,2,0,L|156:336,2,90,2|0|2,0:0|0:0|0:0,0:0:0:0:
261,349,238060,1,0,0:0:0:0:
261,349,238154,1,8,0:0:0:0:
220,218,238341,1,0,0:0:0:0:
328,54,238529,6,0,P|333:120|315:207,1,135,2|2,0:0|0:0,0:0:0:0:
313,218,238904,1,8,0:0:0:0:
423,93,239091,2,0,L|525:62,1,90,2|0,0:0|0:0,0:0:0:0:
328,54,239466,1,2,0:0:0:0:
414,184,239654,1,8,0:0:0:0:
243,95,239841,1,0,0:0:0:0:
134,217,240029,6,0,P|185:227|235:210,1,90,8|0,0:0|0:0,0:0:0:0:
308,218,240310,6,0,P|257:208|207:225,1,90,8|0,0:0|0:0,0:0:0:0:
221,304,240591,6,0,P|231:260|221:216,1,90,8|0,0:0|0:0,0:0:0:0:
212,191,240872,1,8,0:0:0:0:
193,170,240966,1,8,0:0:0:0:
171,153,241060,1,8,0:0:0:0:
144,145,241154,2,0,L|77:147,2,45,8|8|8,0:3|0:3|0:3,0:0:0:0:
413,86,241529,5,4,0:0:0:0:
