osu file format v14

[General]
AudioFilename: Sana.mp3
AudioLeadIn: 0
PreviewTime: 64529
Countdown: 0
SampleSet: Soft
StackLeniency: 0.7
Mode: 0
LetterboxInBreaks: 0
WidescreenStoryboard: 0

[Editor]
DistanceSpacing: 1.2
BeatDivisor: 4
GridSize: 4
TimelineZoom: 1.9

[Metadata]
Title:Byoumei Koiwazurai
TitleUnicode:病名恋ワズライ
Artist:Sana
ArtistUnicode:鎖那
Creator:[ Joey ]
Version:Hard
Source:
Tags:Vocaloid Megpoid GUMI HoneyWorks utaite Lovesickness
BeatmapID:522647
BeatmapSetID:220636

[Difficulty]
HPDrainRate:5.5
CircleSize:3.5
OverallDifficulty:6
ApproachRate:7
SliderMultiplier:1.5
SliderTickRate:2

[Events]
//Background and Video events
Video,0,"video.avi"
0,0,"BG.jpg",0,0
//Break Periods
2,106729,117029
2,190529,194879
2,226729,228629
//Storyboard Layer 0 (Background)
//Storyboard Layer 1 (Fail)
//Storyboard Layer 2 (Pass)
//Storyboard Layer 3 (Foreground)
//Storyboard Sound Samples

[TimingPoints]
10529,375,4,1,0,100,1,0
11841,-100,4,2,0,40,0,0
13529,-100,4,2,1,75,0,0
25529,-100,4,2,1,60,0,0
37529,-100,4,2,1,65,0,0
49529,-100,4,2,1,55,0,0
54404,-100,4,2,1,65,0,0
54966,-100,4,2,1,55,0,0
58529,-100,4,2,1,65,0,0
62279,-100,4,2,1,70,0,0
63029,-100,4,2,1,75,0,0
64529,-100,4,2,1,75,0,1
76482,-100,4,2,1,75,0,0
76529,-100,4,2,1,75,0,1
88529,-100,4,2,1,50,0,0
90404,-100,4,2,0,50,0,0
91904,-100,4,2,1,40,0,0
92279,-100,4,2,1,45,0,0
92654,-100,4,2,1,50,0,0
93029,-100,4,2,1,55,0,0
93404,-100,4,2,1,60,0,0
93779,-100,4,2,1,65,0,0
94154,-100,4,2,1,70,0,0
94529,-133.333333333333,4,2,1,50,0,0
94904,-100,4,2,1,65,0,0
106529,-200,4,2,1,50,0,0
118529,-100,4,2,1,60,0,0
130529,-100,4,2,1,55,0,0
139529,-100,4,2,1,65,0,0
143279,-100,4,2,1,70,0,0
144029,-100,4,2,1,75,0,0
145529,-100,4,2,1,75,0,1
157482,-100,4,2,1,75,0,0
157529,-100,4,2,1,75,0,1
169529,-100,4,2,1,50,0,0
171029,-100,4,2,0,50,0,0
172529,-133.333333333333,4,2,1,50,0,0
184529,-153.846153846154,4,2,0,35,0,0
196529,-100,4,2,1,50,0,0
201029,-133.333333333333,4,2,0,30,0,0
202529,-100,4,2,1,75,0,1
214482,-100,4,2,1,75,0,0
214529,-100,4,2,1,75,0,1
226529,-100,4,2,1,70,0,0
229529,-100,4,2,1,75,0,0
241529,-100,4,2,1,60,0,0

[Colours]
Combo1 : 0,128,255
Combo2 : 255,128,255
Combo3 : 125,190,255
Combo4 : 255,0,128

[HitObjects]
256,192,11841,12,0,13154,0:0:0:0:
55,150,13529,6,0,P|105:159|148:138,1,75,4|2,0:0|0:0,0:0:0:0:
213,125,13904,1,8,0:0:0:0:
253,45,14091,2,0,P|291:85|279:192,1,150,2|2,0:0|0:0,0:0:0:0:
237,248,14654,1,8,0:0:0:0:
283,324,14841,1,0,0:0:0:0:
344,258,15029,6,0,P|402:197|477:203,1,150,2|8,0:0|0:0,0:0:0:0:
432,281,15591,1,2,0:0:0:0:
463,197,15779,2,0,L|498:115,2,75,0|2|8,0:0|0:0|0:0,0:0:0:0:
432,281,16341,1,0,0:0:0:0:
356,333,16529,6,0,B|279:333|279:333|205:355,1,150,2|8,0:0|0:0,0:0:0:0:
219,263,17091,2,0,P|215:232|179:181,1,75,2|0,0:0|0:0,0:0:0:0:
103,186,17466,1,2,0:0:0:0:
149,108,17654,1,8,0:0:0:0:
191,28,17841,1,0,0:0:0:0:
236,106,18029,6,0,P|249:137|334:222,1,150,2|8,0:0|0:0,0:0:0:0:
412,186,18591,1,2,0:0:0:0:
328,219,18779,2,0,L|328:313,2,75,0|2|8,0:0|0:0|0:0,0:0:0:0:
330,130,19341,1,2,0:0:0:0:
196,215,19529,6,0,P|250:247|336:210,1,150,6|8,0:0|0:0,0:0:0:0:
264,155,20091,2,0,P|210:123|124:160,1,150,2|2,0:0|0:0,0:0:0:0:
74,220,20654,1,8,0:0:0:0:
86,308,20841,1,0,0:0:0:0:
172,334,21029,6,0,B|255:334|255:334|350:373,1,150,2|8,0:0|0:0,0:0:0:0:
332,270,21591,2,0,L|368:185,2,75,2|0|2,0:0|0:0|0:0,0:0:0:0:
276,198,22154,2,0,L|306:122,1,75,8|0,0:0|0:0,0:0:0:0:
389,105,22529,6,0,P|349:49|254:54,1,150,2|8,0:0|0:0,0:0:0:0:
214,111,23091,2,0,P|171:165|86:165,1,150,2|2,0:0|0:0,0:0:0:0:
40,96,23654,1,8,0:0:0:0:
128,80,23841,1,0,0:0:0:0:
256,192,24029,12,0,25154,0:0:0:0:
138,97,25529,6,0,P|131:132|154:195,1,75,6|2,0:0|0:0,0:0:0:0:
202,235,25904,1,8,0:0:0:0:
271,178,26091,2,0,P|201:144|136:173,1,150,2|2,0:0|0:0,0:0:0:0:
86,243,26654,1,8,0:0:0:0:
152,303,26841,1,0,0:0:0:0:
202,235,27029,6,0,L|207:53,1,150,2|8,0:0|0:0,0:0:0:0:
285,41,27591,1,2,0:0:0:0:
271,129,27779,2,0,P|228:158|128:104,1,150,2|8,0:0|0:0,0:0:0:0:
141,128,28529,5,2,0:0:0:0:
85,198,28716,2,0,L|102:286,1,75,0|8,0:0|0:0,0:0:0:0:
38,338,29091,1,2,0:0:0:0:
99,272,29279,1,0,0:0:0:0:
169,327,29466,2,0,L|262:345,1,75,2|8,0:0|0:0,0:0:0:0:
330,324,29841,1,0,0:0:0:0:
273,253,30029,6,0,P|252:177|261:75,1,150,2|8,0:0|0:0,0:0:0:0:
184,48,30591,1,2,0:0:0:0:
103,88,30779,2,0,P|126:120|176:135,1,75,0|2,0:0|0:0,0:0:0:0:
115,214,31154,2,0,P|73:231|49:267,1,75,8|0,0:0|0:0,0:0:0:0:
44,152,31529,6,0,P|23:52|72:5,1,150,6|8,0:0|0:0,0:0:0:0:
103,88,32091,2,0,P|150:118|248:66,1,150,0|2,0:0|0:0,0:0:0:0:
313,24,32654,2,0,L|324:116,1,75,8|2,0:0|0:0,0:0:0:0:
266,166,33029,6,0,B|282:246|282:246|262:343,1,150,2|8,0:0|0:0,0:0:0:0:
268,313,33591,1,0,0:0:0:0:
356,333,33779,2,0,L|521:367,1,150,2|8,0:0|0:0,0:0:0:0:
495,273,34341,1,0,0:0:0:0:
438,203,34529,6,0,P|433:130|479:50,1,150,2|8,0:0|0:0,0:0:0:0:
378,44,35091,2,0,L|298:48,1,75,0|2,0:0|0:0,0:0:0:0:
262,128,35466,2,0,L|184:133,2,75,0|8|0,0:0|0:0|0:0,0:0:0:0:
120,75,36029,6,0,P|98:134|145:209,2,150,2|8|2,0:0|0:0|0:0,0:0:0:0:
192,22,36966,1,0,0:0:0:0:
282,28,37154,1,8,0:0:0:0:
340,95,37341,1,2,0:0:0:0:
315,181,37529,6,0,B|304:259|304:259|329:346,1,150,6|8,0:0|0:0,0:0:0:0:
234,341,38091,2,0,P|185:327|135:330,1,75,2|0,0:0|0:0,0:0:0:0:
74,352,38466,1,2,0:0:0:0:
32,271,38654,1,8,0:0:0:0:
89,201,38841,1,0,0:0:0:0:
170,239,39029,6,0,P|248:237|311:204,1,150,2|8,0:0|0:0,0:0:0:0:
398,224,39591,1,2,0:0:0:0:
459,157,39779,2,0,L|422:61,1,75,0|2,0:0|0:0,0:0:0:0:
391,6,40154,1,8,0:0:0:0:
327,69,40341,1,0,0:0:0:0:
259,128,40529,6,0,P|212:133|162:121,1,75,2|2,0:0|0:0,0:0:0:0:
118,67,40904,1,8,0:0:0:0:
99,154,41091,2,0,P|110:227|88:312,1,150,2|2,0:0|0:0,0:0:0:0:
23,357,41654,1,8,0:0:0:0:
94,300,41841,1,0,0:0:0:0:
163,242,42029,6,0,B|222:192|222:192|304:168,1,150,2|8,0:0|0:0,0:0:0:0:
292,81,42591,2,0,L|448:38,1,150,2|2,0:0|0:0,0:0:0:0:
512,96,43154,1,8,0:0:0:0:
437,41,43341,1,0,0:0:0:0:
435,131,43529,6,0,P|425:173|386:225,1,75,6|2,0:0|0:0,0:0:0:0:
349,267,43904,1,8,0:0:0:0:
265,299,44091,2,0,B|213:287|213:287|175:293|175:293|100:277,1,150,2|2,0:0|0:0,0:0:0:0:
43,232,44654,2,0,P|75:204|126:198,1,75,8|0,0:0|0:0,0:0:0:0:
43,232,45029,6,0,P|16:190|44:86,1,150,2|8,0:0|0:0,0:0:0:0:
96,160,45591,2,0,B|148:146|148:146|189:149|189:149|252:133,1,150,2|2,0:0|0:0,0:0:0:0:
306,72,46154,1,8,0:0:0:0:
391,100,46341,1,0,0:0:0:0:
330,166,46529,6,0,P|341:233|405:298,1,150,2|8,0:0|0:0,0:0:0:0:
332,357,47091,2,0,P|286:306|199:287,1,150,2|2,0:0|0:0,0:0:0:0:
120,302,47654,1,8,0:0:0:0:
177,371,47841,1,0,0:0:0:0:
30,328,48029,6,0,P|37:254|111:209,1,150,2|8,0:0|0:0,0:0:0:0:
181,235,48591,2,0,P|214:252|270:237,1,75,2|0,0:0|0:0,0:0:0:0:
282,163,48966,1,2,0:3:0:0:
362,122,49154,1,8,0:0:0:0:
441,162,49341,1,8,0:3:0:0:
445,252,49529,6,0,L|445:341,1,75,6|0,0:0|0:0,0:0:0:0:
363,290,49904,2,0,L|363:197,1,75,8|0,0:0|0:0,0:0:0:0:
363,122,50279,1,2,0:0:0:0:
416,49,50466,1,0,0:0:0:0:
363,122,50654,2,0,P|329:130|274:111,1,75,8|0,0:0|0:0,0:0:0:0:
225,58,51029,6,0,L|146:57,2,75,2|0|8,0:0|0:0|0:0,0:0:0:0:
290,122,51591,1,0,0:0:0:0:
268,209,51779,2,0,P|258:251|228:293,1,75,2|2,0:0|0:0,0:0:0:0:
241,278,52154,1,12,0:0:0:0:
72,214,52529,6,0,P|86:165|124:128,1,75,2|0,0:0|0:0,0:0:0:0:
162,211,52904,1,10,0:0:0:0:
126,294,53091,2,0,L|108:345,2,37.5,0|2|8,0:0|0:0|0:0,0:0:0:0:
162,211,53466,1,0,0:0:0:0:
248,187,53654,2,0,P|292:201|320:241,1,75,8|0,0:0|0:0,0:0:0:0:
162,211,54029,6,0,P|186:120|258:97,1,150,2|8,0:0|0:0,0:0:0:0:
319,112,54591,1,0,0:0:0:0:
345,198,54779,1,0,0:0:0:0:
298,275,54966,1,8,0:3:0:0:
209,290,55154,1,8,0:3:0:0:
312,363,55341,1,8,0:0:0:0:
210,290,55529,6,0,P|132:278|61:317,1,150,6|8,0:0|0:0,0:0:0:0:
18,233,56091,1,0,0:0:0:0:
38,149,56279,2,0,L|124:87,1,75,2|0,0:0|0:0,0:0:0:0:
186,125,56654,2,0,L|264:68,1,75,8|0,0:0|0:0,0:0:0:0:
331,112,57029,6,0,P|387:139|408:229,1,150,2|10,0:0|0:0,0:0:0:0:
332,112,57591,2,0,P|315:183|244:217,1,150,2|2,0:0|0:0,0:0:0:0:
148,209,58154,2,0,L|48:202,1,75,8|2,0:0|0:0,0:0:0:0:
109,294,58529,6,0,L|184:298,1,75,4|2,0:0|0:0,0:0:0:0:
148,209,58904,2,0,L|155:120,1,75,12|2,0:0|0:0,0:0:0:0:
184,298,59279,2,0,L|179:382,1,75,4|2,0:0|0:0,0:0:0:0:
227,229,59654,2,0,L|313:233,1,75,12|2,0:0|0:0,0:0:0:0:
371,165,60029,6,0,P|400:219|367:304,1,150,4|4,0:0|0:0,0:0:0:0:
274,147,60779,2,0,P|245:93|277:6,1,150,4|4,0:0|0:0,0:0:0:0:
336,80,61341,1,2,0:0:0:0:
275,147,61529,6,0,L|212:230,2,75,6|0|2,0:0|0:0|0:0,0:0:0:0:
337,80,62091,1,8,0:0:0:0:
399,144,62279,2,0,L|451:214,2,75,8|8|8,0:0|0:0|0:0,0:0:0:0:
337,80,62841,1,8,0:0:0:0:
249,58,63029,6,0,P|271:12|321:-9,1,75,8|8,0:0|0:0,0:0:0:0:
337,80,63404,2,0,P|312:125|268:142,1,75,8|8,0:0|0:0,0:0:0:0:
202,139,63779,1,8,0:0:0:0:
116,166,63966,1,8,0:0:0:0:
101,255,64154,1,8,0:0:0:0:
173,307,64341,1,8,0:0:0:0:
255,271,64529,6,0,P|297:255|339:262,1,75,6|8,0:0|0:0,0:0:0:0:
409,291,64904,2,0,L|426:397,1,75,2|8,0:0|0:0,0:0:0:0:
327,257,65279,2,0,L|299:73,2,150,2|2|2,0:0|0:0|0:0,0:0:0:0:
344,344,66216,1,8,0:0:0:0:
256,326,66404,6,0,L|173:335,1,75,2|8,0:0|0:0,0:0:0:0:
115,272,66779,2,0,L|52:279,2,37.5,2|2|8,0:0|0:0|0:0,0:0:0:0:
37,192,67154,2,0,L|0:196,2,37.5,2|2|10,0:0|0:0|0:0,0:0:0:0:
114,124,67529,6,0,B|188:94|188:94|280:94,1,150,2|2,0:0|0:0,0:0:0:0:
302,172,68091,1,8,0:0:0:0:
247,244,68279,2,0,P|309:263|384:210,1,150,2|2,0:0|0:0,0:0:0:0:
377,126,68841,2,0,P|345:93|286:86,1,75,8|2,0:0|0:0,0:0:0:0:
232,112,69216,5,8,0:0:0:0:
144,88,69404,1,2,0:0:0:0:
144,88,69497,1,2,0:0:0:0:
144,88,69591,1,8,0:0:0:0:
53,91,69779,2,0,P|92:165|163:178,1,150,6|2,0:0|0:0,0:0:0:0:
281,196,70341,1,8,0:0:0:0:
281,196,70435,1,2,0:0:0:0:
281,196,70529,6,0,P|337:208|386:283,1,150,6|2,0:0|0:0,0:0:0:0:
349,364,71091,1,8,0:0:0:0:
259,350,71279,1,2,0:0:0:0:
198,283,71466,2,0,L|198:181,1,75,8|2,0:0|0:0,0:0:0:0:
200,117,71841,1,8,0:0:0:0:
63,208,72029,6,0,P|126:235|204:202,1,150,2|2,0:0|0:0,0:0:0:0:
200,117,72591,1,8,0:0:0:0:
250,42,72779,2,0,L|303:42,2,37.5,2|2|8,0:0|0:0|0:0,0:0:0:0:
356,103,73154,2,0,L|409:103,2,37.5,2|2|8,0:0|0:0|0:0,0:0:0:0:
320,185,73529,6,0,B|320:226|320:226|295:282,1,75,2|8,0:0|0:0,0:0:0:0:
390,287,73904,2,0,L|458:327,1,75,2|8,0:0|0:0,0:0:0:0:
473,236,74279,2,0,P|468:133|499:85,1,150,2|2,0:0|0:0,0:0:0:0:
489,95,74841,1,8,0:0:0:0:
374,123,75029,6,0,B|322:123|322:123|259:93|286:22,1,150,2|10,0:0|0:0,0:0:0:0:
187,42,75591,1,8,0:0:0:0:
96,42,75779,2,0,L|21:42,2,75,10|8|10,0:0|0:0|0:0,0:0:0:0:
157,124,76341,1,8,0:0:0:0:
157,124,76435,1,2,0:0:0:0:
157,124,76529,6,0,P|157:178|84:242,1,150,6|2,0:0|0:0,0:0:0:0:
72,152,77091,1,8,0:0:0:0:
158,125,77279,2,0,L|249:111,1,75,2|8,0:0|0:0,0:0:0:0:
252,201,77654,2,0,L|334:215,1,75,0|8,0:0|0:0,0:0:0:0:
326,303,78029,6,0,P|394:274|412:189,1,150,2|2,0:0|0:0,0:0:0:0:
371,127,78591,1,8,0:0:0:0:
291,83,78779,2,0,L|247:91,2,37.5,2|2|8,0:0|0:0|0:0,0:0:0:0:
189,144,79154,2,0,L|141:136,2,37.5,2|2|8,0:0|0:0|0:0,0:0:0:0:
234,221,79529,6,0,P|236:298|200:365,1,150,2|2,0:0|0:0,0:0:0:0:
121,326,80091,1,8,0:0:0:0:
90,239,80279,2,0,L|108:153,1,75,2|8,0:0|0:0,0:0:0:0:
182,68,80654,2,0,L|192:143,1,75,2|8,0:0|0:0,0:0:0:0:
234,221,81029,5,2,0:0:0:0:
310,173,81216,1,8,0:0:0:0:
383,225,81404,2,0,L|439:224,2,37.5,2|2|8,0:0|0:0|0:0,0:0:0:0:
251,117,81779,2,0,P|319:93|380:134,1,150,6|2,0:0|0:0,0:0:0:0:
383,225,82341,1,8,0:0:0:0:
383,225,82435,1,2,0:0:0:0:
383,225,82529,6,0,L|384:315,1,75,6|8,0:0|0:0,0:0:0:0:
343,380,82904,1,2,0:0:0:0:
283,312,83091,1,8,0:0:0:0:
226,241,83279,2,0,L|226:152,2,75,2|8|2,0:0|0:0|0:0,0:0:0:0:
197,326,83841,1,8,0:0:0:0:
314,228,84029,6,0,L|314:66,2,150,2|2|2,0:0|0:0|0:0,0:0:0:0:
283,312,84966,2,0,P|319:320|363:302,1,75,8|2,0:0|0:0,0:0:0:0:
404,233,85341,1,8,0:0:0:0:
365,151,85529,6,0,L|290:151,1,75,2|8,0:0|0:0,0:0:0:0:
178,150,85904,2,0,L|103:150,1,75,2|8,0:0|0:0,0:0:0:0:
65,231,86279,2,0,P|57:267|64:304,1,75,2|8,0:0|0:0,0:0:0:0:
175,223,86654,2,0,P|184:179|170:132,1,75,2|8,0:0|0:0,0:0:0:0:
155,311,87029,6,0,L|325:293,2,150,10|10|10,0:0|0:0|0:0,0:0:0:0:
65,321,87966,1,8,0:0:0:0:
38,234,88154,1,10,0:0:0:0:
102,171,88341,1,8,0:0:0:0:
175,223,88529,1,14,0:0:0:0:
256,192,88716,12,0,90029,0:0:0:0:
341,137,90404,5,0,0:0:0:0:
341,137,90779,2,0,P|338:86|352:49,1,75,2|0,0:0|0:0,0:0:0:0:
422,117,91154,2,0,P|422:156|411:192,1,75,2|0,0:0|0:0,0:0:0:0:
296,293,91529,1,4,0:0:0:0:
296,293,91904,6,0,L|191:293,1,75,8|8,0:0|0:0,0:0:0:0:
121,210,92279,2,0,L|213:210,1,75,8|8,0:0|0:0,0:0:0:0:
189,119,92654,2,0,P|173:75|190:26,1,75,8|8,0:0|0:0,0:0:0:0:
265,69,93029,2,0,P|307:45|336:48,1,75,8|8,0:0|0:0,0:0:0:0:
388,164,93404,6,0,P|348:155|319:124,1,75,8|8,0:0|0:0,0:0:0:0:
270,204,93779,2,0,P|248:237|249:283,1,75,8|8,0:0|0:0,0:0:0:0:
335,263,94154,2,0,P|389:266|425:243,1,75,8|8,0:0|0:0,0:0:0:0:
439,161,94529,6,0,P|424:114|429:31,1,112.500004291535,0|4,0:0|0:0,0:0:0:0:
512,63,95091,6,0,L|344:41,1,150,0|2,0:0|0:0,0:0:0:0:
293,99,95654,2,0,B|254:108|254:108|187:105,1,75,8|0,0:0|0:0,0:0:0:0:
208,196,96029,6,0,B|128:220|128:220|53:220,1,150,2|8,0:0|0:0,0:0:0:0:
17,141,96591,1,2,0:0:0:0:
17,141,96779,2,0,P|18:95|7:48,2,75,0|2|8,0:0|0:0|0:0,0:0:0:0:
25,230,97341,1,8,0:0:0:0:
25,230,97529,6,0,P|62:241|106:353,1,150,0|8,0:0|0:0,0:0:0:0:
199,339,98091,2,0,L|205:255,1,75,2|0,0:0|0:0,0:0:0:0:
207,173,98466,1,2,0:0:0:0:
154,99,98654,1,8,0:0:0:0:
243,92,98841,1,0,0:0:0:0:
119,187,99029,6,0,L|102:359,1,150,2|8,0:0|0:0,0:0:0:0:
199,339,99591,2,0,P|232:334|283:342,2,75,2|0|2,0:0|0:0|0:0,0:0:0:0:
105,336,100154,1,8,0:0:0:0:
153,260,100341,1,8,0:0:0:0:
23,300,100529,6,0,P|8:272|0:219,1,75,6|0,0:0|0:0,0:0:0:0:
59,161,100904,1,8,0:0:0:0:
151,195,101091,2,0,P|134:98|65:61,1,150,2|2,0:0|0:0,0:0:0:0:
60,161,101654,2,0,L|60:260,1,75,8|0,0:0|0:0,0:0:0:0:
172,292,102029,6,0,B|244:292|244:292|221:241|265:188,1,150,2|8,0:0|0:0,0:0:0:0:
323,261,102591,2,0,P|329:298|311:338,2,75,2|0|2,0:0|0:0|0:0,0:0:0:0:
277,183,103154,1,8,0:0:0:0:
290,94,103341,1,0,0:0:0:0:
349,162,103529,6,0,P|267:181|208:129,1,150
90,94,104091,2,0,L|129:243,1,150,2|2,0:0|0:0,0:0:0:0:
214,258,104654,2,0,L|233:330,1,75,8|0,0:0|0:0,0:0:0:0:
323,329,105029,6,0,B|408:328|428:255|428:255|479:293|542:266,1,225,2|8,0:0|0:0,0:0:0:0:
492,185,105779,2,8,L|499:139,2,37.5,0|0|0,0:0|0:0|0:0,0:0:0:0:
382,133,106154,2,8,L|326:117,2,37.5,0|0|0,0:0|0:0|0:0,0:3:0:0:
236,169,106529,1,6,0:0:0:0:
12,232,118529,6,0,P|28:196|129:172,1,150,6|8,0:0|0:0,0:0:0:0:
214,192,119091,2,0,B|267:192|267:192|245:120|288:77,1,150,2|2,0:0|0:0,0:0:0:0:
344,152,119654,2,0,P|354:193|333:247,1,75,8|0,0:0|0:0,0:0:0:0:
273,98,120029,6,0,P|328:63|423:118,1,150,2|8,0:0|0:0,0:0:0:0:
432,172,120591,1,2,0:0:0:0:
372,238,120779,1,2,0:0:0:0:
432,172,120966,1,0,0:0:0:0:
490,241,121154,1,8,0:0:0:0:
307,175,121529,6,0,L|225:175,1,75,2|0,0:0|0:0,0:0:0:0:
153,220,121904,1,8,0:0:0:0:
74,177,122091,1,2,0:0:0:0:
149,60,122279,2,0,P|158:104|149:140,1,75,0|2,0:0|0:0,0:0:0:0:
74,178,122653,1,8,0:0:0:0:
50,265,122841,1,0,0:0:0:0:
146,284,123029,6,0,P|222:260|286:302,1,150,2|8,0:0|0:0,0:0:0:0:
357,224,123591,2,0,P|336:196|335:139,1,75,2|0,0:0|0:0,0:0:0:0:
346,68,123966,1,2,0:0:0:0:
331,157,124154,2,0,P|287:167|230:153,1,75,8|0,0:0|0:0,0:0:0:0:
347,68,124529,6,0,B|406:68|406:68|498:144,1,150,6|8,0:0|0:0,0:0:0:0:
422,197,125091,2,0,L|318:311,1,150,2|2,0:0|0:0,0:0:0:0:
234,282,125654,2,0,B|234:241|234:241|220:194,1,75,8|0,0:0|0:0,0:0:0:0:
162,142,126029,5,2,0:0:0:0:
286,143,126216,2,0,L|372:143,1,75,0|8,0:0|0:0,0:0:0:0:
286,142,126591,2,0,P|291:209|348:292,1,150,2|0,0:0|0:0,0:0:0:0:
407,280,127154,2,0,P|370:274|317:285,1,75,8|0,0:0|0:0,0:0:0:0:
246,319,127529,6,0,B|191:319|191:319|138:284|172:204,1,150,2|8,0:0|0:0,0:0:0:0:
195,151,128091,2,0,L|281:151,1,75,2|0,0:0|0:0,0:0:0:0:
246,63,128466,1,2,0:0:0:0:
271,151,128654,1,8,0:0:0:0:
296,239,128841,1,0,0:0:0:0:
427,229,129029,6,0,L|443:58,1,150,2|8,0:0|0:0,0:0:0:0:
362,35,129591,1,2,0:0:0:0:
273,52,129779,2,0,P|224:64|178:54,1,75,0|2,0:0|0:0,0:0:0:0:
136,130,130154,2,0,P|156:171|158:226,1,75,8|0,0:0|0:0,0:0:0:0:
237,250,130529,6,0,L|319:250,1,75,4|0,0:0|0:0,0:0:0:0:
398,276,130904,2,0,L|398:182,1,75,8|0,0:0|0:0,0:0:0:0:
429,123,131279,1,2,0:0:0:0:
495,62,131466,1,0,0:0:0:0:
406,42,131654,2,0,P|369:65|345:113,1,75,8|0,0:0|0:0,0:0:0:0:
328,177,132029,6,0,L|232:176,2,75,2|0|8,0:0|0:0|0:0,0:0:0:0:
399,231,132591,1,0,0:0:0:0:
326,284,132779,2,0,B|326:324|326:324|342:363,1,75,2|2,0:0|0:0,0:0:0:0:
234,293,133154,1,14,0:0:0:0:
234,293,133529,6,0,P|234:242|218:189,1,75,2|2,0:0|0:0,0:0:0:0:
190,137,133904,1,10,0:0:0:0:
110,95,134091,2,0,L|60:95,2,37.5,2|8|2,0:0|0:0|0:0,0:0:0:0:
190,55,134466,1,0,0:0:0:0:
255,111,134654,2,0,P|227:134|191:137,1,75,10|10,0:0|0:0,0:0:0:0:
273,29,135029,6,0,P|327:64|322:161,1,150,2|8,0:0|0:0,0:0:0:0:
266,204,135591,2,0,P|240:235|240:300,1,75,0|0,0:0|0:0,0:0:0:0:
276,346,135966,1,8,0:3:0:0:
186,336,136154,1,8,0:3:0:0:
96,325,136341,1,0,0:0:0:0:
74,198,136529,6,0,L|54:46,1,150,6|8,0:0|0:0,0:0:0:0:
54,49,137091,1,0,0:0:0:0:
143,79,137279,2,0,L|234:68,1,75,2|0,0:0|0:0,0:0:0:0:
247,154,137654,2,0,L|344:141,1,75,8|0,0:0|0:0,0:0:0:0:
247,154,138029,6,0,P|219:204|255:297,1,150,2|8,0:0|0:0,0:0:0:0:
307,223,138591,2,0,P|235:201|157:263,1,150
131,315,139154,2,0,L|44:315,1,75,8|0,0:0|0:0,0:0:0:0:
8,164,139529,6,0,L|8:254,1,75,4|2,0:0|0:0,0:0:0:0:
92,206,139904,2,0,L|92:116,1,75,4|2,0:0|0:0,0:0:0:0:
176,163,140279,2,0,L|176:248,1,75,4|2,0:0|0:0,0:0:0:0:
259,203,140654,2,0,L|259:105,1,75,12|2,0:0|0:0,0:0:0:0:
342,163,141029,6,0,P|407:194|481:146,1,150,4|4,0:0|0:0,0:0:0:0:
271,120,141779,2,0,P|210:134|179:222,1,150,4|4,0:0|0:0,0:0:0:0:
225,284,142341,1,2,0:0:0:0:
309,255,142529,6,0,P|290:223|259:203,2,75,2|0|8,0:0|0:0|0:0,0:0:0:0:
289,342,143091,1,8,0:0:0:0:
376,321,143279,2,0,P|418:327|454:355,2,75,2|0|8,0:0|0:0|0:0,0:0:0:0:
290,342,143841,1,8,0:0:0:0:
204,371,144029,6,0,L|106:356,1,75,8|8,0:0|0:0,0:0:0:0:
72,290,144404,2,0,P|76:246|58:202,1,75,8|8,0:0|0:0,0:0:0:0:
133,156,144779,2,0,P|181:186|278:180,1,150,8|8,0:0|0:0,0:0:0:0:
367,335,145529,6,0,P|374:293|366:241,1,75,4|8,0:0|0:0,0:0:0:0:
292,209,145904,2,0,P|285:251|292:302,1,75,2|8,0:0|0:0,0:0:0:0:
372,175,146279,2,0,P|381:118|359:16,2,150,2|2|2,0:0|0:0|0:0,0:0:0:0:
292,209,147216,5,8,0:0:0:0:
202,229,147404,2,0,L|116:238,1,75,2|8,0:0|0:0,0:0:0:0:
94,153,147779,2,0,L|38:158,2,37.5,2|2|8,0:0|0:0|0:0,0:0:0:0:
46,75,148154,2,0,L|9:78,2,37.5,2|2|8,0:0|0:0|0:0,0:0:0:0:
136,73,148529,6,0,P|173:107|156:215,1,150,2|2,0:0|0:0,0:0:0:0:
97,255,149091,1,8,0:0:0:0:
93,153,149279,2,0,L|260:108,1,150,2|2,0:0|0:0,0:0:0:0:
304,174,149841,2,0,L|208:200,1,75,8|2,0:0|0:0,0:0:0:0:
337,258,150216,5,8,0:0:0:0:
394,188,150404,1,2,0:0:0:0:
363,103,150591,1,8,0:0:0:0:
274,85,150779,2,0,L|94:107,1,150,6|2,0:0|0:0,0:0:0:0:
217,184,151341,1,8,0:0:0:0:
217,184,151435,1,2,0:0:0:0:
217,184,151529,6,0,P|249:233|235:332,1,150,6|2,0:0|0:0,0:0:0:0:
168,374,152091,1,8,0:0:0:0:
107,311,152279,1,2,0:0:0:0:
17,320,152466,2,0,L|-2:230,1,75,8|2,0:0|0:0,0:0:0:0:
107,311,152841,1,8,0:0:0:0:
67,169,153029,6,0,L|215:135,1,150,2|2,0:0|0:0,0:0:0:0:
267,63,153591,1,8,0:0:0:0:
324,132,153779,2,0,L|409:146,2,75,2|8|2,0:0|0:0|0:0,0:0:0:0:
380,61,154341,1,8,0:0:0:0:
351,219,154529,6,0,L|338:307,1,75,2|8,0:0|0:0,0:0:0:0:
251,307,154904,2,0,L|265:216,1,75,2|8,0:0|0:0,0:0:0:0:
251,307,155279,2,0,P|189:324|99:297,1,150,2|2,0:0|0:0,0:0:0:0:
25,340,155841,1,8,0:0:0:0:
111,203,156029,6,0,B|150:174|219:199|219:199|266:199,1,150,2|10,0:0|0:0,0:0:0:0:
346,198,156591,1,8,0:0:0:0:
299,120,156779,2,0,L|299:31,2,75,10|8|10,0:0|0:0|0:0,0:0:0:0:
347,198,157341,1,8,0:0:0:0:
387,117,157529,5,14,0:0:0:0:
259,201,157716,2,0,P|182:212|91:197,1,150,8|8,0:0|0:0,0:0:0:0:
18,201,158279,2,0,L|53:272,1,75,2|8,0:0|0:0,0:0:0:0:
110,203,158654,2,0,L|148:284,1,75,2|8,0:0|0:0,0:0:0:0:
229,294,159029,6,0,P|299:279|378:304,2,150,2|2|2,0:0|0:0|0:0,0:0:0:0:
159,351,159966,1,8,0:0:0:0:
70,331,160154,2,0,P|43:301|32:269,1,75,2|8,0:0|0:0,0:0:0:0:
54,181,160529,6,0,B|134:181|134:181|203:148,1,150,2|2,0:0|0:0,0:0:0:0:
273,103,161091,1,8,0:0:0:0:
355,130,161279,2,0,L|360:36,1,75,2|8,0:0|0:0,0:0:0:0:
273,103,161654,2,0,L|279:198,1,75,2|8,0:0|0:0,0:0:0:0:
284,267,162029,5,2,0:0:0:0:
203,228,162216,1,8,0:0:0:0:
114,245,162404,1,2,0:0:0:0:
61,317,162591,1,8,0:0:0:0:
174,306,162779,2,0,L|144:149,1,150,6|2,0:0|0:0,0:0:0:0:
141,69,163341,1,8,0:0:0:0:
141,69,163435,1,8,0:0:0:0:
141,69,163529,6,0,B|182:75|182:75|226:68,1,75,6|8,0:0|0:0,0:0:0:0:
295,29,163904,1,2,0:0:0:0:
359,91,164091,1,8,0:0:0:0:
421,156,164279,2,0,L|495:145,2,75,2|8|2,0:0|0:0|0:0,0:0:0:0:
376,233,164841,1,8,0:0:0:0:
495,145,165029,6,0,P|502:67|464:-5,2,150,2|2|2,0:0|0:0|0:0,0:0:0:0:
403,142,165966,2,0,P|356:137|310:167,1,75,8|2,0:0|0:0,0:0:0:0:
260,203,166341,1,8,0:0:0:0:
204,274,166529,6,0,L|106:274,1,75,2|8,0:0|0:0,0:0:0:0:
81,197,166904,2,0,L|159:197,1,75,2|8,0:0|0:0,0:0:0:0:
260,203,167279,2,0,P|290:234|291:286,1,75,2|8,0:0|0:0,0:0:0:0:
384,243,167654,2,0,P|373:206|384:164,1,75,2|8,0:0|0:0,0:0:0:0:
306,119,168029,6,0,L|139:119,2,150,10|10|10,0:0|0:0|0:0,0:0:0:0:
395,120,168966,1,8,0:0:0:0:
351,41,169154,1,10,0:0:0:0:
349,198,169341,1,8,0:0:0:0:
481,123,169529,1,14,0:0:0:0:
256,192,169716,12,0,170654,0:0:0:0:
164,227,171029,5,0,0:0:0:0:
118,52,171404,1,2,0:0:0:0:
271,145,171779,1,0,0:0:0:0:
271,145,172154,2,0,P|270:90|285:55,1,75,2|0,0:0|0:0,0:0:0:0:
389,81,172529,6,0,L|462:77,1,56.2500021457673,6|0,0:0|0:0,0:0:0:0:
453,162,172904,2,0,L|526:167,1,56.2500021457673,2|0,0:0|0:0,0:0:0:0:
485,247,173279,2,0,L|426:251,1,56.2500021457673,2|0,0:0|0:0,0:0:0:0:
431,335,173654,2,0,L|372:329,1,56.2500021457673,2|0,0:0|0:0,0:0:0:0:
292,312,174029,6,0,P|268:264|282:192,1,112.500004291535,2|2,0:0|0:0,0:0:0:0:
173,71,174779,2,0,P|200:122|187:196,1,112.500004291535,2|2,0:0|0:0,0:0:0:0:
153,247,175341,1,0,0:0:0:0:
72,221,175529,6,0,L|-6:122,2,112.500004291535,2|2|2,0:0|0:0|0:0,0:0:0:0:
153,247,176466,2,0,L|200:303,1,56.2500021457673,0|2,0:0|0:0,0:0:0:0:
91,304,176841,1,0,0:0:0:0:
135,164,177029,6,0,P|185:121|235:113,1,112.500004291535,2|2,0:0|0:0,0:0:0:0:
368,207,177779,2,0,P|318:250|268:258,1,112.500004291535,2|2,0:0|0:0,0:0:0:0:
137,358,178529,6,0,P|156:281|86:145,1,225.000008583069,2|2,0:0|0:0,0:0:0:0:
97,153,179654,1,2,0:0:0:0:
247,41,180029,6,0,P|282:90|192:103,1,168.750006437302,2|0,0:0|0:0,0:0:0:0:
247,41,180779,2,0,L|374:40,2,112.500004291535,2|2|2,0:0|0:0|0:0,0:0:0:0:
162,39,181716,1,0,0:0:0:0:
99,95,181904,6,0,P|68:100|35:90,1,56.2500021457673,2|0,0:0|0:0,0:0:0:0:
11,167,182279,2,0,P|4:193|9:222,1,56.2500021457673,2|0,0:0|0:0,0:0:0:0:
89,196,182654,1,2,0:0:0:0:
89,196,182841,1,0,0:0:0:0:
164,233,183029,6,0,L|301:233,1,112.500004291535,2|2,0:0|0:0,0:0:0:0:
338,175,183591,2,0,P|326:132|363:60,1,112.500004291535
412,134,184154,1,2,0:0:0:0:
384,242,184529,6,0,P|327:257|276:228,1,97.4999955368044,4|0,0:0|0:0,0:0:0:0:
183,200,185279,1,2,0:0:0:0:
74,242,185654,1,0,0:0:0:0:
91,126,186029,6,0,P|150:82|187:80,2,97.4999955368044,0|0|2,0:0|0:0|0:0,0:0:0:0:
83,159,186966,1,0,0:0:0:0:
89,192,187154,2,0,P|104:223|96:293,1,97.4999955368044,0|2,0:0|0:0,0:0:0:0:
88,316,187716,1,0,0:0:0:0:
102,346,187904,6,0,L|167:344,1,48.7499977684022
204,284,188279,2,0,L|263:288,1,48.7499977684022,2|0,0:0|0:0,0:0:0:0:
317,241,188654,2,0,L|368:252,1,48.7499977684022
471,275,189029,1,2,0:0:0:0:
131,117,195779,6,0,B|148:116|148:116|176:108|176:108|200:116|200:116|232:108|232:108|260:116|260:116|283:117,1,146.249993305207,8|0,0:3|0:0,0:0:0:0:
388,116,196529,6,0,L|475:116,1,75,6|0,0:0|0:0,0:0:0:0:
425,197,196904,2,0,L|530:197,1,75,2|0,0:0|0:0,0:0:0:0:
461,278,197279,2,0,L|384:278,1,75,2|0,0:0|0:0,0:0:0:0:
420,361,197654,2,0,L|344:361,1,75,2|0,0:0|0:0,0:0:0:0:
266,316,198029,6,0,P|285:244|263:160,2,150,2|2|2,0:0|0:0|0:0,0:0:0:0:
180,343,198966,1,0,0:0:0:0:
93,318,199154,2,0,L|0:291,1,75,2|0,0:0|0:0,0:0:0:0:
27,207,199529,5,2,0:0:0:0:
27,207,199716,1,0,0:0:0:0:
111,174,199904,1,2,0:0:0:0:
111,174,200091,1,0,0:0:0:0:
50,105,200279,2,0,P|89:82|118:82,1,75,2|0,0:0|0:0,0:0:0:0:
194,138,200654,1,2,0:0:0:0:
194,138,201029,6,0,P|262:150|327:132,2,112.500004291535,0|0|0,0:0|0:0|0:0,0:0:0:0:
194,138,202154,1,0,0:0:0:0:
366,279,202529,6,0,P|361:233|373:186,1,75,6|8,0:0|0:0,0:0:0:0:
445,162,202904,2,0,P|450:206|437:255,1,75,2|8,0:0|0:0,0:0:0:0:
366,279,203279,2,0,P|286:260|209:291,2,150,2|2|2,0:0|0:0|0:0,0:0:0:0:
455,290,204216,5,8,0:0:0:0:
456,200,204404,2,0,L|455:101,1,75,2|8,0:0|0:0,0:0:0:0:
368,101,204779,2,0,L|295:42,1,75,2|8,0:0|0:0,0:0:0:0:
219,44,205154,1,2,0:0:0:0:
188,128,205341,1,8,0:0:0:0:
108,171,205529,6,0,B|108:249|108:249|78:330,1,150,2|2,0:0|0:0,0:0:0:0:
0,308,206091,1,8,0:0:0:0:
157,355,206279,2,0,P|224:376|305:342,1,150,2|2,0:0|0:0,0:0:0:0:
352,279,206841,2,0,L|352:174,1,75,8|2,0:0|0:0,0:0:0:0:
387,121,207216,5,8,0:0:0:0:
328,54,207404,1,2,0:0:0:0:
455,70,207591,1,8,0:0:0:0:
299,134,207779,2,0,P|226:144|166:92,1,150,6|2,0:0|0:0,0:0:0:0:
91,50,208341,1,8,0:0:0:0:
91,50,208435,1,2,0:0:0:0:
91,50,208529,6,0,L|74:213,1,150,6|2,0:0|0:0,0:0:0:0:
128,271,209091,1,8,0:0:0:0:
207,228,209279,1,2,0:0:0:0:
281,311,209466,2,0,L|177:320,1,75,8|2,0:0|0:0,0:0:0:0:
133,360,209841,1,8,0:0:0:0:
207,229,210029,6,0,P|224:163|191:62,1,150,2|2,0:0|0:0,0:0:0:0:
123,47,210591,1,8,0:0:0:0:
61,112,210779,2,0,L|61:199,2,75,2|8|2,0:0|0:0|0:0,0:0:0:0:
151,138,211341,1,8,0:0:0:0:
214,73,211529,6,0,L|290:73,1,75,2|8,0:0|0:0,0:0:0:0:
289,156,211904,2,0,L|382:156,1,75,2|8,0:0|0:0,0:0:0:0:
363,239,212279,2,0,P|389:289|382:383,1,150,2|2,0:0|0:0,0:0:0:0:
482,358,212841,1,8,0:0:0:0:
291,329,213029,6,0,B|219:329|219:329|146:358,1,150,2|8,0:0|0:0,0:0:0:0:
38,324,213591,1,10,0:0:0:0:
114,241,213779,2,0,L|202:241,2,75,14|8|10,0:0|0:0|0:0,0:0:0:0:
22,176,214341,1,8,0:0:0:0:
39,324,214529,1,14,0:0:0:0:
114,242,214716,6,0,P|166:214|275:245,1,150,8|8,0:0|0:0,0:0:0:0:
335,192,215279,2,0,L|295:110,1,75,2|8,0:0|0:0,0:0:0:0:
373,69,215654,2,0,L|411:147,1,75,2|8,0:0|0:0,0:0:0:0:
423,225,216029,6,0,P|352:286|280:266,2,150,2|2|2,0:0|0:0|0:0,0:0:0:0:
426,135,216966,1,8,0:0:0:0:
343,99,217154,2,0,L|240:99,1,75,2|8,0:0|0:0,0:0:0:0:
211,169,217529,5,2,0:0:0:0:
150,102,217716,1,8,0:0:0:0:
150,102,217810,1,0,0:0:0:0:
150,102,217904,1,2,0:0:0:0:
90,168,218091,1,8,0:0:0:0:
147,233,218279,2,0,L|147:315,1,75,2|8,0:0|0:0,0:0:0:0:
230,273,218654,2,0,L|306:273,1,75,2|8,0:0|0:0,0:0:0:0:
354,348,219029,5,2,0:0:0:0:
417,285,219216,1,8,0:0:0:0:
421,194,219404,1,2,0:0:0:0:
385,111,219591,1,8,0:0:0:0:
299,83,219779,2,0,P|272:134|173:164,1,150,6|2,0:0|0:0,0:0:0:0:
165,252,220341,1,8,0:0:0:0:
165,252,220435,1,2,0:0:0:0:
165,252,220529,6,0,P|215:275|237:318,1,75,6|8,0:0|0:0,0:0:0:0:
292,352,220904,1,2,0:0:0:0:
374,317,221091,1,8,0:0:0:0:
368,226,221279,2,0,L|451:215,2,75,2|8|2,0:0|0:0|0:0,0:0:0:0:
281,199,221841,1,8,0:0:0:0:
197,164,222029,6,0,P|255:112|329:124,1,150
410,101,222591,1,8,0:0:0:0:
482,154,222779,1,0,0:0:0:0:
402,196,222966,2,0,P|396:242|410:290,1,75,8|2,0:0|0:0,0:0:0:0:
451,344,223341,1,8,0:0:0:0:
320,299,223529,6,0,L|227:299,1,75,2|8,0:0|0:0,0:0:0:0:
196,222,223904,2,0,L|109:222,1,75,2|8,0:0|0:0,0:0:0:0:
88,93,224279,2,0,L|178:146,1,75,2|8,0:0|0:0,0:0:0:0:
230,85,224654,2,0,L|308:134,1,75,2|8,0:0|0:0,0:0:0:0:
419,138,225029,6,0,P|392:222|320:247,2,150,10|10|2,0:0|0:0|0:0,0:0:0:0:
329,123,225966,1,8,0:0:0:0:
258,179,226154,1,8,0:0:0:0:
171,155,226341,1,8,0:0:0:0:
103,214,226529,1,12,0:0:0:0:
161,280,229529,6,0,P|159:228|170:175,1,75,6|0,0:0|0:0,0:0:0:0:
203,125,229904,1,8,0:0:0:0:
292,123,230091,2,0,P|263:59|181:40,1,150,2|2,0:0|0:0,0:0:0:0:
104,67,230654,1,8,0:0:0:0:
57,143,230841,1,0,0:0:0:0:
22,226,231029,6,0,B|99:251|99:251|154:304,1,150,2|8,0:0|0:0,0:0:0:0:
218,355,231591,1,2,0:0:0:0:
290,301,231779,2,0,L|391:280,2,75,0|2|8,0:0|0:0|0:0,0:0:0:0:
223,240,232341,1,0,0:0:0:0:
159,175,232529,6,0,P|133:91|62:61,1,150,2|8,0:0|0:0,0:0:0:0:
193,33,233091,2,0,L|284:44,1,75,2|0,0:0|0:0,0:0:0:0:
339,96,233466,1,2,0:0:0:0:
422,62,233654,1,8,0:0:0:0:
486,124,233841,1,0,0:0:0:0:
352,181,234029,6,0,P|281:164|252:98,1,150,2|8,0:0|0:0,0:0:0:0:
312,31,234591,1,2,0:0:0:0:
193,34,234779,2,0,L|111:23,2,75,0|2|8,0:0|0:0|0:0,0:0:0:0:
251,102,235341,1,0,0:0:0:0:
207,181,235529,6,0,L|35:199,1,150,6|8,0:0|0:0,0:0:0:0:
60,288,236091,2,0,L|216:298,1,150,2|2,0:0|0:0,0:0:0:0:
292,334,236654,1,8,0:0:0:0:
372,294,236841,1,0,0:0:0:0:
360,204,237029,6,0,B|366:125|366:125|407:48,1,150,2|8,0:0|0:0,0:0:0:0:
309,63,237591,2,0,L|255:158,2,75,2|0|2,0:0|0:0|0:0,0:0:0:0:
218,57,238154,2,0,L|179:128,1,75,8|0,0:0|0:0,0:0:0:0:
74,136,238529,6,0,P|98:194|186:231,1,150,2|8,0:0|0:0,0:0:0:0:
233,164,239091,2,0,P|314:177|361:227,1,150,2|2,0:0|0:0,0:0:0:0:
332,310,239654,1,8,0:0:0:0:
403,364,239841,1,0,0:0:0:0:
256,192,240029,12,4,241529,0:0:0:0:
