osu file format v14

[General]
AudioFilename: Disco the ground(A+).mp3
AudioLeadIn: 0
PreviewTime: -1
Countdown: 1
SampleSet: Normal
StackLeniency: 0.7
Mode: 0
LetterboxInBreaks: 1
WidescreenStoryboard: 1

[Editor]
Bookmarks: 32568,39425,41568,42425,43282,44139,44997,45854,46282,59997,65139,66854,73711,101139,114854
DistanceSpacing: 1.1
BeatDivisor: 4
GridSize: 8
TimelineZoom: 1

[Metadata]
Title:Disco the ground
TitleUnicode:Disco the ground
Artist:Sampling Disaster -SAKI-
ArtistUnicode:Sampling Disaster 咲-SAKI-
Creator:Mekaxin
Version:Easy
Source:BMS
Tags:
BeatmapID:751212
BeatmapSetID:339094

[Difficulty]
HPDrainRate:2
CircleSize:3
OverallDifficulty:2
ApproachRate:3
SliderMultiplier:0.7
SliderTickRate:1

[Events]
//Background and Video events
0,0,"22772146.jpg",0,0
Video,1500,"亂BOF2011亃Disco the ground.avi"
//Break Periods
2,32339,37711
//Storyboard Layer 0 (Background)
//Storyboard Layer 1 (Fail)
//Storyboard Layer 2 (Pass)
//Storyboard Layer 3 (Foreground)
//Storyboard Sound Samples
Sample,43482,0,"soft-hitclap.wav",70
Sample,43818,0,"soft-hitclap.wav",70
Sample,45679,0,"soft-hitclap.wav",70

[TimingPoints]
-3,428.571768074445,4,1,1,100,1,0

[HitObjects]
256,192,1711,12,0,2997,2:0:0:0:
384,64,3425,6,0,P|440:120|464:192,1,140
456,256,4711,1,0,0:0:0:0:
392,304,5139,6,0,L|248:336,1,140
184,296,6425,1,0,0:0:0:0:
104,304,6854,6,0,P|88:240|120:176,2,140
176,264,8997,1,0,0:0:0:0:
96,144,10282,6,0,B|96:64|176:48|192:48,1,140
256,80,11568,1,0,0:0:0:0:
320,128,11997,6,0,L|448:48,1,140
480,120,13282,1,0,0:0:0:0:
448,192,13711,2,0,P|416:256|384:272,2,105
256,192,17139,12,0,18425,0:0:0:0:
128,240,18854,6,0,L|64:336,2,105
72,184,20568,1,0,0:0:0:0:
104,112,20997,1,0,0:0:0:0:
176,80,21425,1,0,0:0:0:0:
248,112,21854,1,0,0:0:0:0:
312,64,22282,6,0,P|360:112|344:192,2,140
392,64,24425,1,0,0:0:0:0:
440,128,24854,1,0,0:0:0:0:
432,208,25282,1,0,0:0:0:0:
376,264,25711,6,0,L|248:184,2,140
328,328,27854,1,0,0:0:0:0:
264,280,28282,1,0,0:0:0:0:
312,216,28711,1,0,0:0:0:0:
360,152,29139,6,0,P|408:112|400:64,2,105
288,192,30854,2,0,L|224:248,3,70
192,240,39425,5,0,2:0:0:0:
160,168,39854,1,0,2:0:0:0:
216,112,40282,2,0,P|264:128|296:144,1,70,0|0,2:2|2:2,2:2:0:0:
344,184,41139,6,0,L|384:168|416:152,1,70,0|0,2:0|2:0,2:0:0:0:
448,224,41997,2,0,P|448:240|416:288,1,70,0|0,2:0|2:0,2:0:0:0:
360,336,42854,5,0,2:0:0:0:
296,288,43282,1,0,2:2:0:0:
232,336,43711,2,0,P|200:352|152:352,1,70,0|0,2:2|2:2,2:2:0:0:
112,296,44568,6,0,L|128:216,2,70,0|0|0,2:0|2:0|2:0,2:0:0:0:
32,288,45854,1,0,2:0:0:0:
64,216,46282,5,0,2:0:0:0:
120,160,46711,1,0,2:0:0:0:
192,192,47139,2,0,P|224:224|240:256,1,70,0|0,2:0|2:0,2:0:0:0:
304,288,47997,5,0,2:0:0:0:
368,240,48425,2,0,L|496:160,1,140,0|0,2:0|2:0,2:0:0:0:
448,96,49711,5,0,2:0:0:0:
392,40,50139,1,0,2:0:0:0:
360,112,50568,2,0,L|280:144,1,70,0|0,2:0|2:0,2:0:0:0:
240,80,51425,5,0,2:0:0:0:
160,80,51854,1,0,2:0:0:0:
128,152,52282,2,0,P|144:184|176:216,2,70,0|0|0,2:0|2:0|2:0,2:0:0:0:
192,104,53568,6,0,P|224:136|240:168,1,70,0|0,2:0|2:0,2:0:0:0:
312,136,54425,1,0,2:0:0:0:
384,168,54854,5,0,2:0:0:0:
448,216,55282,1,0,2:0:0:0:
416,288,55711,2,0,P|368:304|272:272,1,140,0|0,2:0|2:0,2:0:0:0:
224,232,56997,5,0,2:0:0:0:
176,296,57425,2,0,L|96:328,1,70
56,264,58282,5,0,2:0:0:0:
48,184,58711,1,0,2:0:0:0:
56,104,59139,2,0,L|136:88,1,70
192,136,59997,6,0,B|192:216|224:264|288:312,1,210,0|0,2:0|2:0,2:0:0:0:
352,264,61711,2,0,B|344:200|320:144|256:72,1,210,0|0,2:0|2:0,2:0:0:0:
192,120,63425,2,0,B|96:184|64:296,1,210,0|0,2:0|2:0,2:0:0:0:
168,232,66854,2,0,P|264:280|344:232,1,210,0|0,2:0|2:0,2:0:0:0:
344,152,68568,2,0,P|248:104|168:152,1,210,0|0,2:0|2:0,2:0:0:0:
224,208,70282,2,0,L|296:208,6,70,0|0|0|0|0|0|0,2:0|2:0|2:0|2:0|2:0|2:0|2:0,2:0:0:0:
256,136,73282,1,0,2:0:0:0:
64,80,73711,6,0,B|16:160|96:224|80:224,1,140
152,184,74997,1,0,0:0:0:0:
224,216,75425,6,0,L|352:152,1,140
384,224,76711,1,0,0:0:0:0:
392,304,77140,6,0,P|440:288|488:208,2,140
328,256,79283,1,0,0:0:0:0:
256,224,79711,2,0,L|224:304,1,70,0|0,2:0|2:0,2:0:0:0:
168,336,80568,6,0,B|88:304|56:240,1,140
128,208,81854,1,0,0:0:0:0:
208,216,82282,6,0,L|336:136,1,140
392,96,83568,1,0,0:0:0:0:
336,40,83997,2,0,P|272:88|272:120,2,105
256,192,85711,12,0,86997,0:0:0:0:
192,144,87426,6,0,L|128:48,2,105
144,208,89140,1,0,0:0:0:0:
176,280,89569,1,0,0:0:0:0:
224,344,89997,1,0,0:0:0:0:
296,312,90426,1,0,0:0:0:0:
360,264,90854,6,0,P|376:200|328:136,2,140
280,256,92997,1,0,0:0:0:0:
248,184,93426,1,0,0:0:0:0:
280,112,93854,1,0,0:0:0:0:
352,144,94283,6,0,L|400:288,2,140
408,88,96426,1,0,0:0:0:0:
336,56,96854,1,0,0:0:0:0:
272,104,97283,1,0,0:0:0:0:
208,152,97711,6,0,P|176:120|144:56,2,105
160,216,99426,2,0,L|96:264|96:264,3,70
48,200,101139,6,0,L|96:96,2,105
120,232,102853,1,0,0:0:0:0:
192,200,103282,1,0,0:0:0:0:
264,168,103710,1,0,0:0:0:0:
272,88,104139,1,0,0:0:0:0:
200,120,104567,6,0,P|184:168|232:248,2,140
256,64,106710,1,0,0:0:0:0:
328,96,107139,1,0,0:0:0:0:
376,160,107567,1,0,0:0:0:0:
368,240,107996,6,0,L|264:336,2,140
320,176,110139,1,0,0:0:0:0:
248,208,110567,1,0,0:0:0:0:
216,136,110996,1,0,0:0:0:0:
272,80,111425,6,0,P|336:112|368:144,2,105
240,152,113139,2,0,L|176:200|176:200,3,70
232,256,114854,1,0,0:0:0:0:
