osu file format v5

[General]
AudioFilename: Sammi_Cheng_-_Mei_Fei_Se_Wu.mp3
AudioLeadIn: 0
PreviewTime: 52118
Countdown: 1
SampleSet: Normal
StackLeniency: 0.7
Mode: 0
LetterboxInBreaks: 1
EditorDistanceSpacing: 1

[Metadata]
Title:Mei Fei Se Wu
Artist:Sammi Cheng
Creator:Sushi971
Version:Hard
Source:Sammi E-Party
Tags:

[Difficulty]
HPDrainRate:6
CircleSize:4
OverallDifficulty:6
SliderMultiplier:1.8
SliderTickRate:2

[Events]
//Background and Video events
0,0,"26+Mei+Fei+Se+Wu.jpg"
1,400,"Mei fei se wu.avi"
//Break Periods
2,37747,50919
2,107176,119726
//Storyboard Layer 0 (Background)
//Storyboard Layer 1 (Failing)
//Storyboard Layer 2 (Passing)
//Storyboard Layer 3 (Foreground)
//Storyboard Sound Samples
//Background Colour Transformations
3,100,163,162,255

[TimingPoints]
16119,428.571428571429,4,1,0,100,1,0
37333,-100,4,1,0,0,0,0
37761,-100,4,1,0,100,0,0
79547,-100,4,1,0,100,0,0
93261,-100,4,2,0,71,0,0
106869,-100,4,1,0,100,0,0
161833,-100,4,1,0,100,0,0
175440,-100,4,1,0,100,0,0
175547,-100,4,1,0,100,0,0
192261,-100,4,1,0,0,0,0

[Colours]
Combo1 : 128,0,0
Combo2 : 0,128,128
Combo3 : 128,128,128
Combo4 : 255,128,0

[HitObjects]
232,48,16119,2,0,B|336:48,1,90
280,104,16547,2,0,B|176:104,1,90,0|0
232,160,16976,2,0,B|328:160,1,90
280,216,17404,2,2,B|176:216,1,90,2|2
176,288,17833,6,0,B|256:352,1,90
240,272,18261,2,0,B|320:336,1,90
304,256,18690,2,0,B|384:320,1,90,0|0
368,240,19119,2,2,B|448:304,1,90
488,240,19547,5,0
488,168,19761,1,0
488,96,19976,2,0,B|376:96,1,90
408,168,20404,1,0
408,240,20619,1,0
336,240,20833,2,2,B|288:200|344:168,1,90,2|2
344,96,21261,5,0
344,96,21476,1,0
272,96,21690,1,4
272,96,21904,1,0
200,96,22118,1,0
200,96,22333,1,0
128,96,22547,2,4,B|72:96,3,45
83,96,22976,5,0
128,168,23190,2,0,B|192:168,2,45,0|0|8
40,168,23618,1,0
40,256,23833,1,0
128,256,24047,1,2
216,256,24261,1,10
392,256,24690,5,0
437,178,24904,2,0,B|499:178,2,45,0|0|8
349,178,25333,2,0,B|301:178,2,45,0|0|0
392,96,25761,1,2
392,96,25976,1,10
208,96,26404,5,0
208,184,26618,2,0,B|208:256,2,45,0|0|8
208,272,27047,1,0
208,184,27261,1,0
208,96,27476,1,2
208,8,27690,1,10
48,96,28118,5,0
48,184,28333,1,0
48,184,28440,1,0
48,184,28547,1,8
48,272,28761,1,0
48,272,28868,1,0
48,272,28976,1,10
136,272,29190,1,10
224,272,29404,1,4
400,272,29833,5,0
400,184,30047,2,0,B|400:120,1,45
400,96,30261,1,8
312,96,30476,1,0
312,96,30690,1,0
312,184,30904,1,2
312,184,31118,1,10
312,360,31547,5,0
312,272,31761,2,0,B|248:272,1,45
224,272,31976,1,8
224,184,32190,2,0,B|288:184,1,45
312,184,32404,1,0
312,96,32618,1,2
312,96,32833,1,10
128,96,33261,5,0
40,96,33476,2,0,B|40:152,1,45
40,184,33690,1,8
128,184,33904,1,0
128,272,34118,1,0
128,184,34333,1,2
128,96,34547,1,10
288,184,34976,5,0
376,184,35190,1,0
376,139,35297,1,0
376,96,35404,1,8
288,96,35618,1,0
240,96,35726,1,0
192,96,35833,1,10
192,184,36047,1,10
192,184,36261,1,4
256,192,36690,12,4,37547
120,192,52118,5,0
392,192,52547,5,8
248,80,52976,6,0,B|288:120|224:120|264:160,3,90,0|0|8|0
264,248,53833,1,2
400,248,54154,1,0
400,120,54476,2,0,B|328:224|264:160|184:168|191:219|182:264|200:312|144:352,1,360,0|0
72,336,55547,5,0
72,48,55976,5,8
384,184,56404,6,0,B|320:184|320:256,3,90,0|0|8|0
320,328,57261,1,2
224,232,57583,1,0
88,224,57904,2,0,B|176:144|248:144|328:176|320:280|208:320,1,360,0|0
227,311,58976,5,0
227,311,59404,1,8
48,312,59833,6,0,B|48:208,1,90
48,128,60261,1,8
136,128,60476,1,0
224,128,60690,2,0,B|224:232,1,90
224,304,61118,1,8
136,304,61333,1,0
136,216,61547,5,0
136,216,61761,1,0
136,128,61976,1,8
136,128,62190,1,0
256,192,62404,12,2,63690
256,192,64118,12,2,65404
392,192,65833,5,0
120,192,66261,5,8
256,72,66690,5,0
304,152,66904,1,0
208,152,67118,1,8
256,232,67333,1,0
344,208,67547,2,2,B|424:152|344:104,1,135,2|2
208,152,68190,2,2,B|144:232|152:264|240:336|304:320|360:280|384:256|416:232,1,360,2|0
464,296,69261,5,0
464,112,69690,6,0,B|368:112,1,90,8|0
280,112,70118,2,0,B|192:24,3,90,0|0|8|0
128,48,70976,2,2,B|80:56|0:80|144:160,1,180,2|2
130,152,71618,2,2,B|190:177|206:209|230:233|286:249|326:249|366:225|394:200|418:192|434:208|430:265,1,360,2|0
392,336,72690,5,0
120,336,73119,5,8
256,192,73547,5,0
168,192,73761,1,0
208,272,73976,1,8
304,272,74190,1,0
344,192,74404,1,0
304,112,74619,1,0
208,112,74833,1,8
256,192,75047,1,0
344,192,75261,6,0,B|456:192,1,90
496,256,75690,2,0,B|376:256,1,90
424,344,76119,2,2,B|376:280|320:376|256:312,1,180,2|8
256,192,76761,12,4,79119
120,192,79333,5,0
120,192,79547,1,8
392,192,80190,1,0
392,192,80404,1,8
256,56,81047,1,0
256,56,81261,1,8
256,328,81904,1,0
256,237,82119,1,8
256,147,82333,1,0
256,56,82547,1,2
160,56,82761,5,0
72,56,82976,1,8
352,56,83619,1,0
440,56,83833,1,8
352,328,84476,1,0
440,328,84690,1,8
160,328,85333,1,0
72,328,85547,1,8
112,240,85761,1,0
200,240,85976,1,2
288,240,86190,1,0
376,240,86404,6,0,B|384:128|240:168|160:72,1,270,8|0
112,24,87261,2,0,B|16:112|72:160|136:160|168:216|88:256,1,270,8|0
32,304,88119,2,0,B|0:336|32:352|72:360|128:328|208:312|296:344,1,270,8|0
258,246,88976,1,8
208,168,89190,1,0
136,120,89404,1,2
48,104,89619,1,0
136,120,89833,6,0,B|192:40|256:80|304:160,1,180,0|8
368,128,90476,1,0
456,128,90690,2,0,B|504:208|456:328,1,180,0|8
376,304,91333,1,0
288,304,91547,2,0,B|128:304|176:192,1,180,0|8
256,192,92190,1,0
256,192,92404,1,2
256,192,92619,1,0
256,192,92833,1,2
256,192,93047,1,0
256,192,93261,5,4
352,96,93476,6,0,B|400:48,2,45,0|0|2
160,96,93904,6,0,B|112:48,2,45,0|0|2
160,288,94333,6,0,B|112:336,2,45,0|0|2
352,288,94761,6,0,B|400:336,2,45,0|0|2
232,192,95190,6,0,B|288:192,2,45,0|0|2
256,96,95619,5,2
160,192,95833,1,2
256,288,96047,1,2
352,192,96261,1,2
256,96,96476,1,4
256,192,96690,5,2
160,288,96904,6,0,B|112:336,2,45,0|0|2
352,288,97333,6,0,B|400:336,2,45,0|0|2
352,96,97761,6,0,B|400:48,2,45,0|0|2
160,96,98190,6,0,B|112:48,2,45,0|0|2
280,192,98619,6,0,B|224:192,2,45,0|0|2
256,288,99047,5,2
352,192,99261,1,2
256,96,99476,1,2
160,192,99690,1,2
256,288,99904,1,4
256,192,100119,5,2
192,128,100333,5,8
192,128,100440,1,0
192,128,100547,1,2
320,128,100761,5,8
320,128,100869,1,0
320,128,100976,1,2
320,256,101190,5,8
320,256,101297,1,0
320,256,101404,1,2
192,256,101619,5,8
192,256,101726,1,0
192,256,101833,1,2
256,192,102047,5,8
256,192,102154,1,0
256,192,102261,1,2
256,96,102476,5,2
160,192,102690,1,2
256,288,102904,1,2
352,192,103119,1,2
256,96,103333,1,4
256,192,103547,5,2
320,256,103761,5,8
320,256,103869,1,0
320,256,103976,1,2
192,256,104190,5,8
192,256,104297,1,0
192,256,104404,1,2
192,128,104619,5,8
192,128,104726,1,0
192,128,104833,1,2
320,128,105047,5,8
320,128,105154,1,0
320,128,105261,1,2
256,192,105476,5,8
256,192,105583,1,0
256,192,105690,1,2
256,288,105904,5,2
352,192,106119,1,2
256,96,106333,1,2
160,192,106547,1,2
256,288,106761,1,4
256,192,106976,5,4
256,192,120476,5,0
256,192,120690,1,4
256,344,121333,5,0
168,344,121547,1,0
168,256,121761,1,0
256,256,121976,1,2
320,88,122404,2,0,B|432:64|392:176|496:128,1,180,0|2
416,304,123261,2,0,B|336:304,4,45,0|0|0|0|0
336,144,124119,6,0,B|256:96|256:96|168:160,3,180,0|0|0|0
256,312,125833,1,0
256,224,126047,1,0
389,103,126476,1,0
301,103,126690,1,0
213,103,126904,1,0
125,103,127119,1,4
280,192,127547,6,0,B|480:192,1,180,0|8
408,264,128190,1,0
320,264,128404,2,0,B|192:264|164:186,1,180,0|8
120,264,129047,2,0,B|120:328,2,45,0|0|0
128,80,129690,6,0,B|176:48|232:88,1,90,8|0
176,152,130119,2,0,B|224:184|280:136,1,90
320,80,130547,1,8
384,336,130976,5,0
128,336,131404,5,4
213,177,131833,5,0
301,177,132047,1,0
256,96,132261,1,8
128,48,132690,5,0
384,48,133119,5,4
299,207,133547,5,0
213,207,133761,1,0
256,288,133976,1,8
392,192,134404,5,0
120,192,134833,5,8
264,304,135261,6,0,B|224:264|288:264|248:224,3,90,0|0|8|0
248,136,136119,1,2
112,136,136440,1,2
112,264,136761,2,2,B|184:160|248:224|328:216|321:165|330:120|312:72|368:32,1,360,2|0
443,44,137833,5,0
443,340,138261,5,0
128,200,138690,6,0,B|192:200|192:128,3,90,0|0|8|0
192,56,139547,1,2
288,152,139869,1,2
424,160,140190,2,2,B|336:240|264:240|184:208|192:104|304:64,1,360,2|0
285,73,141261,5,0
285,73,141690,1,8
464,72,142119,6,0,B|464:176,1,90
464,256,142547,1,8
376,256,142761,1,0
288,256,142976,2,0,B|288:152,1,90
288,80,143404,1,8
376,80,143619,1,0
376,168,143833,5,0
376,168,144047,1,0
376,256,144261,1,8
376,256,144476,1,0
256,192,144690,12,2,145976
256,192,146404,12,2,147690
120,192,148119,5,0
392,192,148547,5,8
256,312,148976,5,0
208,232,149190,1,0
304,232,149404,1,8
256,152,149619,1,0
168,176,149833,2,2,B|88:232|168:280,1,135,2|2
304,232,150476,2,2,B|368:152|360:120|272:48|208:64|160:112|128:136|104:168,1,360,2|0
48,88,151547,5,0
48,272,151976,6,0,B|144:272,1,90,8|0
232,272,152404,2,0,B|320:360,3,90,0|0|8|0
384,336,153261,2,2,B|464:336|464:272|371:227,1,180,2|2
373,228,153904,2,2,B|312:216|278:187|273:147|217:131|177:131|137:155|109:180|85:188|69:172|73:115,1,360,2|0
120,48,154976,5,0
392,48,155404,5,8
256,192,155833,5,0
344,192,156047,1,0
304,112,156261,1,8
208,112,156476,1,0
168,192,156690,1,0
208,272,156904,1,0
304,272,157119,1,8
256,192,157333,1,0
168,192,157547,6,0,B|56:192,1,90
16,128,157976,2,0,B|136:128,1,90,8|0
88,40,158404,2,2,B|136:104|192:8|256:72,1,180,2|8
256,192,159047,12,4,161404
72,192,161619,5,0
160,192,161833,1,8
440,192,162476,5,0
352,192,162690,1,8
256,192,163333,5,0
256,192,163547,1,8
212,236,164190,5,0
212,148,164404,1,8
300,148,164619,1,0
300,236,164833,1,2
256,312,165047,1,0
256,312,165261,1,8
256,72,165904,5,0
256,72,166119,1,8
256,192,166761,5,0
256,192,166976,1,8
72,192,167619,5,0
120,272,167833,1,8
208,272,168047,1,0
256,192,168261,1,2
208,112,168476,1,0
120,112,168690,1,8
376,192,169333,5,0
376,192,169547,1,8
128,56,170190,5,0
128,56,170404,1,8
128,328,171047,5,0
216,328,171261,1,8
304,328,171476,1,0
392,328,171690,1,2
304,328,171904,1,0
216,328,172119,1,8
256,64,172761,5,0
256,64,172976,1,8
16,192,173619,5,0
16,192,173833,1,8
256,192,174476,5,0
344,192,174690,1,2
344,104,174904,1,0
256,104,175118,1,2
168,104,175333,1,0
168,192,175547,5,0
168,280,175761,1,0
168,280,175868,1,0
168,280,175976,1,8
256,280,176190,1,0
256,192,176404,1,0
168,192,176618,1,2
80,192,176833,1,10
168,40,177261,5,0
256,40,177476,2,0,B|256:112,1,45,0|0
256,128,177690,1,8
344,128,177904,2,0,B|424:128,1,45
432,128,178118,1,0
432,216,178333,1,2
432,216,178547,1,10
248,216,178976,5,0
160,216,179190,1,0
112,216,179297,1,0
64,216,179404,1,8
64,304,179618,1,0
160,304,179833,1,0
248,304,180047,1,2
336,304,180261,1,10
472,192,180690,5,0
384,192,180904,2,0,B|312:192,1,45
296,192,181118,1,8
208,192,181333,2,0,B|280:192,1,45
296,192,181547,1,10
296,280,181761,1,10
296,280,181976,1,4
256,104,182404,6,0,B|208:104|152:144,1,90,0|0
171,131,182726,1,0
171,131,182833,1,8
104,192,183047,1,0
104,280,183261,2,0,B|104:360|192:320,2,90,0|2|10
112,24,184118,6,0,B|136:80|168:8|200:56,1,90
224,72,184440,2,0,B|256:96|272:120,1,45,0|8
296,184,184761,2,0,B|208:184,2,45,0|0|0
384,184,185190,1,2
384,184,185404,1,10
256,312,185833,5,0
256,312,186047,1,0
256,312,186261,1,8
256,312,186476,1,0
256,224,186690,1,0
256,224,186904,1,0
256,224,187118,1,8
256,224,187333,1,0
256,136,187547,6,0,B|256:72,7,45
256,48,188404,6,0,B|256:16,15,22.5
256,192,189261,12,0,192476
