osu file format v9

[General]
AudioFilename: Samira - It Was Him.mp3
AudioLeadIn: 0
PreviewTime: 50759
Countdown: 0
SampleSet: Soft
StackLeniency: 0.7
Mode: 0
LetterboxInBreaks: 1
CountdownOffset: 1

[Editor]
Bookmarks: 41008,131776
DistanceSpacing: 1
BeatDivisor: 4
GridSize: 4

[Metadata]
Title:It was him
Artist:Samira
Creator:Tony
Version:Easy
Source:
Tags:BakaHuang huang99520

[Difficulty]
HPDrainRate:3
CircleSize:3
OverallDifficulty:3
ApproachRate:4
SliderMultiplier:1.1
SliderTickRate:2

[Events]
//Background and Video events
0,0,"bg.jpg"
//Break Periods
2,68363,76445
2,145178,153260
//Storyboard Layer 0 (Background)
//Storyboard Layer 1 (Fail)
//Storyboard Layer 2 (Pass)
//Storyboard Layer 3 (Foreground)
//Storyboard Sound Samples
//Background Colour Transformations
3,100,163,162,255

[TimingPoints]
950,600.120024004801,4,2,0,70,1,0
48959,-100,4,2,0,70,0,1
68163,-100,4,2,0,70,0,0
106571,-100,4,2,0,70,0,1
125774,-100,4,2,0,70,0,0
164182,-100,4,2,0,70,0,1
183386,-100,4,2,0,70,0,0

[Colours]
Combo1 : 255,128,0
Combo2 : 0,128,128
Combo3 : 5,5,240
Combo4 : 101,0,202
Combo5 : 0,0,128

[HitObjects]
152,176,9951,1,0
152,176,10551,2,0,B|152:80|152:80|200:32|264:80,1,220,4|2
324,172,12352,1,8
264,264,12952,2,0,B|160:304|160:304|56:264,1,220,2|2
116,172,14752,5,8
180,84,15352,2,0,B|292:84,2,110,2|0|2
116,172,17153,1,8
224,172,17753,2,0,B|280:172|280:172|320:212,1,110,2|0
428,212,18953,1,2
224,300,20153,6,0,B|152:300|152:300|112:204,2,165,8|8|0
224,188,22554,2,0,B|296:188|296:188|336:284,2,165,8|8|0
116,188,24954,6,0,B|43:188|43:188|24:100,2,165,8|8|0
180,96,27355,1,8
288,96,27955,1,0
368,172,28555,1,8
288,248,29155,1,0
208,172,29755,6,0,B|88:172,2,110,2|0|0
320,172,31556,2,0,B|372:144|424:172,1,110,2|0
364,264,32756,2,0,B|312:292|260:264,1,110,2|0
196,172,33956,1,0
156,68,34556,6,0,B|44:68,3,110,2|0|2|0
46,123,36657,2,0,B|46:179,1,55
156,176,37557,1,0
248,236,38157,1,2
156,296,38757,1,0
348,192,39957,6,0,B|348:248|348:248|396:304,2,110,2|0|2
272,112,41758,1,0
196,192,42358,2,0,B|196:256|196:256|156:288,2,110,2|0|2
120,112,44158,1,0
256,192,44758,12,2,47759
48,184,48959,6,0,B|48:128|48:128|104:88,2,110,4|8|0
148,232,50759,1,8
248,184,51360,2,0,B|248:128|248:128|192:88,2,110,0|8|0
248,292,53160,1,8
144,328,53760,5,4
40,292,54360,1,8
40,184,54960,1,0
144,148,55560,1,8
248,184,56161,2,0,B|300:152|352:184,2,110,0|8|0
296,284,57961,1,8
188,280,58561,6,0,B|92:280|76:168,2,165,4|8|0
256,192,60962,2,0,B|352:192|368:304,2,165,4|8|0
196,100,63362,5,4
164,204,63962,2,0,B|85:204,2,55,0|8|0
196,308,65162,1,0
256,192,65762,12,4,68163
80,72,77765,5,4
80,184,78365,2,0,B|80:300,1,110,0|8
172,232,79565,1,0
256,160,80165,5,8
356,208,80765,2,0,B|356:328,1,110,0|8
248,300,81966,1,0
148,260,82566,5,8
104,160,83166,2,0,B|32:160,2,55,0|0|8
148,60,84366,1,0
256,80,84966,5,8
328,164,85566,2,0,B|392:164,2,55,0|0|8
328,276,86767,1,0
216,276,87367,5,4
196,56,88567,1,0
368,192,89767,2,0,B|400:240|400:240|368:284,2,110,2|0|2
256,192,91568,5,8
256,192,92168,1,4
146,192,92768,2,0,B|90:192|42:224,1,110,8|0
60,332,93968,2,0,B|116:332|164:300,1,110,8|0
272,300,95168,2,0,B|384:300,2,110,8|0|8
272,188,96969,5,4
162,188,97569,2,0,B|102:164|54:188,1,110,8|0
124,272,98769,2,0,B|176:300|228:272,1,110,8|0
340,272,99969,1,8
424,200,100569,1,0
340,128,101170,1,8
232,128,101770,5,4
160,204,102370,2,0,B|107:187|107:187|54:204,1,110,8|0
112,300,103570,2,0,B|165:317|165:317|218:300,1,110,8|0
256,192,104770,12,4,106571
256,192,107171,5,8
178,114,107771,1,0
100,191,108371,2,0,B|100:303,1,110,8|0
209,301,109571,2,0,B|327:301,1,110,8|0
384,212,110771,1,8
324,120,111372,1,4
216,116,111972,6,0,B|152:124|128:180,1,110,8|0
129,284,113172,2,0,B|151:335|215:343,1,110,8|0
320,316,114372,1,8
320,208,114972,2,0,B|438:208,1,110,0|8
420,100,116173,6,0,B|323:156|272:37,2,165,4|8|0
424,208,118573,2,0,B|327:152|276:270,2,165,4|8|0
360,300,120974,6,0,B|291:388|200:296,1,165,4|8
52,312,122774,1,0
256,192,123374,12,4,125774
256,192,126375,6,0,B|256:76,2,110,8|0|8
160,248,128175,1,0
256,304,128775,1,8
352,248,129375,1,0
256,192,129975,1,8
144,192,130575,6,0,B|88:176|64:120,1,110,0|8
144,48,131776,2,0,B|200:64|224:120,1,110,0|8
248,224,132976,1,0
140,224,133576,1,8
140,332,134176,1,0
248,328,134776,1,8
344,276,135376,6,0,B|344:188|416:132,2,165,4|8|0
248,224,137777,2,0,B|248:136|320:80,2,165,4|8|0
360,224,140177,5,4
360,332,140777,2,0,B|432:332,2,55,0|8|0
248,328,141978,1,0
256,192,142578,12,0,144978
256,192,154580,6,0,B|192:192,2,55,4|0|8
352,136,155780,1,0
352,248,156381,1,8
256,192,156981,6,0,B|320:192,2,55,4|0|8
160,136,158181,1,0
160,248,158781,1,8
256,192,159381,6,0,B|312:184|352:136,2,110,0|8|0
256,304,161182,1,8
256,192,161782,12,0,163582
256,192,164182,6,0,B|256:136|256:136|200:96,2,110,4|8|0
144,192,165983,1,8
256,192,166583,2,0,B|256:248|256:248|312:288,2,110,4|8|0
256,80,168383,1,8
144,80,168983,5,4
80,168,169583,1,8
144,256,170183,1,0
208,168,170783,1,8
320,168,171384,2,0,B|372:132|428:172,2,110,4|8|0
320,280,173184,1,8
210,280,173784,6,0,B|114:280|98:168,2,165,4|8|0
210,169,176185,2,0,B|306:169|322:57,2,165,4|8|0
100,169,178585,5,4
100,278,179185,2,0,B|179:278,2,55,0|8|0
100,169,180385,1,0
256,192,180986,12,4,183386
