osu file format v9

[General]
AudioFilename: DR.Nightcore - It Was Him.mp3
AudioLeadIn: 2000
PreviewTime: 57339
Countdown: 0
SampleSet: Soft
StackLeniency: 0.7
Mode: 0
LetterboxInBreaks: 0

[Editor]
DistanceSpacing: 1.1
BeatDivisor: 4
GridSize: 4

[Metadata]
Title:It Was Him (Nightcore Mix)
Artist:Samira
Creator:-Bakari-
Version:gInsane
Source:
Tags:Black_Cherry_Ita grumd Kurisuchianu BCI

[Difficulty]
HPDrainRate:7
CircleSize:4
OverallDifficulty:7
ApproachRate:8
SliderMultiplier:2.7
SliderTickRate:1

[Events]
//Background and Video events
0,0,"bg.jpg"
//Break Periods
//Storyboard Layer 0 (Background)
//Storyboard Layer 1 (Fail)
//Storyboard Layer 2 (Pass)
//Storyboard Layer 3 (Foreground)
//Storyboard Sound Samples
//Background Colour Transformations
3,100,163,162,255

[TimingPoints]
-1226,585.651537335286,4,2,0,45,1,0
238,-166.666666666667,4,2,0,35,0,0
10487,-100,4,2,0,50,0,0
47968,-100,4,2,0,50,0,1
56753,-100,4,2,0,50,0,0
57339,-100,4,2,0,55,0,1
66709,-100,4,2,0,55,0,0
82522,-100,4,2,0,48,0,0
82668,-100,4,2,0,45,0,0
82814,-100,4,2,0,40,0,0
83107,-100,4,2,0,35,0,0
83400,-100,4,2,0,30,0,0
83693,-100,4,2,0,25,0,0

[Colours]
Combo1 : 106,85,106
Combo2 : 214,204,120
Combo3 : 131,165,163

[HitObjects]
422,240,238,1,0
352,296,530,1,2
268,328,823,1,0
224,336,970,2,0,B|160:332|120:272,1,121.500002896786,0|0
88,196,1702,1,2
152,132,1995,1,0
196,140,2141,1,0
312,208,2580,5,0
348,128,2873,1,2
292,60,3166,1,0
248,52,3312,2,0,B|204:64|176:100|180:144,1,121.500002896786,0|0
268,148,4044,2,0,B|268:204|216:224,1,81.0000019311905,2|0
188,224,4484,1,0
120,340,4923,6,0,B|148:308|192:308,1,81.0000019311905,0|2
280,304,5508,2,2,B|288:244,1,40.5000009655953,0|0
264,132,6094,2,0,B|275:51,1,81.0000019311905,0|2
364,44,6680,1,0
364,44,6826,2,0,B|348:168,1,121.500002896786,4|0
344,252,7558,6,0,B|296:252|268:204,1,81.0000019311905,2|0
248,180,7998,1,0
164,284,8437,1,0
77,302,8730,1,2
105,217,9022,1,0
105,217,9169,1,0
196,120,9608,6,0,B|164:96|120:96,2,81.0000019311905,0|2|0
240,124,10340,1,0
280,108,10487,6,0,B|284:144|304:172,1,67.5,4|0
376,156,10779,2,0,B|380:192|368:224|336:248|296:244,1,135,8|2
236,280,11219,1,0
160,276,11365,1,8
236,280,11511,2,0,B|220:240|240:204|240:204|212:208|180:204,1,135,0|0
112,212,11951,5,8
68,272,12097,1,0
40,204,12243,2,0,B|48:160|72:140|116:132|140:144,1,135,2|8
212,160,12683,2,2,B|232:132|232:132|212:64|212:64|232:40,1,135,0|0
304,20,13122,1,8
337,87,13268,1,0
410,76,13415,1,2
460,132,13561,2,0,B|452:168|464:204,1,67.5,0|8
450,270,13854,2,0,B|408:333|331:331,1,135,0|0
264,316,14293,5,8
192,332,14440,1,0
128,292,14586,2,0,B|92:296|68:324|68:324|56:256,1,135,2|8
80,188,15025,2,0,B|116:120|84:56,1,135,0|0
156,32,15465,1,8
204,88,15611,1,0
176,156,15757,2,0,B|172:192|152:224,1,67.5,2|0
200,276,16050,1,8
264,316,16197,6,0,B|296:328|329:320|329:320|353:294|352:257,1,135,0|0
348,182,16636,1,8
418,157,16782,1,0
492,148,16929,2,0,B|484:108|461:85|423:74|385:88,1,135,2|8
320,108,17368,2,0,B|256:144|192:108,1,135,0|0
120,80,17807,2,0,B|60:200,2,135,8|2|8
180,36,18539,1,0
400,68,18978,6,0,B|364:136|416:192,1,135,8|2
472,244,19418,1,0
400,264,19564,1,8
396,336,19711,2,0,B|355:333|334:295|334:295|272:308,1,135,0|0
204,324,20150,1,8
148,276,20296,1,0
108,336,20443,2,0,B|48:300|48:300|48:232,1,135,2|8
116,208,20882,2,0,B|116:72,1,135,0|0
48,104,21321,6,0,B|68:136|68:136|112:156|168:152,1,135,8|2
208,92,21760,1,0
280,80,21907,1,8
332,28,22053,2,0,B|376:80|376:80|408:92|448:84,1,135,0|0
464,156,22492,1,8
412,208,22639,1,0
484,228,22785,1,2
432,280,22932,2,0,B|432:316|404:340,1,67.5,0|8
356,280,23224,2,0,B|288:268|224:304,1,135,0|0
160,340,23664,5,8
92,312,23810,1,0
112,240,23957,2,0,B|152:252|152:252|200:244|232:208,1,135,2|8
304,228,24396,2,2,B|320:160|276:100,1,135,0|0
204,124,24835,1,8
160,64,24981,1,0
104,112,25128,2,0,B|76:136|68:176,2,67.5,2|0|8
160,64,25567,6,0,B|228:72|296:48,1,135,0|0
360,84,26006,2,0,B|336:128|356:180|404:192,2,135,8|2|8
436,76,26738,2,0,B|435:100|424:121|424:121|468:135|477:188,1,135,0|0
455,258,27178,2,0,B|439:298|407:318|407:318|351:310,1,135,8|2
278,330,27617,1,0
215,289,27763,1,8
145,316,27910,1,0
436,100,28935,5,0
436,100,29227,2,0,B|404:80|352:68|288:84|252:144,1,202.5,2|0
188,108,29813,2,0,B|152:52,1,67.5,0|0
84,80,30106,2,0,B|164:204,1,135,2|0
104,244,30545,2,0,B|104:280|124:312,1,67.5,0|2
180,264,30838,2,0,B|200:296|231:312,1,67.5,0|2
376,324,31277,5,0
403,177,31570,2,0,B|412:104|464:60,2,135,2|0|0
448,236,32302,1,0
468,308,32448,2,0,B|424:348|368:348|316:324|296:264,1,202.5,2|0
368,244,33034,2,0,B|340:176|268:160,1,135,2|0
136,92,33620,5,2
172,236,33913,2,0,B|220:248|220:248|256:284|256:284|292:248|292:248|340:236,2,202.5,0|0|2
108,200,34937,2,2,B|96:168|96:168|104:132,1,67.5,0|0
160,88,35230,2,0,B|192:88|192:88|224:76|224:76|256:92|256:92|288:76|288:76|320:88|320:88|352:88,1,202.5,2|2
416,120,35816,1,0
448,188,35962,1,0
432,260,36109,1,0
396,324,36255,6,0,B|328:328|272:280,1,135,2|0
201,259,36694,1,0
156,200,36841,2,0,B|112:148|112:148|72:132|36:156,2,135,2|0|0
356,184,37719,2,0,B|400:236|400:236|440:252|476:228,2,135,0|2|0
352,332,38598,6,0,B|316:340|280:328,1,67.5,2|0
220,292,38891,1,0
152,320,39037,2,0,B|80:312|48:244,1,135,2|0
44,92,39623,5,0
124,216,39916,1,2
192,88,40208,2,0,B|220:84|220:84|256:100|256:100|292:84|292:84|320:88,1,135,2|0
364,147,40648,1,2
436,165,40794,1,0
385,219,40940,6,0,B|353:251|353:251|257:271,2,135,2|0|2
127,165,41819,2,0,B|159:133|159:133|255:113,2,135,0|2|0
24,272,42697,2,0,B|52:252|92:256,1,67.5,2|0
132,316,42990,2,0,B|168:319|196:299,1,67.5,2|0
212,228,43283,1,2
316,332,43576,6,0,B|384:324|384:324|416:304|428:264,2,135,2|2|0
324,256,44308,2,0,B|332:225|364:205|364:205|432:197,2,135,2|2|2
256,192,45186,12,4,46651
408,64,47383,6,0,B|344:80|344:80|320:56|280:56,1,135,2|8
288,132,47822,1,0
220,100,47968,6,0,B|160:68|88:72,1,135,4|8
68,144,48407,2,0,B|32:204,1,67.5,0|2
104,228,48700,2,0,B|120:296,1,67.5,0|8
180,336,48993,2,0,B|228:288|228:288|264:280|296:296,1,135,0|0
352,340,49432,2,0,B|408:304,1,67.5,8|0
448,240,49725,5,2
384,196,49872,1,0
452,164,50018,1,8
432,92,50164,2,0,B|364:96|308:40,1,135,0|0
248,88,50604,2,0,B|296:140|288:216,1,135,8|2
344,264,51043,1,0
416,278,51189,1,8
368,335,51336,2,0,B|304:355|304:355|236:343,1,135,0|0
272,276,51775,6,0,B|132:248,1,135,8|2
76,288,52214,2,0,B|64:320|64:356,2,67.5,0|8|0
76,212,52653,6,0,B|100:184|100:184|164:180|164:180|188:152,1,135,2|8
168,84,53093,1,0
160,12,53239,2,0,B|128:16|96:40|86:81|104:116,1,135,2|8
160,156,53678,2,0,B|296:176,2,135,0|0|0
168,84,54410,2,0,B|272:100,1,67.5,2|0
300,56,54703,2,0,B|404:72,1,67.5,8|0
436,96,54996,6,0,B|396:160|396:160|396:196|420:224,1,135,2|8
472,260,55435,1,0
404,288,55582,2,0,B|352:328|276:328,1,135,2|8
204,316,56021,2,0,B|212:276|248:260|248:260|260:232|256:200,2,135,0|0|0
128,320,56753,2,0,B|92:312|60:328,1,67.5,4|0
24,264,57046,2,0,B|51:245|62:210,1,67.5,8|0
40,140,57339,6,0,B|64:72|144:56,1,135,4|8
188,112,57778,1,0
208,40,57924,1,2
280,16,58071,1,0
336,64,58217,2,0,B|340:104|380:120,1,67.5,8|0
408,52,58510,2,0,B|472:84|472:84|472:152,1,135,2|8
472,220,58949,1,0
408,260,59096,6,0,B|408:328,1,67.5,2|0
336,304,59388,2,0,B|336:236,1,67.5,8|0
388,184,59681,2,0,B|360:160|324:156|288:168|272:204,1,135,2|8
232,264,60120,1,0
180,320,60267,2,0,B|152:344|116:336,1,67.5,2|0
60,288,60560,1,8
132,264,60706,2,0,B|132:188|68:148,1,135,0|0
80,76,61145,5,8
144,36,61292,2,0,B|208:68,1,67.5,0|2
156,124,61585,2,0,B|220:156,1,67.5,0|8
268,100,61877,1,0
340,116,62024,6,0,B|416:132|464:80,2,135,2|8|2
272,248,62902,1,8
336,284,63049,2,0,B|400:260,2,67.5,0|0|0
272,324,63488,2,0,B|204:304|140:332,2,135,8|2|8
336,284,64220,1,0
408,304,64366,6,0,B|436:244|424:168,1,135,2|8
404,100,64806,2,0,B|368:112|356:144|356:144|324:160|288:152,1,135,2|0
108,284,65391,2,0,B|144:272|156:240|156:240|188:224|224:232,2,135,2|0|0
84,212,66123,5,2
76,64,66416,1,8
148,88,66563,1,0
212,48,66709,6,0,B|276:80,1,67.5,4|0
324,24,67002,2,0,B|376:72,1,67.5,8|0
448,88,67295,1,2
396,140,67441,1,0
468,160,67588,1,8
468,234,67734,2,0,B|492:298|492:298|452:294|420:310,1,135,0|0
356,332,68173,1,8
312,272,68320,2,0,B|276:216,1,67.5,0|2
348,192,68612,2,0,B|340:124,1,67.5,0|8
296,64,68905,6,0,B|248:116|164:132,1,135,0|0
116,88,69345,1,8
84,156,69491,2,0,B|52:176|40:208,1,67.5,0|2
112,228,69784,2,0,B|94:261|99:295,1,67.5,0|8
172,276,70077,2,0,B|168:312|180:344|180:344|244:368,1,135,0|0
300,320,70516,1,8
336,256,70662,1,0
376,320,70809,1,2
424,264,70955,2,0,B|420:228|436:200,1,67.5,0|8
472,132,71248,6,0,B|440:72|440:72|376:48,1,135,0|0
340,112,71687,2,0,B|276:88,1,67.5,8|0
244,156,71980,2,0,B|180:132,1,67.5,2|0
152,64,72273,1,8
108,124,72419,6,0,B|60:144|44:200|44:200|56:236,1,135,0|0
128,236,72858,2,0,B|184:368,1,135,8|2
256,348,73298,1,0
256,348,73444,1,8
331,360,73590,2,0,B|384:236,1,135,0|0
457,231,74030,2,2,B|468:200|468:200|452:144|404:124,1,135,8|2
428,52,74469,2,0,B|384:40|356:68,1,67.5,0|8
328,128,74762,2,0,B|256:120|232:40,1,135,0|0
160,60,75201,5,8
112,116,75347,1,0
184,132,75494,1,2
244,172,75640,2,0,B|268:240,1,67.5,0|8
200,268,75933,2,0,B|127:287|71:247,1,135,0|0
64,172,76372,1,8
112,116,76519,1,0
136,184,76665,2,0,B|208:203|264:163,1,135,2|8
227,97,77104,2,0,B|275:49|355:57,1,135,0|0
424,76,77544,6,0,B|400:140,1,67.5,8|0
464,180,77836,2,0,B|416:232,1,67.5,2|0
452,296,78129,1,8
376,292,78276,2,0,B|308:272|308:272|288:244|288:212,1,135,0|0
348,172,78715,1,8
364,100,78861,1,0
300,64,79008,2,0,B|228:64,2,67.5,2|0|8
364,100,79447,2,0,B|340:136|296:136|296:136|240:136,1,135,0|0
168,120,79886,5,8
116,68,80033,1,0
48,96,80179,2,0,B|36:168|84:224,1,135,2|8
52,292,80618,2,0,B|96:352|96:352|128:356|160:340,1,135,0|0
196,280,81058,1,8
228,348,81204,1,0
300,356,81350,1,2
364,320,81497,2,0,B|400:312|428:292,1,67.5,0|8
376,240,81790,6,0,B|440:212|472:148,1,135,0|0
444,80,82229,1,8
372,60,82375,1,0
308,96,82522,2,0,B|260:120|204:100|204:100|176:60,1,135,2|8
128,32,82961,2,0,B|108:96|108:96|60:152,1,135,0|0
100,212,83400,2,0,B|160:256|148:332,2,135,8|2|8
152,156,84132,1,0
