osu file format v9

[General]
AudioFilename: DR.Nightcore - It Was Him.mp3
AudioLeadIn: 2000
PreviewTime: 57339
Countdown: 0
SampleSet: Soft
StackLeniency: 0.7
Mode: 0
LetterboxInBreaks: 0

[Editor]
DistanceSpacing: 1
BeatDivisor: 2
GridSize: 4

[Metadata]
Title:It Was Him (Nightcore Mix)
Artist:Samira
Creator:-Bakari-
Version:Normal
Source:
Tags:Black_Cherry_Ita grumd Kurisuchianu BCI

[Difficulty]
HPDrainRate:3
CircleSize:4
OverallDifficulty:3
ApproachRate:4
SliderMultiplier:1.5
SliderTickRate:2

[Events]
//Background and Video events
0,0,"bg.jpg"
//Break Periods
//Storyboard Layer 0 (Background)
//Storyboard Layer 1 (Fail)
//Storyboard Layer 2 (Pass)
//Storyboard Layer 3 (Foreground)
//Storyboard Sound Samples
//Background Colour Transformations
3,100,163,162,255

[TimingPoints]
-1226,585.651537335286,4,2,0,45,1,0
47968,-100,4,2,0,45,0,1
56753,-100,4,2,0,45,0,0
57339,-100,4,2,0,45,0,1
66709,-100,4,2,0,45,0,0
83107,-100,4,2,0,35,0,0
83693,-100,4,2,0,20,0,0

[Colours]
Combo1 : 106,85,106
Combo2 : 214,204,120
Combo3 : 131,165,163

[HitObjects]
180,92,238,1,0
180,92,530,2,0,B|256:60|332:96,1,150
328,244,1702,2,0,B|256:286|176:242,2,150,0|2|0
332,92,3459,5,0
180,92,4044,1,0
304,176,4630,6,0,B|348:252|288:344,2,150,2|0|0
228,172,6094,2,0,B|188:148|144:176,1,75,0|2
188,236,6680,1,0
224,304,6973,2,0,B|188:328|148:300,1,75
112,240,7558,6,0,B|48:240|20:180|40:132,1,150,2|0
112,160,8437,1,0
112,84,8730,2,0,B|176:84|204:144|184:192,1,150,2|0
172,260,9608,2,0,B|164:308|208:324,2,75
244,260,10487,6,0,B|292:260|292:208,1,75,4|0
224,184,11072,2,0,B|224:136|288:136,1,75,8|0
344,164,11658,1,2
360,236,11951,1,0
432,252,12243,2,0,B|432:196|404:172,1,75,8|0
344,164,12829,5,4
272,136,13122,1,0
324,80,13415,2,0,B|368:72|396:92,1,75,8|0
468,116,14000,2,0,B|440:156|408:196,1,75,2|0
432,252,14586,1,8
378,305,14879,1,0
304,312,15172,6,0,B|248:312|248:252,1,75,4|0
240,196,15757,2,0,B|292:196|292:136,1,75,8|0
224,124,16343,2,0,B|224:68|276:68,1,75,2|0
340,72,16929,2,0,B|388:72|388:124,1,75,8|0
376,192,17514,6,0,B|396:232|456:240,1,75,4|0
448,160,18100,1,8
388,116,18393,1,0
320,148,18686,1,2
200,232,19271,6,0,B|244:156|196:88,2,150,8|4|8
124,236,20735,1,0
124,160,21028,1,2
124,84,21321,1,0
48,88,21614,2,0,B|0:168|64:248,2,150,8|4|8
124,84,23078,6,0,B|172:56|128:-8,2,75,0|2|0
180,128,23957,1,8
233,181,24249,1,0
286,234,24542,1,4
433,209,25128,2,0,B|380:264|480:292|409:369,2,150,8|2|8
312,120,26885,6,0,B|296:160|316:204,1,75,4|0
380,160,27470,2,0,B|388:116|428:88,1,75,8|0
452,164,28056,2,0,B|452:208|400:232,2,75,2|0|8
336,260,29227,6,0,B|232:268|224:156,2,150,4|8|0
396,216,30692,1,0
416,144,30984,1,8
380,80,31277,1,0
304,68,31570,6,0,B|216:96|228:184,1,150,2|8
175,229,32448,2,0,B|107:173|35:229,2,150,2|0|0
232,180,33913,6,0,B|192:216|164:240,1,75,4|0
139,297,34498,2,0,B|101:326|67:294,1,75,8|0
39,227,35084,2,0,B|25:154,2,75,0|0|8
185,260,36255,6,0,B|255:307|325:259,1,150,0|8
324,116,37427,2,0,B|254:70|172:120,2,150,0|8|4
182,114,39183,6,0,B|146:138|144:176,1,75,8|0
141,251,39769,2,0,B|144:296|179:317,1,75,0|0
242,279,40355,2,0,B|196:264|196:172|244:156,1,150,8|2
288,220,41233,5,0
316,288,41526,2,0,B|368:280|380:232,1,75,8|0
372,172,42112,2,0,B|320:172|320:112,1,75
348,56,42697,2,0,B|384:37|426:12,2,75,8|0|4
272,56,43576,5,0
200,28,43869,2,0,B|164:0|112:32,1,75,8|0
160,92,44454,2,0,B|136:128|160:176,1,75
220,204,45040,2,0,B|256:224|292:204,1,75,8|0
352,160,45626,6,0,B|368:120|352:88,1,75,2|0
328,12,46211,2,0,B|256:56|176:8,1,150,0|0
260,144,47383,1,2
312,92,47675,1,0
376,124,47968,6,0,B|376:180|444:180,1,75,4|0
420,252,48554,2,0,B|404:300|360:300,1,75,8|0
292,280,49140,2,0,B|256:260|272:212,1,75,2|0
344,224,49725,1,8
332,148,50018,1,0
332,72,50311,6,0,B|388:72|388:16,2,75,4|0|2
256,72,51189,1,0
184,72,51482,2,0,B|136:72|136:120,1,75,2|0
134,192,52068,1,8
189,245,52361,1,0
242,298,52653,6,4,B|300:300|304:236,1,75,4|0
299,185,53239,2,0,B|300:128|368:132,1,75,8|0
370,202,53825,2,0,B|446:234|422:330,1,150,2|8
292,248,54996,5,4
216,248,55289,1,0
192,176,55582,1,8
256,136,55875,1,0
320,172,56167,2,0,B|372:172|372:108,2,75,2|0|8
404,296,57339,5,4
328,296,57631,1,0
280,356,57924,2,0,B|232:340|232:256|280:236,1,150,8|2
328,296,58803,1,0
360,228,59096,5,8
280,236,59388,2,0,B|284:176|336:156,1,75,0|4
368,120,59974,1,0
332,56,60267,1,8
260,76,60560,2,0,B|260:132|200:132,2,75,0|2|0
184,64,61438,1,8
332,56,62024,5,4
385,109,62317,1,0
331,162,62610,1,8
277,215,62902,1,0
223,161,63195,2,0,B|143:161,2,75,2|0|8
152,28,64366,5,4
256,136,64952,1,8
356,24,65538,1,2
292,64,65831,2,0,B|256:44|220:64,2,75,0|4|0
256,132,66709,5,4
200,184,67002,1,0
220,256,67295,1,8
296,256,67588,1,0
316,183,67880,2,0,B|392:131|348:43,1,150,2|8
280,60,68759,1,0
237,121,69052,6,0,B|221:205|129:217,1,150,4|8
116,288,69930,1,0
192,284,70223,2,0,B|256:356,2,75,2|0|8
256,244,71101,1,0
280,172,71394,5,4
204,172,71687,1,0
128,168,71980,2,0,B|93:179|52:168|28:128|40:80,2,150,8|2|8
108,100,73444,1,0
88,28,73737,6,0,B|123:17|164:32|192:72|180:120,2,150,4|2|4
20,60,75201,2,0,B|-8:100|24:164,1,75,0|8
48,200,75787,1,0
124,204,76080,6,0,B|200:176|180:80,1,150,4|8
256,92,76958,1,0
252,166,77251,2,0,B|309:167|331:112,1,75,2|0
256,92,77836,2,0,B|285:54|333:65,1,75,8|0
383,104,78422,6,0,B|418:123|474:105|489:71|481:33,2,150,4|8|4
357,174,79886,1,0
400,235,80179,2,0,B|365:259|326:235,1,75,2|0
286,176,80765,6,0,B|278:138|293:104|349:86|384:105,1,150,4|2
386,29,81643,1,0
384,104,81936,2,0,B|436:116|432:168,1,75
464,224,82522,2,0,B|536:288|472:352,2,150,8|4|8
428,292,83986,1,0
352,292,84279,1,2
