osu file format v9

[General]
AudioFilename: Emotion.mp3
AudioLeadIn: 1500
PreviewTime: 135488
Countdown: 0
SampleSet: Soft
StackLeniency: 0.4
Mode: 0
LetterboxInBreaks: 1

[Editor]
Bookmarks: 41714
DistanceSpacing: 1.19
BeatDivisor: 4
GridSize: 8

[Metadata]
Title:Emotion
Artist:SamiPale
Creator:eveless
Version:Bang Bang Bang
Source:Gundam SEED Destiny
Tags:Colin Hou Pokie

[Difficulty]
HPDrainRate:6
CircleSize:4
OverallDifficulty:6
ApproachRate:8
SliderMultiplier:1.7
SliderTickRate:1

[Events]
//Background and Video events
0,0,"BG.jpg"
//Break Periods
2,84591,96028
2,149624,164351
//Storyboard Layer 0 (Background)
//Storyboard Layer 1 (Fail)
//Storyboard Layer 2 (Pass)
//Storyboard Layer 3 (Foreground)
//Storyboard Sound Samples
//Background Colour Transformations
3,100,163,162,255

[TimingPoints]
779,387.096774193548,4,2,1,60,1,0
58843,-100,4,2,1,75,0,0
84391,-100,4,2,1,70,0,0
136262,-100,4,2,1,75,0,0
137037,-100,4,2,1,80,0,0
164908,-200,4,2,1,75,0,0
171875,-133.333333333333,4,2,1,75,0,0
172456,-200,4,2,1,65,0,0
173617,-100,4,2,1,60,0,0
174391,-133.333333333333,4,2,1,60,0,0
175359,-200,4,2,1,60,0,0
175940,-133.333333333333,4,2,1,60,0,0
176908,-100,4,2,1,60,0,0
179424,-100,4,2,1,60,0,0

[Colours]
Combo1 : 166,103,241
Combo2 : 255,128,128
Combo3 : 253,201,166
Combo4 : 249,216,62

[HitObjects]
128,192,779,2,0,B|120:128|168:96,1,85,4|0
216,168,1166,2,0,B|248:112|312:80,2,127.5,0|2|0
295,198,1940,2,0,B|319:248|293:297,1,85,0|2
376,320,2327,6,0,B|400:240|368:152,1,170,2|0
278,63,3004,1,2
150,63,3295,1,0
77,106,3488,2,0,B|37:146|69:210,1,85,2|0
88,264,3875,6,0,B|136:232|136:176,1,85,2|0
192,136,4262,2,0,B|232:184|216:264,2,127.5,0|2|0
256,80,5037,2,0,B|280:112|336:128,1,85,2|0
411,125,5424,6,0,B|445:208|368:293,1,170,4|0
134,282,6004,2,0,B|67:208|101:125,1,170,2|0
256,152,6585,2,0,B|256:248,1,85,8|0
256,322,6972,5,4
316,261,7166,1,0
363,190,7359,1,8
330,111,7553,1,0
256,152,7746,1,0
179,114,7940,1,0
140,189,8133,1,8
188,258,8327,1,0
256,322,8520,5,0
316,261,8714,1,0
376,321,8908,1,8
435,261,9101,1,0
376,321,9295,5,0
316,261,9488,1,0
256,322,9682,1,8
188,258,9875,1,0
256,208,10069,6,0,B|256:112,1,85
256,37,10456,1,8
256,37,10649,1,0
112,176,10843,6,0,B|112:288,1,85
112,346,11230,1,8
112,346,11424,1,8
196,346,11617,6,0,B|258:282|254:188,1,170,0|8
316,346,12198,2,0,B|254:282|255:190,1,170
256,104,12778,1,8
256,16,12972,1,0
256,104,13166,6,0,B|184:136|176:208,2,127.5,4|8|8
332,67,13940,1,0
391,126,14133,1,8
349,200,14327,1,8
265,184,14520,1,0
204,244,14714,6,0,B|160:319|53:313,1,170,0|8
58,228,15295,1,8
117,168,15488,1,0
193,129,15682,1,8
280,112,15875,1,8
365,112,16069,1,0
440,144,16262,6,0,B|456:240|392:304,1,170,0|8
117,301,16843,2,0,B|56:240|72:144,1,170,8|8
256,256,17424,2,0,B|256:176,2,42.5,4|0|0
256,344,17811,6,0,B|304:320,1,42.5,0|8
396,324,18101,2,0,B|429:279,1,42.5,0|8
432,192,18391,2,0,B|408:144,1,42.5,0|8
312,144,18682,2,0,B|256:128,1,42.5,0|8
216,216,18972,2,0,B|168:264,3,42.5,0|8|0|8
185,185,19359,5,4
140,92,19553,2,0,B|95:69|47:75,2,85,0|2|0
230,45,20133,2,0,B|312:40|396:104,1,170,0|2
243,242,20908,2,0,B|163:274|75:234,1,170,0|2
31,144,21488,1,0
92,338,21875,1,2
92,338,21972,1,0
92,338,22069,1,2
256,216,22456,6,0,B|264:160|256:120,2,85,0|2|0
256,318,23037,1,0
64,248,23424,1,2
64,248,23617,1,2
256,184,24004,6,0,B|272:144|256:88,1,85,0|2
172,52,24391,2,0,B|124:50|68:75,1,85,0|2
168,264,24972,1,0
168,264,25166,1,2
239,335,25359,1,2
239,335,25553,1,4
128,168,25940,5,2
219,123,26133,1,0
316,152,26327,1,0
407,108,26520,1,2
499,65,26714,2,0,B|512:176|410:223,1,170,0|4
338,249,27295,1,0
338,249,27391,1,0
338,249,27488,1,2
246,309,27682,2,0,B|222:293|238:269|246:293|246:293|270:277|286:309|238:309,1,85
176,336,28069,6,0,B|160:280|184:224|214:205|264:224,1,170,2|0
256,312,28649,1,4
254,221,28843,2,0,B|292:205|322:224|346:280|330:336,1,170,2|0
330,334,29424,1,2
424,128,29811,1,0
424,232,30004,2,0,B|432:336,1,85,2|0
320,184,30391,2,0,B|312:80,1,85,2|0
232,264,30778,2,0,B|240:368,1,85,2|0
238,348,31069,1,2
238,348,31166,1,0
238,348,31262,1,0
238,348,31359,1,2
152,296,31553,1,2
152,296,31649,1,0
152,296,31746,6,0,B|112:224|144:120,1,170,4|2
360,88,32327,2,0,B|400:160|368:264,1,170,0|2
256,216,32908,2,0,B|256:48,2,170,2|0|0
256,317,33875,1,2
160,288,34069,1,0
58,288,34262,1,2
152,256,34456,1,2
256,80,34843,6,0,B|344:64|424:88,1,170,0|2
352,160,35424,2,0,B|432:224|432:304,1,170
336,280,36004,2,0,B|248:256|168:288,1,170,2|0
96,215,36585,1,0
96,215,36778,1,2
144,120,36972,2,0,B|192:80|240:96,2,85,0|2|0
224,184,37553,2,0,B|288:176|328:184,1,85,2|0
409,200,37940,1,2
233,303,38327,6,0,B|129:327|65:287,1,170,0|2
136,216,38908,2,0,B|80:184|72:136,2,85,2|0|0
184,128,39488,6,0,B|200:72|256:56,1,85,2|0
396,204,39875,2,0,B|345:185|301:196,1,85,0|2
128,296,40262,2,0,B|179:287|196:252,1,85,0|2
384,88,40649,2,0,B|333:97|316:132,1,85,2|0
258,189,41037,5,4
329,260,41230,1,2
329,260,41327,1,0
329,260,41424,1,2
432,256,41617,2,0,B|464:192|448:96|376:88,1,170,4|0
408,200,42198,1,4
472,120,42391,1,2
432,40,42585,6,0,B|336:56,1,85,0|4
296,144,42972,2,0,B|192:160,1,85,4|0
184,168,43262,1,0
160,192,43359,1,0
160,224,43456,1,0
176,256,43553,1,0
176,288,43649,1,0
152,312,43746,1,4
120,320,43843,1,0
88,312,43940,1,0
64,288,44037,1,0
56,256,44133,5,4
56,86,44520,1,2
223,118,44908,2,0,B|263:94|327:94,1,85,0|2
378,135,45295,1,0
378,219,45488,2,0,B|330:211|282:227,1,85,2|0
112,312,46069,6,0,B|144:248|165:171|120:120,1,170,2|0
71,186,46649,2,0,B|175:178|167:66,1,170,2|0
424,32,47230,5,2
351,104,47617,1,0
248,120,48004,1,2
160,72,48391,1,0
160,72,48585,1,2
160,72,48778,5,0
177,172,48972,1,2
104,240,49166,1,0
152,312,49359,1,2
192,288,49456,1,2
232,288,49553,1,0
272,272,49649,1,2
312,280,49746,1,2
352,288,49843,1,0
384,312,49940,1,2
440,248,50133,1,2
416,168,50327,6,0,B|382:114|284:121,2,127.5,4|0|2
253,218,51295,2,0,B|212:241|165:218,2,85,2|0|2
208,144,51875,2,0,B|152:104|144:64,1,85,0|2
150,82,52166,1,0
150,82,52262,1,0
104,160,52456,2,0,B|40:136|40:88,2,85,2|0|0
80,200,52940,1,0
40,224,53037,1,2
80,232,53133,1,2
120,256,53230,1,0
152,280,53327,1,0
184,312,53424,6,0,B|256:272|256:152,1,170,4|0
176,184,54004,2,0,B|216:256|336:256,1,170,4|0
304,176,54585,2,0,B|232:216|232:336,1,170,4|0
320,328,55166,1,2
391,256,55359,1,2
391,136,55553,1,0
288,112,55746,1,2
256,133,55843,1,2
237,114,55940,1,2
211,114,56037,1,0
189,127,56133,1,2
104,168,56327,1,2
160,240,56520,6,0,B|168:312|248:336,1,127.5,4|0
160,240,57101,6,0,B|200:264|272:256,1,85,4|0
280,182,57488,1,0
368,176,57682,2,0,B|376:120|352:80,1,85,4|0
280,56,58069,5,4
99,236,58359,1,4
346,295,58649,1,0
280,240,58843,6,0,B|240:192|136:168,1,127.5,4|0
176,208,59230,2,0,B|120:192|64:232,2,85,2|0|0
272,296,59908,2,0,B|336:304|384:224,1,127.5,2|2
408,112,60488,1,0
408,112,60585,1,2
301,130,60778,6,0,B|261:98|245:50,2,85,0|2|0
408,240,61456,2,0,B|384:304|296:304,1,127.5,2|0
224,288,61940,1,0
224,288,62037,1,2
160,232,62230,1,0
160,232,62327,6,0,B|112:200|64:240,2,85,2|0|0
176,104,63004,1,0
176,104,63101,2,0,B|128:72|120:32,2,85,2|0|0
304,104,63778,1,0
304,104,63875,2,0,B|352:128|408:96,2,85,2|0|0
304,232,64553,1,0
304,232,64649,2,0,B|336:256|352:320,1,85,2|0
264,312,65037,1,2
240,304,65133,1,0
216,312,65230,1,0
192,312,65327,1,2
176,296,65424,1,2
96,320,65617,1,0
72,328,65714,1,2
48,336,65811,6,0,B|16:272|48:192,1,127.5,4|0
71,242,66198,2,0,B|102:193|167:186,2,85,2|0|2
272,200,66972,2,0,B|320:176|304:120,1,85,0|2
205,129,67359,2,0,B|192:176|240:200,1,85,0|2
256,296,67746,2,0,B|256:112,2,170,0|2|2
136,128,68908,5,4
160,224,69101,1,2
120,320,69295,1,0
392,320,69682,5,0
352,224,69876,1,0
376,128,70069,1,4
256,296,70456,5,4
256,272,70553,1,2
256,248,70649,1,2
256,224,70746,1,2
256,200,70843,2,0,B|256:88,1,85
256,16,71230,5,4
256,368,71617,1,0
96,96,72004,1,4
96,288,72295,1,0
16,192,72585,2,0,B|112:200|200:192,1,170,2|0
408,192,73166,6,0,B|360:200|312:192,1,85,0|2
256,112,73553,1,0
256,264,73843,1,2
256,264,73940,2,0,B|192:256|152:272,2,85,2|0|0
352,296,74520,1,0
352,296,74617,1,0
352,296,74714,1,2
424,368,74908,1,0
424,368,75101,6,0,B|448:280|424:192,1,170,2|0
256,192,75682,1,0
88,16,75875,2,0,B|64:104|88:192,1,170,2|0
256,192,76456,1,2
256,88,76649,5,0
256,192,76843,1,2
218,286,77037,2,0,B|242:310|274:310|298:286,1,85,0|2
336,200,77424,5,2
328,158,77520,1,0
297,127,77617,1,0
256,112,77714,1,0
216,127,77811,1,2
185,157,77908,1,0
174,197,78004,1,2
184,240,78101,1,0
200,280,78198,6,0,B|136:248|120:176,2,127.5,4|0|2
272,207,78972,2,0,B|320:224|346:283,1,85,0|2
281,127,79359,2,0,B|233:110|207:51,2,85,2|2|0
358,92,79940,1,2
358,92,80037,1,0
358,92,80133,1,0
424,144,80327,1,2
416,232,80520,1,0
336,264,80714,1,2
336,264,80908,2,0,B|296:240|240:256,1,85,4|2
336,264,81295,6,0,B|320:200|248:144,1,127.5,4|0
266,159,81682,1,2
184,136,81875,1,0
112,176,82069,1,0
101,199,82166,1,2
101,224,82262,1,2
110,247,82359,1,0
110,272,82456,1,2
50,331,82649,1,0
136,352,82843,6,0,B|192:344,3,42.5,0|2|0|2
184,304,83230,6,0,B|216:272,3,42.5,0|0|2|2
192,240,83617,6,0,B|200:216,16,21.25,0|0|0|0|0|0|0|0|0|0|0|0|0|0|0|0|4
256,112,96778,5,4
256,240,97069,1,0
256,240,97166,1,2
256,328,97359,2,0,B|208:328|176:272,1,85
120,176,97843,1,0
120,176,97940,1,2
171,112,98133,1,0
256,112,98327,2,0,B|400:112,2,127.5,2|0|2
296,32,99101,1,0
296,32,99198,1,2
392,16,99391,1,0
392,16,99488,1,2
466,80,99682,1,0
466,80,99875,6,0,B|440:184|328:192,1,170,2|0
368,104,100456,2,0,B|456:160|400:272,1,170,2|0
352,192,101037,2,0,B|440:152|504:248,1,170,2|0
466,318,101617,1,2
466,318,101714,1,0
466,318,101811,1,0
384,320,102004,2,0,B|280:296,1,85,2|0
128,224,102391,2,0,B|232:248,1,85,0|2
392,216,102778,2,0,B|288:192,1,85,2|4
256,32,103359,5,2
256,120,103553,1,0
256,208,103746,2,0,B|256:304,2,85,0|2|0
256,120,104327,1,2
256,120,104520,6,0,B|344:62|438:116,1,170,4|0
416,104,105101,1,2
416,192,105295,6,0,B|320:192|272:272,1,170
273,269,105875,1,2
256,352,106069,5,4
184,304,106262,1,2
184,304,106359,2,0,B|176:224|216:176,1,127.5,0|2
235,158,106746,1,0
266,144,106843,1,2
297,156,106940,1,0
305,188,107037,1,2
328,211,107133,1,2
362,211,107230,1,0
392,196,107327,1,2
407,165,107424,1,2
407,131,107520,1,2
395,98,107617,6,0,B|315:50,1,85,0|2
264,192,108004,2,0,B|216:272,1,85,0|2
141,298,109166,6,0,B|68:224|97:111,1,170,4|0
121,54,109746,1,0
256,176,110133,1,2
256,176,110230,1,0
256,176,110327,1,0
256,88,110520,1,2
176,120,110714,6,0,B|256:144|352:120,1,170,4|0
424,88,111295,1,2
320,224,111682,1,2
320,224,111778,1,0
320,224,111875,1,0
264,288,112069,1,2
184,328,112262,6,0,B|112:336|48:264,1,127.5,0|2
68,284,112649,1,0
184,328,112843,2,0,B|152:240|176:136,1,170,2|0
171,160,113424,1,2
256,144,113617,1,0
340,160,113811,6,0,B|368:216|336:256,1,85,2|0
432,248,114198,2,0,B|416:304|352:312,1,85,0|2
288,304,114585,1,2
251,227,114778,1,2
168,192,114972,1,2
112,136,115166,1,2
43,185,115359,1,2
43,185,115553,5,0
43,185,115649,1,0
43,185,115746,1,2
103,245,115940,2,0,B|192:192,2,85,0|0|2
104,328,116520,2,0,B|256:296,1,127.5,0|2
262,295,116908,5,0
286,229,117295,1,2
248,161,117682,1,0
256,80,118069,1,2
194,17,118262,1,0
194,17,118359,1,0
194,17,118456,6,2,B|114:65,1,85,4|2
121,60,118746,2,0,B|106:137|58:169,1,127.5,0|4
257,242,119424,2,0,B|257:314|337:346|337:346|345:306,1,170,4|2
416,232,120004,1,4
366,148,120198,1,4
347,129,120295,1,0
323,119,120391,1,2
232,136,120585,1,0
208,126,120682,1,2
182,126,120778,1,0
157,133,120875,1,2
138,151,120972,1,2
126,173,121069,1,0
119,197,121166,1,2
120,224,121262,1,2
128,248,121359,1,2
144,272,121456,1,2
160,288,121553,6,0,B|64:304,1,85,4|2
216,208,121940,2,0,B|312:192,1,85,0|2
400,168,122327,2,0,B|368:68|260:63,1,170,0|2
178,88,122908,1,0
178,88,123004,1,0
178,88,123101,6,0,B|112:120|80:88,1,85,2|0
144,192,123488,2,0,B|56:192|17:132,2,127.5,0|2|0
248,200,124262,1,0
249,201,124456,1,2
304,288,124649,5,2
256,88,125037,1,0
193,289,125424,1,2
249,201,125617,2,0,B|340:173|401:257,1,170,2|0
456,336,126198,5,2
456,232,126391,1,0
400,72,126585,5,0
380,171,126778,1,2
280,304,126972,5,0
280,269,127069,1,0
269,236,127166,1,2
245,212,127262,1,0
216,200,127359,2,0,B|256:104,1,85
282,43,127746,5,4
101,223,128037,1,0
343,301,128327,1,4
101,223,128714,5,2
155,107,128908,1,0
273,153,129101,1,2
368,64,129295,2,0,B|496:64,1,127.5,0|2
495,64,129682,1,0
448,134,129875,1,2
483,211,130069,1,0
408,240,130262,1,2
376,253,130359,1,0
342,246,130456,1,2
336,280,130553,1,2
304,280,130649,1,0
272,272,130746,1,0
256,240,130843,5,4
178,206,131037,1,0
168,120,131230,1,0
248,160,131424,6,0,B|256:56|352:32,1,170,4|0
352,120,132004,2,0,B|272:56|184:80,1,170,4|0
112,104,132585,1,2
112,104,132682,1,0
112,104,132778,1,0
168,168,132972,1,0
186,186,133069,1,0
195,209,133166,1,0
195,234,133262,1,2
185,257,133359,1,2
133,345,133553,2,0,B|167:361|237:354,1,85,0|2
256,112,133940,5,4
295,355,134133,6,0,B|345:361|379:345,1,85
438,284,134520,1,4
438,284,134617,1,0
438,284,134714,1,0
448,200,134908,2,0,B|440:144|472:112,2,85,0|4|0
432,120,135488,5,4
183,65,135778,1,4
183,320,136069,1,4
183,320,136262,6,0,B|96:320,1,85,4|2
256,192,136649,2,0,B|352:192,1,85,4|2
183,320,137037,6,0,B|32:320,1,127.5,4|0
12,320,137424,1,2
64,256,137617,1,0
74,237,137714,1,0
78,216,137811,2,0,B|65:140|96:71,1,127.5,2|0
112,128,138198,6,0,B|144:80|192:72,1,85,2|0
400,128,138585,2,0,B|336:96|272:128,1,127.5,2|0
277,125,138972,1,2
272,208,139166,1,0
272,208,139262,1,0
272,208,139359,1,2
224,272,139553,1,2
144,296,139746,1,0
72,248,139940,2,0,B|24:168,1,85,2|0
128,312,140520,5,2
144,232,140714,1,0
208,176,140908,2,0,B|240:136|296:144,1,85,2|0
312,224,141295,2,0,B|368:216|400:240,1,85,2|0
456,296,141682,5,0
384,336,141875,1,0
384,336,141972,1,0
384,336,142069,1,2
285,312,142262,1,2
285,312,142359,1,0
285,312,142456,1,2
168,335,142649,1,2
168,335,142746,1,2
168,335,142843,1,2
168,335,142940,1,0
168,335,143037,1,2
168,335,143133,1,2
168,335,143230,6,0,B|152:184,1,127.5,4|0
154,208,143617,1,2
256,184,143811,2,0,B|256:72,1,85,0|2
368,80,144198,1,0
384,96,144295,1,0
392,120,144391,1,0
352,216,144585,1,2
256,240,144778,6,0,B|232:288|160:272,1,85,0|2
256,240,145166,2,0,B|208:232|192:184,1,85,0|2
256,240,145553,2,0,B|256:128,1,85,0|2
256,241,145940,2,0,B|304:233|320:185,1,85,4|0
256,240,146327,6,0,B|280:288|352:272,1,85,0|4
256,160,146714,1,4
218,92,146908,2,0,B|170:116|186:188,1,85,0|0
329,163,147295,2,0,B|342:116|294:92,1,85,4|4
256,160,147682,1,0
256,264,147875,6,0,B|256:320,3,42.5,0|2|0|2
208,288,148262,2,0,B|184:336,3,42.5,0|0|2|2
160,280,148649,2,0,B|104:296,3,42.5,0|2|2|2
128,240,149037,2,0,B|104:240,8,21.25,0|0|0|0|0|0|0|0|4
256,192,165101,6,0,B|280:256,1,63.75,2|0
256,192,165682,2,0,B|224:120,1,63.75,2|0
256,192,166262,1,2
176,104,166843,6,0,B|208:104|208:104|256:80|304:104|304:104|352:104,1,170
256,264,168004,5,4
408,120,169553,1,2
256,24,169843,1,0
104,120,170133,1,2
96,240,170714,6,0,B|122:253|146:245,1,42.5,0|2
200,184,171101,2,0,B|248:128|320:120,1,127.5,2|0
320,192,171875,6,0,B|256:104|144:88,1,191.249994300306,2|0
202,185,172649,6,0,B|235:103|334:82,1,170,2|0
256,264,173811,5,4
256,352,174004,2,0,B|256:304,2,42.5
384,352,174488,2,0,B|384:248,1,95.624997150153,2|0
280,112,175166,1,0
280,112,175359,6,0,B|184:112,1,85,2|0
288,200,176133,2,0,B|136:200,1,127.499996200204,2|0
295,289,176908,2,0,B|111:289,1,170,2|4
23,289,177488,5,0
23,186,177682,1,2
124,186,177875,1,0
124,288,178069,2,0,B|124:96,1,170,4|2
124,16,178649,2,0,B|68:16,2,42.5,0|0|4
256,144,179133,1,4
288,352,179424,5,0
377,262,179617,1,4
291,90,179908,1,0
291,90,180004,2,0,B|392:88,1,85,2|0
466,178,180391,6,0,B|408:192|322:178,1,127.5,4|2
127,180,180972,1,2
127,180,181069,1,0
127,180,181166,2,0,B|168:208|160:272,1,85,0|2
248,220,181553,2,0,B|270:278|235:315,1,85,0|2
320,344,181940,6,0,B|384:312|384:208,2,127.5,0|2|0
256,288,182714,1,0
216,272,182811,1,2
168,336,183004,1,0
128,328,183101,1,2
44,309,183295,1,0
44,309,183488,6,0,B|88:136,1,170,2|0
216,272,184262,2,0,B|304:128,1,170,2|0
408,272,185037,1,2
384,295,185133,1,0
349,295,185230,1,0
320,276,185327,1,0
320,241,185424,1,2
390,194,185617,1,0
104,112,185811,5,2
128,89,185907,1,0
163,89,186004,1,0
192,108,186101,1,0
192,143,186198,1,2
136,192,186391,1,0
136,192,186585,6,0,B|200:256,1,85,4|0
112,280,186972,2,0,B|160:360,2,85,2|0|0
256,99,187746,6,0,B|256:184,1,85,0|2
256,285,188133,6,0,B|256:200,1,85,0|2
256,40,188520,6,0,B|256:128,1,85,2|0
256,344,188908,6,0,B|256:256,1,85,2|0
257,188,189295,1,0
88,184,189682,5,2
94,177,189779,1,0
102,175,189875,1,0
110,176,189972,1,0
116,180,190069,1,2
257,188,190262,1,0
424,184,190456,5,2
418,177,190553,1,0
410,175,190649,1,0
402,176,190746,1,0
396,180,190843,1,2
257,188,191037,1,0
256,104,191230,2,0,B|256:56,4,42.5,4|0|0|0|2
257,188,191811,5,0
256,272,192004,2,0,B|224:320|136:352,1,127.5
153,345,192391,1,2
80,296,192585,1,0
256,272,192779,6,0,B|384:272,2,127.5,4|2|0
208,200,193553,1,0
208,200,193649,1,2
256,128,193843,1,0
256,128,193940,1,2
304,200,194133,1,0
256,128,194327,6,0,B|256:-8,2,127.5,0|2|0
256,216,195101,1,2
256,232,195198,1,0
256,248,195295,1,0
256,264,195391,1,0
256,280,195488,2,0,B|256:368,1,85,2|0
224,336,195875,5,4
136,192,196262,1,2
264,80,196649,1,4
352,224,197037,1,2
200,128,197424,1,0
217,145,197520,1,0
239,156,197617,1,0
264,156,197714,1,0
289,150,197811,1,2
348,90,198004,1,0
352,224,198198,5,2
342,238,198295,1,0
330,249,198391,1,0
315,258,198488,1,0
298,262,198585,1,2
214,246,198779,1,0
240,328,198972,6,0,B|88:328,2,127.5,4|2|0
214,246,199746,1,0
214,246,199843,1,2
298,262,200037,1,0
298,262,200133,2,0,B|400:264,2,85,2|0|0
224,96,200908,2,0,B|128:96,2,85,2|0|0
384,144,201682,1,2
216,192,202069,5,0
179,268,202262,1,2
256,303,202456,1,0
294,227,202649,1,2
207,163,202843,5,0
148,276,203037,1,2
261,334,203230,1,0
323,222,203424,1,0
235,244,203617,5,0
235,244,203714,1,0
235,244,203811,1,0
235,244,203908,1,0
235,244,204004,1,0
360,312,204198,1,0
235,244,204391,6,0,B|128:208|104:112,1,170,4|0
171,75,204972,1,0
232,136,205166,6,0,B|216:200|128:216,2,127.5,4|0|2
288,72,205940,1,0
288,72,206037,1,2
368,96,206230,1,0
368,96,206327,1,2
360,184,206520,1,0
408,256,206714,6,0,B|344:304|288:232,1,127.5,4|2
264,128,207295,1,2
184,208,207488,1,0
88,168,207682,1,2
136,240,207875,1,0
56,296,208069,1,2
152,352,208262,6,0,B|224:288,1,85,0|2
416,296,208649,6,0,B|352:224,1,85,0|2
360,32,209037,6,0,B|288:96,1,85,0|2
96,88,209424,6,0,B|160:160,1,85,0|2
256,192,209811,5,2
256,192,209908,1,0
256,192,210004,1,0
256,192,210101,1,0
256,192,210198,1,2
256,280,210391,1,0
256,192,210585,5,2
256,192,210682,1,0
256,192,210778,1,0
256,192,210875,1,0
256,192,210972,1,2
256,104,211166,1,0
256,192,211359,6,0,B|200:216|112:184,1,127.5,4|2
104,160,211746,1,0
144,88,211940,1,0
184,72,212037,1,0
224,72,212133,1,0
296,120,212327,1,2
272,200,212520,5,0
184,232,212714,1,2
256,272,212908,5,0
135,300,213101,1,2
216,336,213295,5,0
59,330,213488,1,2
144,352,213682,6,0,B|112:264|136:144,1,170,2|4
184,104,214262,1,2
184,104,214359,1,0
184,104,214456,1,4
256,144,214649,1,0
376,80,214843,5,0
376,80,214940,1,0
376,80,215037,1,2
376,80,215133,1,2
376,80,215230,1,4
344,160,215424,1,0
312,240,215617,2,0,B|144:240,1,170,2|4
56,240,216198,1,0
56,240,216295,1,0
56,240,216391,1,2
160,112,216585,6,0,B|120:64,10,42.5,0|2|2|0|2|0|2|0|2|2|4
