osu file format v7

[General]
AudioFilename: miki_miki_a_Romantic_Night.mp3
AudioLeadIn: 0
PreviewTime: 50120
Countdown: 0
SampleSet: Normal
StackLeniency: 0.7
Mode: 0
LetterboxInBreaks: 1

[Editor]
Bookmarks: 14999,25243,35487,44999,54510,63291,73534,85241,95485,105728,132069,143776,155483,178897,202311
DistanceSpacing: 0.800000011920929
BeatDivisor: 1
GridSize: 8

[Metadata]
Title:MikiMiki Romantic Night
Artist:Samfree feat. SF-A2 Miki
Creator:ouranhshc
Version:Normal
Source:Vocaloid
Tags:orioncomet crimmiskye

[Difficulty]
HPDrainRate:2
CircleSize:3
OverallDifficulty:3
SliderMultiplier:0.999999999999999
SliderTickRate:1

[Events]
//Background and Video events
0,0,"7264619.jpg"
//Break Periods
2,73379,83812
//Storyboard Layer 0 (Background)
//Storyboard Layer 1 (Fail)
//Storyboard Layer 2 (Pass)
//Storyboard Layer 3 (Foreground)
//Storyboard Sound Samples
//Background Colour Transformations
3,100,163,162,255

[TimingPoints]
3301,365.853658536585,4,2,0,100,1,0
37316,-100,4,1,0,100,0,0
38230,-100,4,1,0,69,0,0
48566,-100,4,1,0,0,0,0
49480,-100,4,1,0,100,0,0
50120,-100,4,1,0,100,0,1
73351,-100,4,1,0,100,0,0
84875,-100,4,2,0,100,0,0
96034,-100,4,1,0,100,0,0
96765,-100,4,1,0,75,0,0
108015,-100,4,1,0,100,0,0
108655,-100,4,1,0,100,0,1
131886,-100,4,1,0,100,0,0

[Colours]
Combo1 : 151,143,239
Combo2 : 214,88,176
Combo3 : 72,156,206
Combo4 : 171,24,141

[HitObjects]
80,72,15008,2,2,B|64:144|184:168|160:248,1,200
80,240,16105,1,0
80,320,16471,2,2,B|184:312|192:200|104:160,1,200
208,144,17569,1,0
208,64,17935,6,2,B|304:80|304:176|248:216,1,200
256,288,19032,1,0
176,280,19398,2,2,B|200:176|304:192|344:264,1,200
392,288,20496,1,0
456,232,20861,5,0
456,128,21593,1,0
456,32,22325,6,2,B|392:-40|304:16|304:104,2,200
472,112,24154,2,2,B|464:216|384:264|272:232,1,200
256,192,25252,12,0,26349
80,192,27081,5,0
128,128,27447,1,0
160,200,27813,1,0
208,136,28179,2,2,B|288:216|200:304|120:272,1,200
160,200,29276,1,0
88,240,29642,6,2,B|56:160|120:96|192:128,1,200
256,80,30740,1,0
336,72,31105,2,2,B|320:-16|232:-24|176:40,2,200
384,136,32935,5,0
376,216,33300,1,2
328,280,33666,1,0
256,312,34032,2,2,B|144:304|104:184|144:80|256:40,1,300
256,40,35496,6,0,B|256:144,3,99.9999999999999
256,216,36959,1,4
256,376,37691,5,4
176,352,38057,1,4
104,304,38422,6,0,B|72:256|104:208,1,99.9999999999999,4|0
168,256,39154,1,0
232,304,39520,2,2,B|288:232|200:144|144:184,1,200
80,224,40618,1,0
80,304,40983,2,2,B|184:288|176:184|112:144,1,200
120,80,42081,1,0
40,80,42447,2,2,B|56:176|152:184|200:112,1,200
264,136,43544,5,4
248,216,43910,1,4
320,256,44276,6,0,B|368:288|416:256,1,99.9999999999999
368,192,45008,1,0
448,192,45374,2,2,B|432:104|336:88|288:168,1,200
256,216,46471,1,0
256,296,46837,1,0
192,344,47203,5,4
112,328,47569,1,0
56,264,47935,1,4
64,184,48301,1,0
104,112,48666,6,0,B|216:72|280:176,1,200
256,248,49764,1,4
256,328,50130,6,0,B|360:304,2,99.9999999999999,0|8|0
256,248,51227,1,8
256,168,51593,2,0,B|160:176|144:288|240:336,1,200,0|8
48,304,53057,6,0,B|16:256|48:208,2,99.9999999999999,0|8|0
112,256,54154,1,8
184,296,54520,2,0,B|216:224|160:152|80:184,1,200,0|8
176,56,55983,5,0
256,56,56349,1,8
336,56,56715,1,0
256,56,57081,1,8
256,136,57447,2,0,B|256:344,1,200,0|8
344,368,58544,5,8
416,336,58910,2,0,B|448:288|416:240,1,99.9999999999999,0|8
352,288,59642,2,0,B|320:240|352:192,1,99.9999999999999,0|8
256,192,60374,12,0,61471
248,200,61837,6,0,B|200:232|152:200,1,99.9999999999999,4|8
200,128,62569,1,0
120,128,62935,1,8
56,80,63301,2,0,B|24:128|56:176,1,99.9999999999999,0|8
120,216,64032,1,0
256,304,64764,6,0,B|256:200,3,99.9999999999999,0|8|0|8
184,168,66227,1,0
256,128,66593,1,8
328,168,66959,1,0
432,48,67691,6,0,B|432:152,1,99.9999999999999,0|8
480,216,68422,1,0
480,296,68788,2,0,B|376:296,1,99.9999999999999,8|0
304,304,69520,1,8
256,240,69886,1,0
256,160,70252,5,8
216,88,70618,1,0
144,48,70983,1,8
72,88,71349,1,0
40,160,71715,1,8
64,240,72081,2,4,B|168:240,2,99.9999999999999
88,320,73179,5,2
256,336,85252,6,0,B|152:336,2,99.9999999999999
256,256,86349,1,0
336,248,86715,2,2,B|320:160|224:152|184:216,1,200
120,168,87813,1,0
184,120,88179,6,2,B|128:56|40:96|40:176,1,200
40,248,89276,1,0
80,320,89642,2,2,B|176:368|272:304,1,200
312,240,90740,1,0
376,192,91105,6,0,B|368:136|312:112,3,99.9999999999999
240,88,92569,2,2,B|160:88|96:128|88:224,1,200
176,192,93666,1,0
256,192,94032,12,0,95496
328,192,96227,5,4
184,192,96593,1,4
256,232,96959,6,0,B|256:336,1,99.9999999999999,4|0
336,344,97691,1,0
408,312,98057,2,2,B|368:232|264:264|256:336,1,200
176,304,99154,1,0
96,304,99520,1,0
136,232,99886,6,2,B|136:128,2,99.9999999999999
216,256,100983,1,0
216,176,101349,2,0,B|320:176,1,99.9999999999999,4|0
320,96,102081,2,0,B|216:96,1,99.9999999999999,4|0
168,40,102813,5,4
96,80,103179,1,0
64,152,103544,1,0
72,232,103910,1,0
24,296,104276,6,0,B|72:328|120:296,1,99.9999999999999
176,240,105008,1,0
152,160,105374,2,2,B|248:144|280:240|240:296,1,200
312,336,106471,1,0
392,336,106837,1,0
256,192,107203,12,4,108300
344,200,108666,6,0,B|376:104,1,99.9999999999999,0|8
400,32,109398,2,0,B|296:32,1,99.9999999999999,0|8
256,104,110130,1,0
296,176,110496,1,8
216,176,110861,1,0
256,248,111227,1,8
304,312,111593,6,0,B|256:344|208:312,1,99.9999999999999,0|8
144,272,112325,1,0
144,192,112691,1,8
96,128,113057,2,0,B|144:96|192:128,2,99.9999999999999,0|8|0
144,192,114154,1,0
256,144,114520,5,0
256,144,114886,1,8
256,144,115252,1,0
256,144,115618,1,8
304,208,115983,2,0,B|256:240|208:208,2,99.9999999999999,0|8|0
256,272,117081,5,8
208,336,117447,2,0,B|256:368|304:336,1,99.9999999999999,0|8
352,272,118179,2,0,B|304:240|256:272,1,99.9999999999999,0|8
256,192,118910,12,0,120008
256,192,120374,5,4
200,256,120740,1,8
152,192,121105,1,0
200,128,121471,1,8
256,192,121837,2,0,B|312:104|248:40|176:48,1,200
48,120,123300,6,0,B|48:224,3,99.9999999999999,0|8|0|8
80,296,124764,1,0
152,328,125130,1,8
224,296,125496,1,0
352,192,126227,6,0,B|248:192,1,99.9999999999999,0|8
168,192,126959,2,0,B|64:192,1,99.9999999999999,0|8
32,120,127691,1,0
96,64,128057,1,8
168,24,128422,1,0
240,64,128788,5,8
256,144,129154,1,0
272,224,129520,1,8
256,304,129886,1,0
200,360,130252,1,8
128,328,130618,2,0,B|80:304|64:248,2,99.9999999999999,0|8|0
184,272,131715,5,2
