osu file format v7

[General]
AudioFilename: miki_miki_a_Romantic_Night.mp3
AudioLeadIn: 0
PreviewTime: 50120
Countdown: 0
SampleSet: Soft
StackLeniency: 0.7
Mode: 0
LetterboxInBreaks: 1

[Editor]
Bookmarks: 14999,25243,35487,44999,54510,63291,73534,85241,95485,105728,132069,143776,155483,178897,202311
DistanceSpacing: 0.800000011920929
BeatDivisor: 4
GridSize: 8

[Metadata]
Title:MikiMiki Romantic Night
Artist:Samfree feat. SF-A2 Miki
Creator:ouranhshc
Version:Insane
Source:Vocaloid
Tags:orioncomet crimmiskye

[Difficulty]
HPDrainRate:8
CircleSize:4
OverallDifficulty:8
SliderMultiplier:2
SliderTickRate:2

[Events]
//Background and Video events
0,0,"7264619.jpg"
//Break Periods
2,73379,84502
2,131915,143038
//Storyboard Layer 0 (Background)
//Storyboard Layer 1 (Fail)
//Storyboard Layer 2 (Pass)
//Storyboard Layer 3 (Foreground)
//Storyboard Sound Samples
//Background Colour Transformations
3,100,163,162,255

[TimingPoints]
3301,365.853658536585,4,2,0,100,1,0
37316,-100,4,1,0,100,0,0
38230,-100,4,1,0,69,0,0
48566,-100,4,1,0,0,0,0
49480,-100,4,1,0,100,0,0
50120,-100,4,1,0,100,0,1
73361,-100,4,1,0,100,0,0
84886,-100,4,2,0,100,0,0
96034,-100,4,1,0,100,0,0
96765,-100,4,1,0,75,0,0
108026,-100,4,1,0,100,0,0
108666,-100,4,1,0,100,0,1
131898,-100,4,1,0,100,0,0
143422,-200,4,2,0,69,0,0
154843,-100,4,1,0,100,0,0
155496,-100,4,1,0,100,0,1
178727,-100,4,2,0,100,0,0
180282,-100,4,1,0,70,0,0
181746,-100,4,2,0,100,0,0
183209,-100,4,1,0,70,0,0
184672,-100,4,2,0,100,0,0
186136,-100,4,1,0,60,0,0
187599,-100,4,2,0,100,0,0
189063,-100,4,1,0,60,0,0
190526,-100,4,2,0,100,0,0
191990,-100,4,1,0,60,0,0
193453,-100,4,2,0,100,0,0
194916,-100,4,1,0,59,0,0
196380,-100,4,2,0,100,0,0
197829,-100,4,1,0,60,0,0
199307,-100,4,2,0,100,0,0
200770,-100,4,1,0,100,0,0
202325,-100,4,1,0,71,0,1
204429,-100,4,1,0,100,0,0
204520,-100,4,1,0,100,0,1
204703,-100,4,2,0,100,0,0

[Colours]
Combo1 : 151,143,239
Combo2 : 214,88,176
Combo3 : 72,156,206
Combo4 : 171,24,141

[HitObjects]
64,192,15374,2,0,B|80:136|128:112,1,100
200,96,15740,1,0
280,80,15922,2,2,B|368:120|432:224,1,200
472,280,16471,5,0
408,328,16654,1,0
344,280,16837,1,0
408,240,17020,1,0
472,280,17203,1,0
408,328,17386,5,0
344,280,17569,2,0,B|240:280,1,100
224,360,17935,2,2,B|128:336|136:216|224:184,1,200
264,176,18483,1,0
424,192,18849,1,2
472,128,19032,1,2
416,72,19215,6,0,B|344:88|344:176,1,100
352,216,19581,1,0
320,288,19764,1,0
264,352,19947,2,2,B|160:352|88:256,1,200,0|2
144,200,20496,1,2
216,160,20679,1,0
288,128,20861,6,0,B|312:184|256:232,1,100
352,232,21227,2,0,B|320:280|272:304,1,100
344,344,21593,2,0,B|296:384|240:376,1,100
176,360,21959,1,0
112,312,22142,2,2,B|168:264|240:280|264:360|304:336,1,200
376,344,22691,1,0
440,304,22874,1,0
472,232,23057,2,2,B|440:168|368:128|272:184,1,200,2|2
232,216,23605,1,0
160,256,23788,1,0
80,256,23971,1,0
8,280,24154,2,2,B|24:352|88:376|192:360,1,200
256,192,25252,12,4,26715
64,48,27081,6,0,B|40:104|64:152,1,100
144,144,27447,1,0
224,144,27630,2,2,B|280:240|224:336,1,200
152,360,28179,2,2,B|56:336|40:184,1,200
64,128,28727,1,0
112,64,28910,1,0
192,40,29093,6,0,B|192:144,2,100
256,88,29642,2,0,B|256:192,1,100
320,136,30008,2,0,B|320:240,1,100
384,184,30374,2,0,B|384:288,1,100,0|2
448,232,30740,2,0,B|448:344,1,100,2|0
368,360,31105,5,0
296,320,31288,1,0
232,272,31471,1,0
224,352,31654,2,2,B|136:336|128:224|224:184,1,200,0|2
272,200,32203,1,2
264,120,32386,1,0
184,112,32569,5,0
112,152,32752,1,0
72,224,32935,2,2,B|56:336|176:384,1,200
176,304,33483,1,0
144,232,33666,2,2,B|248:208|248:320|328:360,1,200
376,352,34215,1,0
456,344,34398,1,0
480,272,34581,1,0
488,192,34764,2,2,B|448:136|368:96|296:144,1,200
248,176,35313,6,0,B|224:232|232:280,1,100,2|0
184,344,35679,2,0,B|128:336|96:280,1,100,0|2
256,192,36044,12,0,36959
96,72,37691,5,4
416,312,38057,1,4
304,192,38422,5,0
384,192,38605,1,0
432,128,38788,2,0,B|384:96|336:128,1,100
256,128,39154,1,0
304,64,39337,2,0,B|256:32|208:64,1,100
168,128,39703,1,0
168,128,39886,5,0
104,80,40069,2,0,B|72:128|104:176,1,100
24,192,40435,1,0
24,272,40618,2,2,B|96:256|136:176|48:112,1,200
56,40,41166,1,0
136,40,41349,6,0,B|184:8|232:40,1,100
184,104,41715,1,0
184,184,41898,1,0
136,248,42081,2,0,B|184:280|232:248,1,100
256,328,42447,1,0
336,328,42630,2,2,B|328:272|272:224|216:240|168:312,1,200
120,328,43179,1,0
56,280,43361,1,0
8,216,43544,6,0,B|56:184|104:216,1,100,4|0
152,152,43910,2,0,B|104:120|56:152,1,100,4|0
8,88,44276,5,0
64,32,44459,1,0
144,16,44642,1,0
216,48,44825,1,0
256,112,45008,1,0
256,192,45191,2,2,B|272:296|384:344,1,200
456,336,45740,6,2,B|488:232|440:136,1,200
392,80,46288,1,0
320,56,46471,1,0
240,64,46654,2,2,B|136:112|96:216,1,200
88,280,47203,6,0,B|136:312|184:280,1,100
136,216,47569,1,0
88,152,47752,2,0,B|152:104|232:168|216:240,2,200
256,192,48666,12,0,49398
368,88,49581,5,0
144,88,49764,1,0
256,200,50130,6,0,B|256:96,2,100,0|0|8
256,280,50679,1,0
176,288,50861,2,0,B|208:376|296:384|352:280,1,200,0|8
256,280,51410,1,0
208,216,51593,2,0,B|288:176|352:248|328:328,1,200,0|8
440,192,52325,1,4
352,56,52691,1,0
160,40,53057,5,0
80,40,53240,1,0
120,112,53422,1,8
200,112,53605,1,0
160,184,53788,1,0
80,184,53971,2,0,B|96:264|176:288|240:216,1,200
232,144,54520,2,0,B|176:72|80:104|72:192,1,200,0|8
72,248,55069,1,0
128,304,55252,2,0,B|184:352|280:352|320:256,1,200,0|8
432,192,55983,5,0
352,192,56166,1,0
432,192,56349,1,8
352,192,56532,1,0
272,192,56715,1,0
280,112,56898,2,0,B|176:112|168:216|224:272,1,200
360,312,57630,1,0
288,352,57813,2,0,B|208:384|112:360|80:288,1,200,8|0
48,256,58361,5,0
104,200,58544,1,8
160,256,58727,1,0
104,312,58910,5,0
160,368,59093,1,0
240,368,59276,2,0,B|320:344|360:272|328:184,1,200,8|0
328,136,59825,1,0
256,96,60008,2,0,B|160:120|128:168|136:248,1,200,8|0
256,192,60557,12,0,61471
304,144,61837,5,0
208,240,62020,1,0
304,240,62203,1,0
208,144,62386,1,0
256,80,62569,1,0
336,72,62752,2,0,B|408:120|400:208|344:272,1,200
488,344,63483,1,0
408,344,63666,2,0,B|344:376|256:344|224:264,1,200,8|0
256,128,64398,1,0
88,64,64764,6,0,B|88:168,1,100,0|0
40,232,65130,2,0,B|88:264|136:232,1,100,8|0
88,168,65496,1,0
40,104,65679,2,0,B|128:64|200:152|136:224,1,200
88,168,66227,1,0
40,232,66410,1,0
88,296,66593,1,8
144,352,66776,1,0
64,352,66959,2,0,B|88:248|200:264|224:336,1,200,0|8
320,192,67691,5,4
256,240,67874,2,0,B|224:192|256:144,1,100,0|8
208,80,68240,2,0,B|256:48|304:80,1,100
360,128,68605,2,0,B|304:168|256:136|256:136|200:176|152:128,1,200
16,192,69337,1,0
40,112,69520,2,0,B|128:168|104:256|16:272,1,200,8|0
120,320,70252,5,8
392,64,70618,1,4
120,64,70983,1,12
392,320,71349,1,4
120,320,71715,1,12
392,64,72081,5,0
328,112,72264,1,0
400,144,72447,2,0,B|336:224|256:176|248:104,1,200,8|0
256,32,72996,1,0
72,192,73179,5,6
256,192,85252,5,4
256,192,85435,1,0
256,112,85618,1,0
320,152,85800,1,0
384,112,85983,1,0
384,192,86166,1,0
320,232,86349,1,0
256,264,86532,2,2,B|304:336|392:304|400:208,1,200
456,72,87264,1,0
384,40,87447,1,0
256,136,87813,5,0
256,216,87996,1,0
192,264,88179,2,0,B|160:216|192:168,1,100
256,136,88544,1,0
320,176,88727,2,2,B|352:112|296:24|192:80,1,200
256,136,89276,1,0
256,216,89459,1,0
304,280,89642,6,0,B|256:312|208:280,1,100
160,344,90008,1,0
80,360,90191,2,2,B|80:280|160:232|248:304,1,200
160,344,90740,1,0
240,360,90922,1,0
320,344,91105,6,0,B|424:344,1,100
368,288,91471,2,0,B|472:272,1,100
400,224,91837,2,0,B|496:184,1,100
416,152,92203,1,0
400,72,92386,2,2,B|512:88|512:184|448:224,1,200
480,288,92935,2,2,B|416:304|344:240|400:152,1,200
456,216,93483,1,0
472,136,93666,1,0
440,64,93849,2,0,B|384:104|400:160,1,100
256,192,94215,12,0,95496
400,72,96227,5,0
112,312,96593,1,0
216,192,96959,5,0
136,192,97142,1,0
56,192,97325,1,0
96,128,97508,1,0
176,128,97691,2,2,B|176:64|80:8|16:96,1,200
96,128,98240,1,0
16,128,98422,2,2,B|16:192|112:248|176:160,1,200
96,128,98971,1,0
48,64,99154,2,0,B|96:32|144:64,1,100
224,64,99520,2,0,B|272:96|320:64,1,100
400,64,99886,6,2,B|464:96|488:192|432:264,1,200
400,304,100435,1,0
328,328,100618,1,0
256,352,100800,2,2,B|240:248|352:232|392:288,1,200
400,200,101349,2,2,B|296:160|232:208|208:240,1,200
176,304,101898,1,0
112,352,102081,1,0
48,304,102264,1,0
112,264,102447,1,0
64,112,102813,6,0,B|112:80|160:112,1,100
160,192,103179,2,0,B|112:224|64:192,1,100
112,128,103544,1,0
160,72,103727,2,2,B|112:32|24:56|40:168,1,200
112,128,104276,1,0
64,192,104459,1,0
112,256,104642,1,0
160,192,104825,1,0
240,192,105008,1,0
200,256,105191,2,2,B|272:288|344:224|296:136,1,200
280,72,105740,5,0
344,24,105922,2,2,B|280:-32|192:8|208:96,1,200
128,56,106471,2,2,B|112:128|176:192|264:152,1,200
208,88,107020,1,0
280,72,107203,1,0
256,144,107386,1,0
232,216,107569,1,0
304,200,107752,1,0
280,272,107935,1,0
296,352,108118,5,0
72,352,108300,1,0
96,192,108666,5,0
160,152,108849,1,0
192,80,109032,1,8
256,32,109215,1,0
320,80,109398,1,0
360,152,109581,1,0
432,192,109764,1,8
504,152,109947,1,0
504,72,110130,2,0,B|480:24|408:32,1,100
432,112,110496,2,0,B|376:112|328:64|328:16|240:32,1,200,8|0
96,48,111227,1,0
128,192,111593,6,0,B|176:224|224:192,1,100
176,128,111959,2,0,B|128:96|80:128,1,100,8|0
128,192,112325,1,0
72,248,112508,2,0,B|144:296|224:240|192:152,1,200
136,112,113057,1,0
64,144,113240,1,0
64,224,113422,1,8
136,264,113605,1,0
64,296,113788,2,0,B|112:368|224:344|208:240,1,200,0|8
136,264,114337,1,0
136,184,114520,6,0,B|184:152|232:184,1,100
184,248,114886,2,0,B|232:280|280:248,1,100,8|0
280,328,115252,1,0
360,336,115435,2,0,B|344:248|256:224|208:304,1,200
144,328,115983,1,0
64,328,116166,1,0
24,256,116349,2,0,B|120:232|168:328|120:376,1,200,8|0
256,280,117081,5,8
256,200,117264,1,0
304,136,117447,6,0,B|256:104|208:136,1,100
256,200,117813,2,0,B|184:240|96:168|152:80,1,200,8|0
192,40,118361,1,0
256,80,118544,1,8
336,80,118727,2,0,B|320:184|200:176|176:96,1,200
120,80,119276,1,8
56,128,119459,1,0
120,176,119642,1,0
56,224,119825,1,0
256,328,120008,5,10
416,344,120374,5,0
472,288,120557,1,0
416,232,120740,1,8
472,176,120922,1,0
416,112,121105,1,0
472,56,121288,2,0,B|400:0|312:64|344:152,1,200
416,112,121837,2,0,B|424:184|336:248|264:168,2,200,0|8|0
280,32,122935,1,0
104,40,123300,5,0
48,96,123483,1,0
48,176,123666,2,0,B|96:208|144:176,1,100,8|0
216,152,124032,1,0
280,112,124215,2,0,B|320:176|240:264|168:208,1,200
216,152,124764,2,0,B|120:96|48:240|152:272,1,200,0|8
168,312,125313,1,0
240,352,125496,1,0
272,280,125679,1,0
344,312,125861,1,8
448,192,126227,6,0,B|400:160|352:192,1,100
400,256,126593,2,0,B|448:288|496:256,1,100,8|0
448,192,126959,1,0
496,128,127142,2,0,B|408:80|344:168|376:224,1,200
256,328,127874,1,0
336,312,128057,2,0,B|296:224|200:240|176:320,1,200,8|0
232,160,128788,1,8
24,32,129154,6,0,B|-8:80|24:128,1,100
88,80,129520,2,0,B|120:128|88:176,1,100,8|0
40,232,129886,2,0,B|88:264|136:232,1,100
200,184,130252,2,0,B|232:232|200:280,1,100,8|0
144,336,130618,5,0
144,336,130800,1,0
216,296,130983,1,8
216,296,131166,1,0
296,296,131349,1,0
256,40,131715,5,10
216,344,143788,5,0
216,344,143971,1,0
296,344,144154,1,0
296,344,144337,1,0
256,272,144520,1,0
176,272,144703,2,2,B|192:208|248:192,1,100
392,192,145435,1,0
384,272,145618,2,2,B|312:256|312:184,1,100
136,64,146715,6,0,B|104:112,1,50
184,144,147081,2,0,B|214:98,1,50
288,80,147447,1,0
360,48,147630,2,2,B|376:104|328:152,1,100
256,280,148361,1,0
304,216,148544,2,0,B|256:184,1,50
184,176,148910,2,2,B|192:120|264:104,1,100
392,40,149642,5,0
312,40,149825,1,0
392,40,150008,1,0
312,40,150191,1,0
352,104,150374,1,0
432,112,150557,2,2,B|416:176|360:184,1,100
256,296,151288,1,0
240,376,151471,2,2,B|184:360|176:304,1,100
136,152,152203,6,2,B|192:192|168:256,1,100
328,192,152935,1,0
176,240,153300,2,2,B|192:288|138:326,1,100
256,192,154032,12,0,154764
368,88,154947,5,0
144,88,155130,1,0
304,232,155496,6,0,B|256:264|208:232,1,100
144,184,155861,2,0,B|112:232|144:280,1,100,8|0
208,328,156227,1,0
280,352,156410,2,0,B|304:280|216:216|144:280,1,200
16,192,157142,1,0
40,272,157325,2,0,B|136:224|104:128|24:104,1,200,8|0
184,24,158057,1,0
360,40,158422,5,0
416,96,158605,1,0
360,152,158788,1,8
304,96,158971,1,0
248,152,159154,1,0
296,216,159337,2,0,B|224:256|136:192|192:88,1,200
40,32,160069,1,0
24,112,160252,1,8
40,192,160435,1,0
16,272,160618,2,0,B|112:272|144:184|88:128,1,200,0|8
208,248,161349,6,0,B|256:280|304:248,1,100
256,184,161715,2,0,B|304:152|352:184,1,100,8|0
432,184,162081,1,0
488,128,162264,2,0,B|416:72|336:136|360:208,1,200
256,320,162996,1,0
336,312,163179,2,0,B|304:216|208:232|184:296,1,200,8|0
280,160,163910,5,8
80,64,164276,2,0,B|48:144|128:208|216:152,1,200,0|8
152,96,164825,1,0
224,64,165008,2,0,B|256:144|176:208|88:152,1,200,0|8
256,192,165740,12,2,166837
256,232,167203,5,0
256,152,167386,1,0
304,88,167569,2,0,B|256:56|208:88,1,100,8|0
256,152,167935,1,0
336,160,168118,2,0,B|320:248|208:256|184:176,1,200
88,64,168849,1,0
160,32,169032,2,0,B|184:128|80:168|32:112,1,200,8|0
192,176,169764,1,0
360,72,170130,6,0,B|264:120,1,100
264,40,170496,2,0,B|168:88,1,100,8|0
136,152,170861,1,0
64,120,171044,2,0,B|32:208|144:280|208:192,1,200
336,192,171776,1,0
400,136,171959,1,8
336,192,172142,1,0
400,136,172325,2,0,B|312:80|248:144|256:216,1,200,0|8
96,192,173057,6,0,B|64:240|96:288,1,100
160,240,173422,2,0,B|208:272|256:240,1,100,8|0
208,176,173788,1,0
152,120,173971,2,0,B|240:56|328:160|264:224,1,200
256,352,174703,1,0
184,320,174886,2,0,B|232:240|328:280|336:352,1,200,8|0
472,264,175618,6,0,B|424:160|304:160,2,200,8|0|8
392,272,176532,1,0
424,344,176715,2,0,B|312:360|248:208,1,200,0|8
256,168,177264,1,0
256,88,177447,2,0,B|200:96|176:160,1,100
200,224,177813,1,8
328,128,178179,1,0
80,64,178544,5,10
432,320,178910,5,0
480,256,179093,1,0
432,192,179276,1,8
384,256,179459,1,0
336,192,179642,1,0
288,256,179825,1,0
336,320,180008,1,8
384,256,180191,1,0
432,192,180374,6,0,B|464:144|432:96,1,100,4|0
368,144,180740,2,0,B|320:176|272:144,1,100,4|0
320,80,181105,2,0,B|352:32|320:-16,1,100,4|0
256,32,181471,2,0,B|208:0|160:32,1,100,4|0
208,96,181837,5,0
136,128,182020,1,0
88,192,182203,1,8
136,256,182386,1,0
208,296,182569,1,0
280,256,182752,1,0
328,192,182935,1,8
280,128,183118,1,0
328,64,183300,6,2,B|280:32|232:64,1,100
184,128,183666,2,2,B|232:160|280:128,1,100
232,64,184032,2,2,B|184:32|136:64,1,100
88,128,184398,2,2,B|136:160|184:128,1,100,2|0
256,168,184764,5,0
336,192,184947,1,0
416,168,185130,1,8
472,112,185313,1,0
416,56,185496,1,0
336,40,185679,1,0
256,56,185861,1,8
200,112,186044,1,0
136,64,186227,6,2,B|104:112|136:160,1,100
88,224,186593,2,2,B|136:256|184:224,1,100
248,272,186959,2,2,B|280:224|248:176,1,100
296,112,187325,2,2,B|248:80|200:112,1,100
248,176,187691,5,0
296,240,187874,1,0
344,176,188057,1,8
392,240,188240,1,0
440,176,188422,1,0
392,112,188605,1,0
344,48,188788,1,8
296,112,188971,1,0
216,112,189154,6,2,B|168:80|120:112,1,100
56,64,189520,2,2,B|24:112|56:160,1,100
120,112,189886,2,2,B|152:160|120:208,1,100
72,272,190252,2,2,B|120:304|168:272,1,100,2|0
176,352,190618,5,0
256,328,190800,1,0
328,296,190983,1,8
256,256,191166,1,0
184,224,191349,1,0
256,184,191532,1,0
328,152,191715,1,8
256,112,191898,1,0
192,64,192081,6,2,B|160:112|192:160,1,100
144,224,192447,2,2,B|192:256|240:224,1,100
304,272,192813,2,2,B|336:224|304:176,1,100
352,112,193179,2,2,B|304:80|256:112,1,100
192,64,193544,5,0
120,32,193727,1,0
48,64,193910,1,8
8,136,194093,1,0
48,208,194276,1,0
120,240,194459,1,0
192,208,194642,1,8
224,136,194825,1,0
288,88,195008,6,2,B|320:136|288:184,1,100
240,248,195374,2,2,B|288:280|336:248,1,100
400,296,195740,2,2,B|432:248|400:200,1,100
472,160,196105,2,2,B|408:88|328:120|312:208,1,200,2|0
256,136,196654,5,0
176,136,196837,1,8
216,64,197020,1,0
256,136,197203,1,0
296,64,197386,1,0
256,136,197569,1,8
336,136,197752,1,0
296,208,197935,6,2,B|328:256|296:304,1,100
232,256,198300,2,2,B|184:288|136:256,1,100
184,192,198666,2,2,B|136:160|88:192,1,100
24,144,199032,2,2,B|-8:192|24:240,1,100
72,296,199398,5,0
136,344,199581,1,0
176,272,199764,1,8
216,200,199947,1,0
256,272,200130,1,0
296,200,200313,1,0
336,272,200496,1,8
368,344,200679,1,0
256,192,200861,12,0,201959
64,192,202325,5,4
144,192,202508,1,0
208,144,202691,2,0,B|240:192|208:240,1,100,4|0
144,192,203057,1,4
144,272,203240,2,0,B|40:256|48:144|112:120,1,200
256,80,203971,1,0
336,80,204154,2,0,B|320:184|200:184|176:88,1,200,0|4
256,304,204886,5,4
