osu file format v5

[General]
AudioFilename: 04 Utsukushiki Ningen no Hibi.mp3
AudioLeadIn: 0
PreviewTime: -1
Countdown: 1
SampleSet: Normal
StackLeniency: 0.7
Mode: 0
EditorBookmarks: 9310,18441,27600,36938,53254,60497,62611,74460,84099,93293,109976,116962,119293,131161,135870,140568,149814,156875,159231,168799,178073,187392,206023

[Metadata]
Title:Utsukushiki Ningen no Hibi
Artist:Sambomaster
Creator:Nocky
Version:Hard
Source:
Tags:

[Difficulty]
HPDrainRate:2
CircleSize:5
OverallDifficulty:4
SliderMultiplier:2
SliderTickRate:2

[Events]
//Background and Video events
//Break Periods
2,36846,52081
2,74659,84040
2,131366,140246
//Storyboard Layer 0 (Background)
//Storyboard Layer 1 (Failing)
//Storyboard Layer 2 (Passing)
//Storyboard Layer 3 (Foreground)
//Storyboard Sound Samples
//Background Colour Transformations
3,100,163,162,255

[TimingPoints]
9378,570.749108204518,4,1,0,100
27600,586.510263929619,4,1,0,100
53250,593.266426064172,4,1,0,100
84090,575.208513085994,4,1,0,100
93290,595.947556615018,4,1,0,100
109970,588.668138337012,4,1,0,100
140560,575.015573338445,4,1,0,100
149810,588.812561334642,4,1,0,100
178070,582.637405321422,4,1,0,100
187390,564.652738565782,4,1,0,100

[HitObjects]
96,96,19508,1,0
128,96,19651,1,0
224,96,19936,1,0
224,96,20079,2,0,B|340:84|384:256,1,200
448,256,21863,5,0
448,288,22006,1,0
352,288,22362,1,0
288,288,22647,1,0
288,288,22790,1,0
288,288,22933,2,0,B|160:160,1,100
64,96,24217,5,0
64,96,24360,1,0
64,96,24502,1,0
64,96,24645,1,0
64,160,24930,1,0
96,224,25216,1,0
96,224,25358,2,0,B|136:299|252:333|398:282|412:283|476:203|464:224,1,400
448,160,26928,5,0
400,112,27213,1,0
352,64,27499,1,0
288,64,27745,1,0
112,64,28767,5,0
112,64,28913,1,0
192,64,29205,1,0
256,64,29496,1,0
352,64,29788,1,0
352,64,29934,1,0
352,64,30080,1,0
352,64,30226,1,0
352,64,30372,1,0
448,152,31265,6,0,L|384:152|392:136,3,50
432,224,31977,1,0
432,224,32123,1,0
368,224,32269,1,0
368,224,32415,1,0
448,320,33582,5,0
448,320,33728,1,0
384,320,34020,2,0,B|160:240,1,200
128,160,35771,5,0
192,160,36063,1,0
192,160,36209,1,0
256,160,36355,1,0
320,160,36646,1,0
80,96,53281,6,0,B|103:46|166:27|260:14|342:28|432:52|448:144,1,400
464,176,54733,5,0
464,176,54881,1,0
464,176,55029,1,0
416,224,55326,1,0
416,224,55474,1,0
416,224,55623,2,0,B|339:339|224:192,1,200
160,288,57106,5,0
160,288,57254,1,0
96,288,57551,1,0
96,224,57847,1,0
96,224,57996,1,0
96,224,58144,2,0,B|206:140|224:128,1,150
256,48,59034,5,0
256,112,59330,1,0
256,176,59627,1,0
256,176,59775,1,0
304,224,60072,1,0
352,176,60368,1,0
352,176,60517,6,0,B|446:244|464:272,1,100
432,240,60962,2,0,B|321:333|320:336,1,100
352,304,61407,2,0,B|220:310|208:304,1,100
252,306,61852,2,0,B|144:224|160:240,1,100
128,208,62445,1,0
80,112,62742,6,0,B|97:68|102:46|231:51|336:33|425:56|432:128,1,400
432,112,64077,6,0,B|288:240|304:224,1,150
272,256,64818,1,0
272,256,64966,1,0
240,320,65115,2,0,B|96:240|96:224,1,150
64,176,66450,6,0,C|98:112|177:131|193:76|288:80,1,300
274,79,67488,1,0
274,79,67636,1,0
274,79,67784,1,0
288,144,68378,5,0
224,144,68674,1,0
256,192,68971,1,0
256,192,69119,1,0
256,256,69416,1,0
256,320,69713,1,0
256,320,69861,6,0,C|352:288|368:288,1,100
350,288,70306,2,0,C|352:176,1,100
351,188,70751,2,0,C|272:112|272:128,1,100
279,118,71196,2,0,C|160:112|160:128,1,100
179,111,71641,1,0
128,112,71937,1,0
256,320,73569,5,0
256,256,73865,1,0
256,192,74162,1,0
256,192,74310,1,0
256,192,74459,1,0
80,304,85240,5,0
80,304,85384,1,0
80,224,85671,1,0
144,224,85959,1,0
208,224,86247,2,0,C|272:224|288:224,4,50
208,144,87685,6,0,C|272:144|288:144,2,50
208,144,88117,6,0,C|208:80|208:64,2,50
208,144,88547,6,0,C|208:264|320:272,1,200
432,272,89985,5,0
432,208,90273,1,0
432,144,90561,1,0
432,144,90704,1,0
432,144,90848,2,0,C|371:53|321:185|252:60|192:176,1,500
176,208,92574,5,0
176,208,92718,1,0
112,208,92861,5,0
112,208,93005,1,0
48,48,93438,5,0
128,48,94183,1,0
128,48,94332,1,0
96,112,94481,1,0
160,112,94779,1,0
256,48,95673,5,0
256,112,95971,1,0
256,176,96269,1,0
256,240,96418,1,0
256,240,96567,1,0
256,240,96716,2,0,C|144:240|48:240|48:128|128:16,1,450
144,48,98802,5,0
144,48,98951,1,0
144,48,99100,2,0,C|248:57|249:132|250:216|432:112,1,450
399,131,100590,5,0
464,128,100888,1,0
432,192,101186,1,0
432,192,101335,1,0
432,192,101484,2,0,L|400:320|288:208|240:352|192:320,1,450
176,304,103570,5,0
176,304,103719,1,0
128,272,103868,1,0
80,240,104166,1,0
48,160,105209,6,0,L|160:160|160:144,2,100
48,160,105954,2,0,L|48:96|64:96,1,50
48,48,106252,1,0
112,48,106549,2,0,L|240:48|240:144|336:144|336:208,1,350
336,256,107890,5,0
336,256,108039,1,0
224,192,108337,5,0
224,192,108486,1,0
128,128,108784,5,0
128,128,108933,1,0
64,160,109231,5,0
64,160,109380,1,0
80,96,109827,6,0,B|103:46|166:27|260:14|342:28|432:52|448:144,1,400
464,176,111279,5,0
464,176,111427,1,0
464,176,111575,1,0
416,224,111872,1,0
416,224,112020,1,0
416,224,112169,2,0,B|339:339|224:192,1,200
160,288,113652,5,0
160,288,113800,1,0
96,288,114097,1,0
96,224,114393,1,0
96,224,114542,1,0
96,224,114690,2,0,B|206:140|224:128,1,150
256,48,115580,5,0
256,112,115876,1,0
256,176,116173,1,0
256,176,116321,1,0
304,224,116618,1,0
352,176,116914,1,0
352,176,117063,6,0,B|446:244|464:272,1,100
432,240,117508,2,0,B|321:333|320:336,1,100
352,304,117953,2,0,B|220:310|208:304,1,100
252,306,118398,2,0,B|144:224|160:240,1,100
128,208,118991,1,0
80,112,119388,6,0,B|97:68|102:46|231:51|336:33|425:56|432:128,1,400
432,112,120799,6,0,B|288:240|304:224,1,150
272,256,121540,1,0
272,256,121688,1,0
240,320,121837,2,0,B|96:240|96:224,1,150
64,176,123172,6,0,C|98:112|177:131|193:76|288:80,1,300
274,79,124210,1,0
274,79,124358,1,0
274,79,124506,1,0
288,144,125100,5,0
224,144,125396,1,0
256,192,125693,1,0
256,192,125841,1,0
256,256,126138,1,0
256,320,126435,1,0
256,320,126583,6,0,C|352:288|368:288,1,100
350,288,127028,2,0,C|352:176,1,100
351,188,127473,2,0,C|272:112|272:128,1,100
279,118,127918,2,0,C|160:112|160:128,1,100
179,111,128363,1,0
128,112,128659,1,0
256,320,130276,5,0
256,256,130572,1,0
256,192,130869,1,0
256,192,131017,1,0
256,192,131166,1,0
112,64,141566,5,0
112,64,141710,1,0
112,64,141853,1,0
112,64,141997,2,0,L|272:64|288:64,1,150
262,64,142572,1,0
262,64,142716,1,0
416,64,144010,6,0,L|480:192|320:160|352:256,1,400
384,336,146454,5,0
384,336,146597,1,0
384,336,146741,1,0
320,336,147029,1,0
320,336,147172,2,0,L|177:327|250:261|149:245|221:177|144:144,1,500
256,192,148897,12,0,149810
80,160,151282,1,0
144,160,151576,1,0
144,160,151723,1,0
208,160,152018,1,0
208,160,152165,2,0,L|208:272|320:272|400:272|400:160|400:176,1,400
400,176,153563,6,0,L|400:64|304:64|208:64|176:64,1,300
212,64,154741,1,0
144,64,155035,1,0
48,64,155476,5,0
48,128,155771,1,0
48,192,156065,1,0
48,192,156212,1,0
48,256,156507,1,0
112,224,156801,1,0
112,224,156949,6,0,L|112:336|112:320,1,100
176,320,157390,2,0,L|176:208|160:224,1,100
240,224,157832,2,0,L|240:336|224:320,1,100
304,320,158274,2,0,L|304:208|288:224,1,100
288,160,158715,5,0
224,160,159010,1,0
256,96,159304,1,0
256,96,159451,1,0
432,48,160556,6,0,L|320:47|428:144|304:144,1,350
272,144,161880,5,0
272,144,162028,1,0
208,144,162248,1,0
128,144,163058,6,0,L|58:210|56:275|128:336,1,250
288,320,164824,5,0
336,272,165119,1,0
384,224,165413,1,0
384,224,165560,1,0
384,128,165855,1,0
336,96,166149,1,0
336,96,166297,2,0,L|208:96|224:96,1,100
236,96,166738,2,0,L|195:96|160:96,2,50
236,96,167180,2,0,L|224:208|224:224,1,100
225,195,167621,2,0,L|128:256|128:240,1,100
140,248,168063,2,0,L|96:192|96:208,2,50
192,304,168799,5,0
272,304,169093,1,0
272,304,169241,1,0
272,304,169388,1,0
272,304,169535,1,0
352,288,169829,2,0,L|432:224|336:176|432:128|400:128,1,300
400,64,171007,5,0
320,64,171301,2,0,L|160:64|112:64,1,200
64,64,172111,2,0,L|48:176|64:160,3,100
48,240,173435,5,0
112,240,173730,1,0
144,240,173877,1,0
176,208,174024,1,0
208,176,174171,1,0
240,128,174393,2,0,L|352:128|336:144,1,100
400,128,174982,2,0,L|400:240|416:224,1,100
256,192,175570,12,0,178070
