osu file format v14

[General]
AudioFilename: Sekai wa sore wo ai to yobundaze.mp3
AudioLeadIn: 0
PreviewTime: 175536
Countdown: 1
SampleSet: Normal
StackLeniency: 0.7
Mode: 0
LetterboxInBreaks: 1
WidescreenStoryboard: 0

[Editor]
DistanceSpacing: 0.8
BeatDivisor: 4
GridSize: 16
TimelineZoom: 1

[Metadata]
Title:Sekai wa Sore wo Ai to Yobundaze
TitleUnicode:Sekai wa Sore wo Ai to Yobundaze
Artist:Sambomaster
ArtistUnicode:Sambomaster
Creator:SGL1234
Version:Kakan ni Ouen
Source:Moero! Nekketsu Rhythm Damashii Osu! Tatakae! Ouendan 2
Tags:
BeatmapID:219659
BeatmapSetID:78520

[Difficulty]
HPDrainRate:6
CircleSize:4
OverallDifficulty:4
ApproachRate:4
SliderMultiplier:1.7
SliderTickRate:2

[Events]
//Background and Video events
0,0,"Normal.png",0,0
//Break Periods
2,43483,55907
2,91241,104076
2,151864,164287
//Storyboard Layer 0 (Background)
//Storyboard Layer 1 (Fail)
//Storyboard Layer 2 (Pass)
//Storyboard Layer 3 (Foreground)
//Storyboard Sound Samples

[TimingPoints]
16875,422.535211267606,4,1,0,100,1,0
175101,-100,4,1,0,100,0,1
178271,-100,4,1,0,100,0,0

[Colours]
Combo1 : 249,37,0
Combo2 : 255,172,0
Combo3 : 0,249,37
Combo4 : 51,91,255

[HitObjects]
128,304,16875,5,0,0:0:0:0:
192,304,17086,1,0,0:0:0:0:
256,304,17297,1,0,0:0:0:0:
416,304,17720,2,0,B|496:240|480:128,1,170
416,112,18354,1,0,0:0:0:0:
416,112,18565,1,0,0:0:0:0:
352,192,18882,1,0,0:0:0:0:
256,192,19199,1,4,0:0:0:0:
352,256,20044,5,0,0:0:0:0:
384,192,20255,1,0,0:0:0:0:
320,192,20466,1,0,0:0:0:0:
256,192,20678,1,0,0:0:0:0:
128,192,21100,2,0,B|48:160|48:16,1,170
112,32,21734,1,0,0:0:0:0:
192,96,22156,1,4,0:0:0:0:
333,272,23635,6,0,B|301:312|245:304|197:312|173:256,2,170
320,192,24692,1,0,0:0:0:0:
192,192,25114,1,4,0:0:0:0:
352,288,26804,5,0,0:0:0:0:
288,320,27016,1,0,0:0:0:0:
224,320,27227,1,0,0:0:0:0:
160,288,27438,1,0,0:0:0:0:
160,160,27861,2,0,B|176:96|208:80|256:48|304:80,1,170
352,96,28494,2,0,B|368:128|368:176|320:240|256:240|224:240|176:208,1,255
224,160,29340,1,4,0:0:0:0:
128,304,30396,5,0,0:0:0:0:
192,304,30607,1,0,0:0:0:0:
256,304,30818,1,0,0:0:0:0:
416,304,31241,2,0,B|496:240|480:128,1,170
416,112,31875,1,0,0:0:0:0:
352,192,32297,1,0,0:0:0:0:
256,192,32720,1,4,0:0:0:0:
352,256,33565,5,0,0:0:0:0:
384,192,33776,1,0,0:0:0:0:
320,192,33987,1,0,0:0:0:0:
256,192,34199,1,0,0:0:0:0:
128,192,34621,2,0,B|48:160|48:16,1,170
112,32,35255,1,0,0:0:0:0:
192,96,35678,1,4,0:0:0:0:
333,272,37156,6,0,B|301:312|245:304|197:312|173:256,1,170
224,224,37790,1,0,0:0:0:0:
288,224,38002,1,0,0:0:0:0:
256,160,38213,1,0,0:0:0:0:
256,32,38635,1,4,0:0:0:0:
344,320,40537,6,2,B|296:336|232:336|200:336|152:320|152:304,1,170
160,256,41171,1,0,0:0:0:0:
224,256,41382,1,2,0:0:0:0:
288,256,41593,1,0,0:0:0:0:
352,256,41804,1,2,0:0:0:0:
408,136,42227,2,2,B|396:31|300:31|293:29,1,170
216,32,42861,2,6,B|209:34|113:34|97:162,1,170
112,208,57227,5,0,0:0:0:0:
80,143,57438,2,2,B|93:38|189:38|196:36,1,170
192,160,58283,1,2,0:0:0:0:
256,160,58494,1,0,0:0:0:0:
320,160,58706,1,2,0:0:0:0:
431,143,59128,2,2,B|419:38|323:38|316:36,1,170
256,32,59762,1,4,0:0:0:0:
112,208,60607,5,0,0:0:0:0:
80,143,60818,2,2,B|93:38|189:38|196:36,1,170
192,160,61663,1,2,0:0:0:0:
256,160,61875,1,0,0:0:0:0:
320,160,62086,1,2,0:0:0:0:
431,143,62509,2,2,B|419:38|323:38|316:36,1,170
256,32,63142,1,4,0:0:0:0:
256,128,63565,6,0,B|208:128|176:112|160:96|144:96,1,85
104,72,63987,1,4,0:0:0:0:
64,191,64410,2,0,B|59:184|80:208|128:240|176:240,1,85
208,256,64833,1,4,0:0:0:0:
256,128,65255,2,0,B|304:128|336:112|352:96|368:96,1,85
408,72,65678,1,4,0:0:0:0:
447,191,66100,2,0,B|453:184|432:208|384:240|336:240,1,85
304,256,66523,1,4,0:0:0:0:
96,112,67579,6,2,B|64:144|64:176|48:224|80:288,1,170
192,320,68424,1,2,0:0:0:0:
256,320,68635,1,0,0:0:0:0:
320,320,68847,1,2,0:0:0:0:
352,256,69058,2,2,B|352:224|352:176|304:144|256:144|208:144|176:224,1,255
120,192,69903,2,2,B|136:160|152:112|216:88|280:80|336:112,1,255
432,143,70959,6,6,B|419:38|323:38|316:36,1,170
320,160,71804,1,2,0:0:0:0:
256,160,72016,1,0,0:0:0:0:
192,160,72227,1,2,0:0:0:0:
81,143,72649,2,2,B|93:38|189:38|196:36,1,170
256,32,73283,1,4,0:0:0:0:
432,143,74340,6,2,B|419:38|323:38|316:36,1,170
320,160,75185,1,2,0:0:0:0:
256,160,75396,1,0,0:0:0:0:
192,160,75607,1,2,0:0:0:0:
81,143,76030,2,2,B|93:38|189:38|196:36,1,170
256,32,76664,1,4,0:0:0:0:
256,128,77086,6,0,B|304:128|336:112|352:96|368:96,1,85
408,72,77509,1,4,0:0:0:0:
448,191,77931,2,0,B|453:184|432:208|384:240|336:240,1,85
304,256,78354,1,4,0:0:0:0:
256,128,78776,2,0,B|208:128|176:112|160:96|144:96,1,85
104,72,79199,1,4,0:0:0:0:
65,191,79621,2,0,B|59:184|80:208|128:240|176:240,1,85
208,256,80044,1,4,0:0:0:0:
384,240,81100,6,2,B|352:288|320:304|288:304|240:320,2,127.5
256,192,82156,1,2,0:0:0:0:
256,64,82579,1,2,0:0:0:0:
320,192,83002,2,2,B|328:232|296:272|248:272|200:272|152:224|176:144|208:104|312:136,1,340
256,192,84269,12,4,87438,0:0:0:0:
160,224,105396,5,0,0:0:0:0:
160,224,105607,1,0,0:0:0:0:
160,224,105818,1,0,0:0:0:0:
32,240,106241,2,0,B|44:345|128:368|144:368,2,170
128,112,107509,1,0,0:0:0:0:
128,112,107720,1,4,0:0:0:0:
352,224,108776,5,0,0:0:0:0:
352,224,108987,1,0,0:0:0:0:
352,224,109199,1,0,0:0:0:0:
480,240,109621,2,0,B|468:345|384:368|368:368,2,170
368,296,110889,1,0,0:0:0:0:
368,296,111100,1,4,0:0:0:0:
160,160,112156,5,0,0:0:0:0:
160,160,112368,1,0,0:0:0:0:
160,160,112579,1,0,0:0:0:0:
32,144,113002,2,0,B|44:39|128:16|144:16,2,170
128,224,114269,1,0,0:0:0:0:
128,224,114480,1,6,0:0:0:0:
352,160,115537,5,0,0:0:0:0:
352,160,115748,1,0,0:0:0:0:
352,160,115959,1,0,0:0:0:0:
352,16,116382,2,0,B|355:14|439:37|451:142,1,170
352,224,117227,1,2,0:0:0:0:
288,224,117438,1,0,0:0:0:0:
224,192,117649,1,6,0:0:0:0:
96,209,118072,5,0,0:0:0:0:
64,144,118283,2,0,B|77:39|173:39|180:37,3,170
160,160,119973,1,2,0:0:0:0:
224,160,120185,1,0,0:0:0:0:
288,160,120396,1,2,0:0:0:0:
352,160,120607,1,6,0:0:0:0:
256,192,121241,12,4,123987,0:0:0:0:
104,72,124833,5,4,0:0:0:0:
64,191,125255,2,0,B|59:184|80:208|128:240|176:240,1,85
208,256,125678,1,4,0:0:0:0:
256,128,126100,2,0,B|304:128|336:112|352:96|368:96,1,85
408,72,126523,1,4,0:0:0:0:
447,191,126945,2,0,B|453:184|432:208|384:240|336:240,1,85
304,256,127368,1,4,0:0:0:0:
96,112,128424,6,2,B|64:144|64:176|48:224|80:288,1,170
192,320,129269,1,2,0:0:0:0:
256,320,129480,1,0,0:0:0:0:
320,320,129692,1,2,0:0:0:0:
352,256,129903,2,2,B|352:224|352:176|304:144|256:144|208:144|176:224,1,255
120,192,130748,2,2,B|136:160|152:112|216:88|280:80|336:112,1,255
464,144,131804,6,0,B|451:39|355:39|348:37,3,170
352,160,133494,1,2,0:0:0:0:
288,160,133706,1,0,0:0:0:0:
224,160,133917,1,2,0:0:0:0:
160,160,134128,1,6,0:0:0:0:
48,240,135185,6,0,B|61:345|157:345|164:347,3,170
160,192,136875,1,2,0:0:0:0:
224,192,137086,1,0,0:0:0:0:
288,192,137297,1,2,0:0:0:0:
352,192,137509,1,4,0:0:0:0:
256,192,137931,12,4,140889,0:0:0:0:
384,240,141945,6,2,B|352:288|320:304|288:304|240:320,2,127.5
256,192,143002,1,2,0:0:0:0:
256,64,143424,1,2,0:0:0:0:
320,192,143847,2,0,B|328:232|296:272|248:272|200:272|152:224|176:144|208:104|312:136,1,340
128,256,145325,6,2,B|160:304|192:320|224:320|272:336,2,127.5
256,192,146382,1,2,0:0:0:0:
256,192,146593,1,2,0:0:0:0:
192,192,146804,2,4,B|184:232|216:272|264:272|312:272|360:224|336:144|304:104|240:128,1,255
256,192,147861,12,4,151664,0:0:0:0:
296,48,165607,5,2,0:0:0:0:
360,88,165818,1,0,0:0:0:0:
400,152,166030,1,0,0:0:0:0:
400,232,166241,1,2,0:0:0:0:
216,336,166875,1,2,0:0:0:0:
152,296,167086,1,0,0:0:0:0:
112,232,167297,1,0,0:0:0:0:
112,152,167509,1,0,0:0:0:0:
256,128,168142,5,2,0:0:0:0:
288,192,168354,1,4,0:0:0:0:
224,192,168565,1,0,0:0:0:0:
216,48,168987,5,2,0:0:0:0:
152,88,169199,1,0,0:0:0:0:
112,152,169410,1,0,0:0:0:0:
112,232,169621,1,2,0:0:0:0:
296,336,170255,1,2,0:0:0:0:
360,296,170466,1,0,0:0:0:0:
400,232,170678,1,0,0:0:0:0:
400,152,170889,1,0,0:0:0:0:
256,128,171523,5,2,0:0:0:0:
224,192,171734,1,0,0:0:0:0:
288,192,171945,1,4,0:0:0:0:
256,192,172368,12,4,174269,0:0:0:0:
216,48,175537,5,0,0:0:0:0:
296,48,175748,1,0,0:0:0:0:
360,88,175959,1,0,0:0:0:0:
400,152,176171,1,0,0:0:0:0:
400,232,176382,1,0,0:0:0:0:
360,296,176593,1,0,0:0:0:0:
296,336,176804,1,0,0:0:0:0:
216,336,177016,1,0,0:0:0:0:
152,296,177227,1,0,0:0:0:0:
112,232,177438,1,0,0:0:0:0:
112,152,177649,1,0,0:0:0:0:
152,88,177861,1,0,0:0:0:0:
216,56,178072,1,4,0:0:0:0:
416,224,178917,5,0,0:0:0:0:
448,160,179128,2,2,B|435:55|336:32|336:32,2,170
384,160,180185,1,0,0:0:0:0:
320,160,180396,1,2,0:0:0:0:
288,224,180607,1,0,0:0:0:0:
224,224,180818,1,2,0:0:0:0:
256,160,181030,1,0,0:0:0:0:
256,96,181241,1,2,0:0:0:0:
256,32,181452,1,4,0:0:0:0:
96,224,182297,5,0,0:0:0:0:
64,160,182509,2,2,B|77:55|176:32|176:32,2,170
128,160,183565,1,0,0:0:0:0:
192,160,183776,1,2,0:0:0:0:
224,224,183987,1,0,0:0:0:0:
288,224,184199,1,2,0:0:0:0:
256,160,184410,1,0,0:0:0:0:
256,96,184621,1,2,0:0:0:0:
256,32,184833,1,4,0:0:0:0:
320,160,185255,5,0,0:0:0:0:
384,128,185466,1,0,0:0:0:0:
432,80,185678,1,4,0:0:0:0:
448,224,186100,1,0,0:0:0:0:
384,192,186311,1,0,0:0:0:0:
320,224,186523,1,4,0:0:0:0:
192,160,186945,1,0,0:0:0:0:
128,128,187156,1,0,0:0:0:0:
80,80,187368,1,4,0:0:0:0:
64,224,187790,1,0,0:0:0:0:
128,192,188002,1,0,0:0:0:0:
192,224,188213,1,4,0:0:0:0:
336,320,189269,6,2,B|304:360|248:352|200:360|176:304,2,170
323,256,190325,1,0,0:0:0:0:
259,288,190537,1,0,0:0:0:0:
195,256,190748,1,0,0:0:0:0:
320,160,191171,1,2,0:0:0:0:
256,160,191382,1,0,0:0:0:0:
192,160,191593,1,0,0:0:0:0:
256,32,192016,1,2,0:0:0:0:
256,32,192227,1,6,0:0:0:0:
64,160,192649,6,2,B|77:55|176:32|176:32,2,170
128,160,193706,1,0,0:0:0:0:
192,160,193917,1,2,0:0:0:0:
224,224,194128,1,0,0:0:0:0:
288,224,194340,1,2,0:0:0:0:
256,160,194551,1,0,0:0:0:0:
256,96,194762,1,2,0:0:0:0:
256,32,194973,1,4,0:0:0:0:
448,160,196030,6,2,B|435:55|336:32|336:32,2,170
384,160,197086,1,0,0:0:0:0:
320,160,197297,1,2,0:0:0:0:
288,224,197509,1,0,0:0:0:0:
224,224,197720,1,2,0:0:0:0:
256,160,197931,1,0,0:0:0:0:
256,96,198142,1,2,0:0:0:0:
256,32,198354,1,4,0:0:0:0:
192,160,198776,5,0,0:0:0:0:
128,128,198987,1,0,0:0:0:0:
80,80,199199,1,4,0:0:0:0:
64,224,199621,1,0,0:0:0:0:
128,192,199833,1,0,0:0:0:0:
192,224,200044,1,4,0:0:0:0:
320,160,200466,1,0,0:0:0:0:
384,128,200678,1,0,0:0:0:0:
432,80,200889,1,4,0:0:0:0:
448,224,201311,1,0,0:0:0:0:
384,192,201523,1,0,0:0:0:0:
320,224,201734,1,4,0:0:0:0:
128,240,202790,6,2,B|160:288|192:304|224:304|272:320,2,127.5
256,192,203847,1,2,0:0:0:0:
256,64,204269,1,2,0:0:0:0:
384,128,204692,5,0,0:0:0:0:
320,160,204903,1,0,0:0:0:0:
256,128,205114,1,0,0:0:0:0:
192,160,205325,1,0,0:0:0:0:
128,128,205537,1,4,0:0:0:0:
312,288,206171,6,0,B|280:320|216:320|184:272,2,127.5
320,160,207227,1,0,0:0:0:0:
320,160,207438,1,0,0:0:0:0:
351,95,207649,2,4,B|356:97|452:97|465:202,2,170
192,160,208917,1,0,0:0:0:0:
192,160,209128,1,6,0:0:0:0:
384,240,209551,6,2,B|352:288|320:304|288:304|240:320,2,127.5
256,192,210607,1,2,0:0:0:0:
256,64,211030,1,4,0:0:0:0:
128,128,211452,5,0,0:0:0:0:
192,160,211663,1,0,0:0:0:0:
256,128,211875,1,0,0:0:0:0:
320,160,212086,1,0,0:0:0:0:
384,128,212297,1,4,0:0:0:0:
256,192,212931,12,4,216734,0:0:0:0:
