osu file format v6

[General]
AudioFilename: Sambomaster - Kimi wo Mamotte Kimi wo Aishite [TV Size].mp3
AudioLeadIn: 993
PreviewTime: 51063
Countdown: 0
SampleSet: Soft
StackLeniency: 0.7
Mode: 0
LetterboxInBreaks: 1
SkinPreference:Default

[Editor]
Bookmarks: 4296,6908,20779,34710,52123,66054,79985
DistanceSpacing: 1
BeatDivisor: 4
GridSize: 8

[Metadata]
Title:Kimi wo Mamotte, Kimi wo Aishite
Artist:Sambomaster
Creator:YGOkid8
Version:Hollow Mix
Source:Bleach
Tags:Gladi ztrot TV Size Ending 19

[Difficulty]
HPDrainRate:7
CircleSize:5
OverallDifficulty:8
SliderMultiplier:2.6
SliderTickRate:2

[Events]
//Background and Video events
0,0,"Bleach Ending 19_ Kimi wo Mamotte Kimi wo Aishite_0001.jpg"
Video,0,"Bleach Ending 19-0.wmv"
//Break Periods
//Storyboard Layer 0 (Background)
//Storyboard Layer 1 (Fail)
//Storyboard Layer 2 (Pass)
//Storyboard Layer 3 (Foreground)
//Storyboard Sound Samples
//Background Colour Transformations
3,100,163,162,255

[TimingPoints]
2585,434.785759317097,4,2,0,100,1,0
46280,-200,4,2,0,100,0,0
48019,-100,4,2,0,100,0,0
53019,-100,4,2,0,100,0,1
66931,-100,4,2,0,100,0,0
66932,-100,4,2,0,100,0,1
80845,-100,4,2,0,100,0,0
87803,-100,4,2,0,0,0,0

[Colours]
Combo1 : 0,128,255
Combo2 : 255,26,31
Combo3 : 255,255,0
Combo4 : 255,128,0

[HitObjects]
256,352,2584,5,4
256,32,3019,1,8
32,352,3454,1,4
480,352,3889,1,8
256,208,4324,12,2,5628
256,208,6063,12,4,6932
40,40,7367,6,2,L|304:40,1,260,10|2
368,40,7911,1,0
432,40,8019,1,0
480,160,8237,1,8
408,264,8454,1,0
328,160,8672,1,0
328,160,8780,1,0
328,160,8889,1,0
200,160,9106,5,8
72,160,9324,1,0
72,288,9541,1,0
72,160,9758,1,0
72,288,9976,1,8
200,288,10193,1,0
200,160,10411,1,0
200,288,10628,1,0
200,160,10845,1,8
328,160,11063,1,0
328,288,11280,5,0
328,160,11498,1,0
328,288,11715,1,8
456,288,11932,1,0
456,160,12150,1,0
456,288,12367,1,0
456,160,12585,1,8
456,32,12802,1,0
328,32,13019,6,2,L|184:32,1,130,0|0
64,32,13454,1,8
32,88,13563,1,0
64,144,13672,1,0
32,200,13780,1,0
64,256,13889,1,4
304,352,14324,6,2,B|432:320|440:144,1,260,10|2
440,88,14867,1,0
440,24,14976,1,0
312,24,15193,1,8
256,144,15411,1,0
208,24,15628,1,0
208,24,15737,1,0
208,24,15845,1,0
80,24,16063,5,8
32,144,16280,1,0
160,120,16498,1,0
32,144,16715,1,0
120,240,16932,1,8
160,120,17150,1,0
120,240,17367,1,0
248,216,17585,1,0
208,336,17802,5,8
248,216,18019,1,0
336,312,18237,1,0
248,216,18454,1,0
376,184,18672,1,8
336,312,18889,1,0
464,288,19106,1,0
376,184,19324,1,0
464,88,19541,1,8
336,72,19759,1,0
208,32,19976,5,0
144,32,20085,1,0
144,96,20193,1,0
208,96,20302,1,0
208,160,20411,1,8
144,160,20519,1,0
144,224,20628,1,0
144,288,20737,1,0
144,352,20846,1,4
480,352,21280,6,2,L|216:352,1,260,10|2
152,352,21824,1,0
88,352,21932,1,0
40,232,22150,1,8
112,128,22367,1,0
192,232,22585,1,0
192,232,22693,1,0
192,232,22802,1,0
320,232,23019,5,8
448,232,23237,1,0
448,104,23454,1,0
448,232,23672,1,0
448,104,23889,1,8
320,104,24106,1,0
320,232,24324,1,0
320,104,24541,1,0
320,232,24759,1,8
192,232,24976,1,0
192,104,25193,5,0
192,232,25411,1,0
192,104,25628,1,8
64,104,25846,1,0
64,232,26063,1,0
64,104,26280,1,0
64,232,26498,1,8
64,360,26715,1,0
192,360,26933,6,2,L|336:360,1,130,0|0
456,360,27367,1,8
488,304,27476,1,0
456,248,27585,1,0
488,192,27693,1,0
456,136,27802,1,4
216,40,28237,6,2,B|88:72|80:248,1,260,10|2
80,304,28780,1,0
80,368,28889,1,0
208,368,29106,1,8
264,248,29324,1,0
312,368,29541,1,0
312,368,29650,1,0
312,368,29759,1,0
440,368,29976,5,8
488,248,30193,1,0
360,272,30411,1,0
488,248,30628,1,0
400,152,30846,1,8
360,272,31063,1,0
400,152,31280,1,0
272,176,31498,1,0
312,56,31715,5,8
272,176,31933,1,0
184,80,32150,1,0
272,176,32367,1,0
144,208,32585,1,8
184,80,32802,1,0
56,104,33020,1,0
144,208,33237,1,0
56,304,33454,1,8
184,320,33672,1,0
264,216,33889,5,0
328,216,33998,1,0
392,216,34106,1,0
256,208,34324,12,4,35628
256,192,36063,5,2
256,64,36280,1,0
256,192,36498,1,0
128,192,36715,1,0
256,192,36933,1,2
256,320,37150,1,0
256,192,37367,5,0
384,192,37585,1,0
256,192,37802,1,2
176,96,38020,1,0
56,56,38237,1,0
56,184,38454,5,0
56,248,38563,1,0
56,312,38672,1,2
184,352,38889,5,0
248,352,38998,1,0
312,352,39107,1,0
376,352,39215,1,0
440,352,39324,1,0
480,232,39541,5,2
480,168,39650,1,0
480,104,39759,1,0
480,40,39867,1,0
416,40,39976,1,0
288,40,40193,1,0
256,168,40411,1,2
224,40,40628,1,0
96,40,40846,5,0
32,152,41063,1,0
32,216,41172,1,0
32,280,41280,1,2
136,360,41498,1,0
200,360,41607,1,0
264,360,41715,5,0
392,360,41933,1,0
456,360,42041,1,0
480,296,42150,1,2
480,168,42367,1,0
480,104,42476,1,0
480,40,42585,5,4
312,240,43020,1,2
312,112,43237,1,0
184,112,43454,1,0
56,336,43889,5,2
184,360,44107,1,0
312,360,44324,1,0
440,360,44541,1,0
480,240,44759,1,2
480,112,44976,1,0
384,24,45194,1,0
256,24,45411,1,0
128,24,45628,1,2
32,112,45846,1,0
136,192,46063,5,0
168,136,46280,2,0,B|256:24|384:24|480:112|440:192,1,390
376,192,47802,1,0
256,136,48020,1,0
256,264,48237,1,8
144,192,48454,5,0
144,192,48563,1,0
144,192,48672,1,0
144,320,48889,1,0
256,264,49107,1,8
256,376,49324,5,0
376,320,49541,1,0
376,320,49650,1,0
376,320,49759,1,0
376,192,49976,5,8
376,192,50085,1,0
376,192,50194,1,0
264,128,50411,5,0
200,128,50520,1,0
136,128,50628,1,0
72,128,50737,1,0
72,192,50846,1,8
32,32,51063,5,0
480,32,51281,1,4
256,192,51498,1,2
32,32,51715,1,12
32,352,52150,5,0
480,352,52585,1,8
192,32,53020,5,4
320,32,53237,1,0
256,144,53454,1,8
136,192,53672,1,0
256,240,53889,1,0
256,368,54107,1,0
256,240,54324,1,8
376,192,54541,1,0
256,144,54759,5,0
312,24,54976,1,0
256,144,55194,1,8
200,24,55411,1,0
256,144,55628,1,4
64,320,56498,5,0
64,192,56715,1,0
64,64,56933,1,8
192,64,57150,1,0
192,192,57368,1,0
320,192,57585,1,0
320,64,57802,1,8
448,64,58020,1,0
448,192,58237,5,0
448,320,58454,1,0
320,320,58672,1,8
192,320,58889,1,0
192,192,59107,5,0
192,64,59324,1,0
64,64,59541,1,8
64,192,59759,1,0
64,256,59868,1,0
64,320,59976,1,4
256,144,60411,5,8
256,272,60628,1,0
256,144,60846,1,0
488,24,61281,5,8
488,152,61498,1,0
360,152,61715,1,0
360,280,61933,1,0
488,280,62150,1,8
360,280,62368,1,0
232,280,62585,1,0
232,152,62802,1,0
104,152,63020,1,8
104,280,63237,1,0
256,208,63455,12,0,64976
256,80,65194,5,4
192,192,65411,1,0
320,192,65628,1,8
256,304,65846,1,0
256,208,66063,12,4,66933
256,240,67368,5,8
376,192,67585,1,0
256,144,67802,1,0
256,16,68020,1,0
256,144,68237,1,8
136,192,68455,1,0
256,240,68672,5,0
200,360,68889,1,0
256,240,69107,1,8
312,360,69324,1,0
256,240,69542,1,4
72,56,69976,5,8
136,56,70085,1,0
200,56,70194,1,0
264,56,70302,1,0
328,56,70411,1,4
72,56,70846,5,8
72,320,71281,1,0
72,192,71498,1,0
200,192,71715,1,8
328,192,71933,1,0
456,192,72150,5,0
456,64,72368,1,0
328,64,72585,1,8
200,64,72802,1,0
200,192,73020,5,0
200,320,73237,1,0
72,320,73455,1,8
72,192,73672,1,0
72,128,73781,1,0
72,64,73889,1,4
256,240,74324,5,8
256,112,74542,1,0
256,240,74759,1,0
488,360,75194,5,8
488,232,75411,1,0
360,232,75629,1,0
360,104,75846,1,0
488,104,76063,1,8
360,104,76281,1,0
232,104,76498,1,0
232,232,76715,1,0
104,232,76933,1,8
104,104,77150,1,0
8,192,77368,5,0
136,192,77585,1,0
136,256,77694,1,0
136,320,77802,1,12
232,232,78020,1,0
232,168,78129,1,0
232,104,78237,1,4
328,192,78455,5,0
328,256,78563,1,0
328,320,78672,1,12
432,240,78889,1,0
432,176,78998,1,0
432,112,79107,1,4
328,40,79324,5,0
264,40,79433,1,0
200,40,79542,1,12
72,40,79759,1,0
72,104,79868,1,0
72,168,79976,1,4
72,296,80194,5,0
104,352,80302,1,0
144,296,80411,1,12
176,352,80520,1,0
216,296,80629,1,0
248,352,80737,1,0
288,296,80846,5,4
32,32,81716,1,4
480,32,82585,1,4
256,192,83020,5,8
488,360,83455,1,4
256,192,83889,5,8
32,360,84324,1,4
256,192,84759,5,8
24,192,85194,1,4
256,192,85629,5,8
488,192,86063,1,4
256,192,86498,5,8
256,24,86933,1,4
256,192,87368,5,8
256,208,87803,12,0,89107
