osu file format v5

[General]
AudioFilename: Hikari no Rock.mp3
AudioLeadIn: 0
PreviewTime: -1
Countdown: 1
SampleSet: Normal
StackLeniency: 0.7
Mode: 0
LetterboxInBreaks: 1
EditorBookmarks: 21488,26630,31613,36809,41309,56898,59416,62255,64987,67612,73047,78083,81029,83869,93833,97261,104065,108297,113386,135136,146011,148261,157636,167547,177404,182708,187851,190208,192833,200601,211636,222458

[Metadata]
Title:Hikari no Rock
Artist:Sambomaster
Creator:Gunzil
Version:Hard
Source:
Tags:

[Difficulty]
HPDrainRate:5
CircleSize:5
OverallDifficulty:5
SliderMultiplier:0.8
SliderTickRate:1

[Events]
//Background and Video events
//Break Periods
2,86747,92954
2,159604,167204
//Storyboard Layer 0 (Background)
//Storyboard Layer 1 (Failing)
//Storyboard Layer 2 (Passing)
//Storyboard Layer 3 (Foreground)
//Storyboard Sound Samples
//Background Colour Transformations
3,100,163,162,255

[TimingPoints]
21512,214.285714285714,4,1,0,100,1

[HitObjects]
256,192,21512,1,0
288,192,21672,1,0
320,224,21833,5,0
320,256,21994,1,0
288,288,22154,5,0
256,288,22315,1,0
224,288,22476,5,0
192,288,22637,2,0,C|192:224,1,60
192,192,22958,5,0
192,160,23119,1,0
192,128,23279,1,0
224,96,23440,5,0
288,96,23762,1,0
320,96,23922,1,0
128,64,26654,5,0
160,64,26815,1,0
192,64,26976,1,0
224,64,27137,1,0
256,64,27297,2,0,C|256:192,1,120
224,192,27779,5,0
192,160,27940,1,0
160,160,28101,1,0
128,160,28262,1,0
96,160,28422,2,2,C|96:288,1,120
128,320,28904,6,2,C|256:320,5,120
352,64,31904,5,0
320,64,32065,1,0
288,64,32226,1,0
256,96,32387,5,0
256,128,32547,1,0
224,192,32869,5,0
192,192,33029,1,0
160,192,33190,1,0
128,224,33351,1,0
128,288,33672,1,0
160,320,33833,5,0
192,320,33994,1,0
224,320,34154,1,0
256,288,34315,5,0
256,256,34476,1,0
256,224,34637,1,0
160,320,37047,5,0
160,320,37208,1,0
160,288,37369,5,0
160,288,37529,1,0
160,256,37690,5,0
160,256,37851,1,0
160,224,38012,5,0
160,224,38172,1,0
160,192,38333,5,0
160,192,38494,1,0
160,192,38654,1,0
160,192,38815,6,0,C|288:192,1,120
320,192,39351,1,0
384,192,39672,1,0
256,192,41976,5,0
256,192,42297,2,0,C|384:192,1,120
448,192,42940,2,0,C|448:64,1,120
384,32,43583,2,0,C|288:128,1,120
288,192,44226,2,0,C|160:160,1,120
96,96,44869,6,0,C|96:224,1,120
96,288,45511,2,0,C|224:320,1,120
288,320,46154,2,0,C|416:288,1,120
480,256,46797,2,0,C|480:128,1,120
384,128,47440,6,0,C|384:256,1,120
288,256,48083,2,0,C|288:128,1,120
192,96,48726,2,0,C|192:224,1,120
96,256,49369,2,0,C|96:128,1,120
96,64,50011,6,0,C|224:64,1,120
256,64,50654,2,0,C|256:192,4,120
352,64,52261,5,0
352,128,52583,2,0,C|352:256,1,120
288,256,53226,2,0,C|288:128,1,120
224,128,53869,2,0,C|352:128,1,120
384,64,54511,2,0,C|384:192,1,120
448,192,55154,6,0,C|320:192,1,120
320,256,55797,2,0,C|320:128,1,120
384,160,56440,6,0,C|352:160|352:192|288:192,1,120
256,192,56976,1,0
224,192,57137,1,0
192,192,57298,1,0
160,192,57458,1,0
160,256,57779,2,0,C|32:256,1,120
32,192,58261,1,0
32,160,58422,1,0
256,64,59601,5,2
256,96,59761,1,2
256,128,59922,1,2
224,160,60083,1,2
160,160,60404,2,2,C|112:184|128:256,1,120
160,256,60886,1,2
192,256,61047,1,2
448,64,62976,5,0
448,96,63136,1,0
416,128,63297,1,0
384,128,63458,1,0
352,128,63619,1,0
320,160,63779,1,0
320,192,63940,1,0
288,224,64101,1,0
256,224,64261,1,0
224,192,64422,1,0
224,160,64583,1,0
256,128,64744,1,0
96,64,65119,5,0
64,96,65279,1,0
64,128,65440,1,0
64,160,65601,1,0
96,192,65762,5,0
128,192,65923,1,0
160,224,66083,1,0
192,224,66244,1,0
224,224,66405,1,0
256,192,66566,5,0
256,160,66726,1,0
224,128,66887,1,0
160,128,67208,1,0
160,96,67369,1,0
448,320,67744,5,0
448,288,67904,1,0
448,256,68065,1,0
416,256,68226,1,0
384,256,68386,1,0
352,256,68547,1,0
352,224,68708,1,0
288,224,69029,5,0
256,224,69190,1,0
224,224,69351,1,0
224,256,69511,1,0
224,288,69672,1,0
224,320,69833,1,0
192,320,69994,1,0
128,288,70315,5,0
128,256,70476,1,0
128,224,70636,1,0
128,192,70797,1,0
128,128,71440,2,2,C|256:32|320:96,1,240
256,192,72726,1,2
256,96,73422,5,0
192,128,73744,1,0
192,160,73904,1,0
160,160,74065,1,0
160,128,74226,1,0
128,128,74386,1,0
96,128,74547,1,0
64,128,74708,2,0,B|64:192,1,60
64,224,75029,2,0,B|128:224,1,60
192,224,75511,5,0
192,224,75672,1,0
192,224,75833,1,0
224,256,75994,2,0,B|288:256,1,60
320,224,76369,2,0,B|320:160,1,60
320,128,76690,2,0,B|256:128,1,60
224,128,77011,2,0,B|160:128,1,60
128,128,77386,2,0,B|128:192,3,60
64,160,78244,5,0
64,128,78351,1,0
64,96,78511,1,0
96,64,78672,1,0
128,96,78833,1,0
128,128,78994,1,0
128,160,79154,1,0
160,224,79529,2,0,B|224:224,6,60
160,224,81351,2,2,B|352:224|256:64,3,240
256,192,83869,12,0,86547
256,192,94154,5,0
224,192,94315,1,0
192,224,94475,5,0
192,256,94636,1,0
224,288,94796,5,0
256,288,94957,1,0
288,288,95118,5,0
320,288,95279,2,0,C|320:192,1,80
320,160,95654,1,0
320,128,95815,1,0
288,96,96190,5,0
224,96,96511,1,0
192,96,96671,1,0
384,64,99458,5,0
352,64,99619,1,0
320,64,99780,1,0
288,64,99941,1,0
256,64,100101,2,0,C|256:192,1,120
288,192,100583,5,0
320,160,100744,1,0
352,160,100905,1,0
384,160,101066,1,0
416,160,101226,2,2,C|416:288,1,120
384,320,101708,6,2,C|256:320,5,120
160,64,104654,5,0
192,64,104815,1,0
224,64,104976,1,0
256,96,105137,5,0
256,128,105297,1,0
288,192,105619,5,0
320,192,105779,1,0
352,192,105940,1,0
384,224,106101,1,0
384,288,106422,1,0
352,320,106583,5,0
320,320,106744,2,0,B|256:320,3,60
288,288,107387,1,0
96,256,109690,5,0
96,256,109851,1,0
160,256,110172,5,0
160,256,110333,1,0
160,256,110494,1,0
160,256,110654,6,0,B|224:256,6,60,0|0|0|0|0|0|0
128,192,111940,1,0
192,192,112101,2,0,B|352:192,1,140
256,192,114779,5,0
256,192,115100,2,0,C|128:192,1,120
64,192,115743,2,0,C|64:320,1,120
128,352,116386,2,0,C|224:256,1,120
224,192,117029,2,0,C|352:224,1,120
416,288,117672,6,0,C|416:160,1,120
416,96,118314,2,0,C|288:64,1,120
224,64,118957,2,0,C|96:96,1,120
32,128,119600,2,0,C|32:256,1,120
128,256,120243,6,0,C|128:128,1,120
224,128,120886,2,0,C|224:256,1,120
320,288,121529,2,0,C|320:160,1,120
416,128,122172,2,0,C|416:256,1,120
416,320,122814,6,0,C|288:320,1,120
256,320,123457,2,0,C|256:192,4,120
160,320,125064,5,0
160,256,125386,2,0,C|160:128,1,120
224,128,126029,2,0,C|224:256,1,120
288,256,126672,2,0,C|160:256,1,120
128,320,127314,2,0,C|128:192,1,120
64,192,127957,6,0,C|192:192,1,120
192,128,128600,2,0,C|192:256,1,120
128,224,129243,6,0,C|160:224|160:192|224:192,1,120
256,192,129779,1,0
288,192,129940,1,0
320,192,130101,1,0
352,192,130261,1,0
352,128,130582,2,0,C|480:128,1,120
480,192,131064,1,0
480,224,131225,1,0
256,320,132404,5,2
256,288,132564,1,2
256,256,132725,1,2
288,224,132886,1,2
352,224,133207,2,2,C|400:200|384:128,1,120
352,128,133689,1,2
320,128,133850,1,2
64,64,135886,5,0
64,96,136046,1,0
96,128,136207,1,0
128,128,136368,1,0
160,128,136529,1,0
192,160,136689,1,0
192,192,136850,1,0
224,224,137011,1,0
256,224,137171,1,0
288,160,137493,1,0
256,128,137654,1,0
416,64,138029,5,0
448,96,138189,1,0
448,128,138350,1,0
448,160,138511,1,0
384,192,138833,5,0
352,224,138993,1,0
320,224,139154,1,0
288,224,139315,1,0
256,192,139476,5,0
256,160,139636,1,0
288,128,139797,1,0
352,128,140118,1,0
352,96,140279,1,0
64,320,140654,5,0
64,288,140814,1,0
64,256,140975,1,0
96,256,141136,1,0
128,256,141296,1,0
160,256,141457,1,0
160,224,141618,1,0
224,224,141939,5,0
256,224,142100,1,0
288,224,142261,1,0
288,256,142421,1,0
288,288,142582,1,0
288,320,142743,1,0
320,320,142904,1,0
384,288,143225,5,0
384,256,143386,1,0
384,224,143546,1,0
384,192,143707,1,0
384,128,144350,2,2,C|256:32|160:96,1,280
160,192,145744,1,2
256,96,146333,5,0
256,128,146547,1,0
288,160,146708,1,0
320,160,146869,1,0
352,128,147029,1,0
384,128,147190,1,0
416,128,147351,1,0
448,128,147512,2,0,B|448:192,1,60
448,224,147833,2,0,B|384:224,2,60
320,224,148529,5,0
320,224,148690,1,0
320,224,148851,1,0
288,192,149012,2,0,B|224:192,3,60
224,160,149654,2,0,B|224:96,1,60
288,128,149976,2,0,B|352:128,1,60
384,128,150297,2,0,B|384:192,3,60
448,160,151155,5,0
448,128,151262,1,0
448,96,151422,1,0
416,64,151583,1,0
384,96,151744,1,0
384,128,151905,1,0
384,160,152065,1,0
352,224,152386,2,0,B|288:224,6,60
352,224,154261,2,2,B|160:224|256:64,3,240
256,192,157851,12,0,159404
96,192,168565,5,0
160,128,168886,1,0
224,192,169208,1,0
288,128,169529,1,0
416,192,171136,5,0
352,128,171457,1,0
288,192,171779,1,0
224,128,172100,1,0
256,192,174136,12,0,177083
256,192,177619,5,0
288,160,177779,1,0
320,192,177940,1,0
352,224,178101,1,0
384,192,178261,1,0
416,160,178422,1,0
448,192,178583,1,0
480,224,178744,1,0
480,256,178958,2,0,B|480:320|448:320,3,60
256,192,179761,5,0
224,160,179921,1,0
192,192,180082,1,0
160,224,180243,1,0
96,160,180564,1,0
64,192,180725,1,0
32,224,180886,2,0,B|32:288|64:288,3,60
64,320,181529,1,0
96,320,181905,5,0
128,320,182065,1,0
192,320,182440,2,0,B|256:320,1,60
288,288,182761,2,0,B|288:224,4,60,0|0|0|0|0
288,224,183779,2,0,B|352:224,1,60
384,224,184047,2,0,B|448:224,1,60
448,192,184369,2,0,B|448:128,2,60
384,192,185065,2,0,B|320:192,1,60
288,192,185386,2,0,B|224:192,1,60
96,192,186244,1,0
128,128,186565,1,0
160,192,186886,2,0,B|416:192,1,240
288,192,188226,5,0
288,256,188494,2,0,B|224:256,1,60
224,224,188815,1,0
192,192,188976,1,0
160,160,189136,1,0
192,128,189297,1,0
224,96,189458,1,0
256,128,189619,1,0
320,128,189833,5,0
320,128,189994,1,0
352,192,190315,5,0
352,224,190476,1,0
352,256,190637,1,0
320,288,190798,1,0
288,320,190958,1,0
256,320,191118,1,0
224,320,191279,1,0
192,288,191440,1,0
160,256,191600,1,0
160,224,191761,1,0
192,192,191922,1,0
224,160,192083,1,0
224,128,192243,1,0
256,128,192404,2,0,B|320:128,1,60
416,64,192940,5,0
384,64,193100,1,0
352,64,193315,1,0
320,64,193475,2,0,B|256:64,1,60
224,96,193796,2,0,B|224:160,1,60
224,160,194279,2,0,B|160:160,1,60
128,160,194601,2,0,B|64:160,1,60
64,192,194923,2,0,B|64:256,2,60
128,192,195619,2,0,B|192:192,1,60
224,192,195940,2,0,B|288:192,1,60
416,192,196744,1,0
384,256,197065,1,0
352,192,197439,2,0,B|96:192,2,240
256,192,200815,12,4,201833
256,192,203333,12,4,204565
256,192,206226,12,4,211369
