osu file format v9

[General]
AudioFilename: Sam Tsui - DJ Got Us Falling In Love.mp3
AudioLeadIn: 0
PreviewTime: 39267
Countdown: 1
SampleSet: Normal
StackLeniency: 0.7
Mode: 0
LetterboxInBreaks: 1

[Editor]
Bookmarks: 119892
DistanceSpacing: 0.8
BeatDivisor: 4
GridSize: 8

[Metadata]
Title:DJ Got Us Falling In Love
Artist:Sam Tsui
Creator:dkun
Version:Falling for You!
Source:
Tags:mmzz animelover1432

[Difficulty]
HPDrainRate:4
CircleSize:4
OverallDifficulty:4
ApproachRate:5
SliderMultiplier:1.4
SliderTickRate:1

[Events]
//Background and Video events
0,0,"bg.jpg"
//Break Periods
2,72592,78692
2,152092,159192
//Storyboard Layer 0 (Background)
//Storyboard Layer 1 (Fail)
//Storyboard Layer 2 (Pass)
//Storyboard Layer 3 (Foreground)
Sprite,Foreground,Centre,"credit_animelover.png",320,240 L,40392,64 F,1,0,500,0.8,0 S,1,0,500,0.8,0.85 L,104392,64 F,1,0,500,0.8,0 S,1,0,500,0.8,0.85 L,176392,68 F,1,0,500,0.8,0 S,1,0,500,0.8,0.85 M,0,0,,281,273 S,0,0,,0.8464001 F,0,0,392,0,1 F,0,392,216392,1 F,0,216392,216892,1,0
//Storyboard Sound Samples
//Background Colour Transformations
3,100,163,162,255

[TimingPoints]
8392,500,4,1,0,81,1,0
39142,-100,4,1,0,81,0,1
72392,-100,4,1,0,81,0,0
79892,-100,4,2,0,80,0,0
80392,-100,4,1,0,80,0,0
90892,-100,4,2,0,80,0,0
91392,-100,4,1,0,40,0,0
96392,-100,4,1,0,80,0,0
103892,-100,4,2,0,80,0,0
104142,-100,4,2,0,80,0,1
104392,-100,4,1,0,80,0,1
112142,-100,4,1,0,49,0,1
112892,-100,4,1,0,80,0,1
133142,-100,4,1,0,80,0,0
144392,-100,4,1,0,40,0,0
144892,-100,4,1,0,80,0,0
160392,-100,4,1,0,40,0,0
176392,-100,4,1,0,81,0,1
210392,-100,4,1,0,81,0,0

[Colours]
Combo1 : 255,128,128
Combo2 : 255,128,64
Combo3 : 255,128,128
Combo4 : 255,128,64

[HitObjects]
72,208,8392,2,0,B|104:120|208:144|296:208|208:304,1,280,4|0
320,320,9892,1,8
400,240,10392,1,0
320,160,10892,1,8
240,88,11392,1,0
240,200,11892,1,8
352,200,12392,6,2,B|408:272|368:360,2,140,0|8|0
240,200,13892,1,8
128,200,14392,2,2,B|72:272|112:360,2,140,0|8|0
240,200,15892,1,8
336,256,16392,5,4
240,320,16892,2,0,B|264:368|336:384|384:328,1,140,8|0
376,240,17892,1,8
376,128,18392,2,0,B|352:80|280:64|232:120,1,140,0|8
160,152,19392,1,0
80,224,19892,1,8
184,272,20392,6,2,B|208:312|264:320|320:280,1,140,4|8
312,176,21392,2,2,B|288:136|232:128|176:168,1,140,0|8
112,240,22392,2,2,B|72:208|72:152|127:104,2,140,0|8|0
224,248,23892,1,8
224,248,24392,6,0,B|224:144|368:288|400:104|480:168,1,280,4|0
432,256,25892,1,8
336,320,26392,2,0,B|240:336|184:336|112:256|168:136,2,280
280,224,28892,6,2,B|352:152|464:200|504:256|480:328,1,280,0|8
376,304,30392,1,0
264,304,30892,1,8
264,192,31392,1,0
152,168,31892,1,8
112,208,32142,1,0
72,248,32392,1,4
168,312,32892,5,8
256,240,33392,1,0
336,160,33892,1,8
392,152,34142,1,0
440,184,34392,1,0
368,264,34892,1,8
256,248,35392,1,0
184,168,35892,5,8
184,112,36142,1,0
184,56,36392,2,2,B|208:24|312:24|336:72,2,140,0|8|0
184,168,37892,1,8
80,264,38392,2,0,B|504:264,1,420,0|8
440,168,40392,5,4
352,104,40892,1,0
264,168,41392,1,8
176,104,41892,1,8
88,176,42392,6,2,B|56:240|72:296|96:328,2,140,2|0|10
192,176,43892,1,8
304,176,44392,1,0
416,176,44892,1,0
304,176,45392,2,10,B|224:144|320:88,1,105
224,64,46142,5,8
168,64,46392,1,0
88,144,46892,1,0
88,256,47392,1,8
200,256,47892,1,8
312,256,48392,6,2,B|384:240|416:168|352:112|304:112,2,210,2|0|2
200,256,50392,2,2,B|128:240|96:168|160:112|208:112,2,210,2|0|2
256,192,52392,12,8,56392
96,184,56892,5,0
168,96,57392,2,0,B|304:96,1,105,8|0
384,184,58392,1,8
384,296,58892,1,0
280,248,59392,2,0,B|144:248,1,105,8|0
208,112,60392,5,8
320,112,60892,1,0
264,208,61392,2,0,B|264:336,1,105,8|0
352,312,62142,1,8
408,312,62392,1,0
408,200,62892,5,4
328,120,63392,1,0
248,200,63892,1,8
328,280,64392,2,2,B|248:344|160:312|136:192,1,210,6|2
312,16,66392,6,0,B|224:-48|168:48,2,140,0|8|8
392,72,67892,1,0
432,168,68392,5,0
432,224,68642,1,0
432,280,68892,1,8
320,280,69392,1,8
208,280,69892,1,0
96,280,70392,5,0
96,224,70642,1,0
96,168,70892,1,8
192,112,71392,2,0,B|256:56|368:88|352:112,1,140,10|2
424,144,72392,1,6
208,144,79892,5,8
112,200,80392,1,4
208,256,80892,6,0,B|224:320|296:320|312:240,1,140,8|0
400,200,81892,1,8
312,128,82392,2,0,B|312:72|216:72|215:134,1,140,0|8
128,200,83392,1,0
184,296,83892,1,8
240,200,84392,5,0
184,104,84892,2,0,B|256:48|344:88,1,140,8|0
368,176,85892,2,0,B|312:256|184:216,1,140,8|0
160,176,86892,1,8
104,80,87392,2,0,B|40:152|80:256,1,140,0|8
136,304,88392,5,6
240,336,88892,1,8
312,240,89392,2,0,B|472:240,1,140,0|8
440,128,90392,1,0
344,80,90892,5,8
240,40,91392,2,2,B|128:40|64:112|56:176|72:280|136:344|256:336,1,490
256,192,94392,12,4,96392
96,168,96892,5,8
168,80,97392,1,0
232,64,97642,1,0
296,72,97892,1,8
296,184,98392,2,0,B|344:152|408:160|432:224,1,140,0|8
336,280,99392,1,0
288,312,99642,1,0
232,304,99892,1,8
136,256,100392,6,2,B|64:200|136:112,2,140,0|8|0
248,256,101892,1,8
360,256,102392,2,2,B|432:200|360:112,2,140,0|8|0
248,256,103892,1,8
136,232,104392,5,6
192,136,104892,1,8
304,136,105392,1,0
368,232,105892,1,8
264,280,106392,6,0,B|224:328|184:328|128:288,2,140,2|8|2
264,168,107892,1,8
264,56,108392,2,0,B|203:-11|120:66,2,140,2|8|2
344,136,109892,1,8
336,248,110392,2,2,B|240:320|176:336|104:304|64:240|48:168|232:72,1,490,0|4
264,56,112392,5,8
352,104,112892,1,8
336,208,113392,1,0
312,256,113642,1,0
288,296,113892,1,8
216,208,114392,6,0,B|208:160|144:136|96:152,2,140,0|8|0
216,96,115892,1,8
216,208,116392,2,0,B|224:160|288:136|336:152,2,140,0|8|0
216,320,117892,5,8
272,320,118142,1,0
328,320,118392,1,0
376,224,118892,1,8
328,120,119392,1,0
232,64,119892,2,0,B|208:32|104:24|80:88,1,140,8|4
88,176,120892,5,8
152,272,121392,2,0,B|208:280|280:264,1,105,8|0
368,184,122392,1,8
368,184,122892,1,0
272,128,123392,2,0,B|216:120|144:136,1,105,8|0
136,208,124142,5,0
136,264,124392,1,8
248,264,124892,1,8
360,264,125392,2,0,B|424:208|352:128,1,140
280,80,126392,1,0
72,152,127392,5,0
184,152,127892,1,8
128,248,128392,2,2,B|168:328|240:392|384:400|504:312,1,420,4|10
496,208,130392,1,0
424,120,130892,1,8
312,120,131392,1,0
200,128,131892,2,2,B|104:152|64:224|88:288|136:352,1,280,8|10
256,192,133142,12,0,135892
160,184,136392,5,8
120,288,136892,1,0
216,344,137392,1,0
312,288,137892,1,0
360,184,138392,5,8
256,144,138892,1,0
144,120,139392,1,0
104,224,139892,2,2,B|136:296|248:288,1,140,0|10
328,264,140892,5,0
384,168,141392,1,0
320,72,141892,1,0
264,168,142392,5,0
264,280,142892,1,0
152,264,143392,1,0
120,216,143642,1,0
96,168,143892,2,2,B|136:104|232:136,1,140,0|10
288,224,144892,5,10
400,224,145392,1,0
344,320,145892,1,0
344,208,146392,2,0,B|288:120|216:136,1,140
120,136,147392,1,0
56,232,147892,1,0
168,232,148392,6,2,B|240:272|304:272|328:200|400:176|456:224,1,280,8|0
376,112,149892,1,8
272,80,150392,2,2,B|304:112|280:184|208:208|208:272|248:344,1,280,0|4
360,336,151892,1,6
48,224,160392,6,0,B|64:272|96:304|168:312,1,140
248,248,161392,2,0,B|288:192|360:208,1,105
344,120,162142,1,0
344,120,162392,1,0
232,88,162892,1,0
168,184,163392,2,0,B|184:272|296:280,1,140
352,216,164392,5,0
320,112,164892,1,0
224,64,165392,2,0,B|160:40|104:104,1,105
64,208,166392,1,0
136,288,166892,1,0
192,192,167392,2,0,B|232:136|296:184,1,105
424,192,168392,5,0
424,304,168892,1,0
312,304,169392,1,0
200,304,169892,1,0
200,192,170392,6,0,B|112:184|72:280,3,140
176,328,172392,1,0
288,312,172892,2,0,B|296:192|464:280|432:88|256:136|208:0|96:112|200:296|24:232,1,560
136,320,175392,1,0
248,320,175892,1,0
360,320,176392,5,6
360,208,176892,1,8
296,112,177392,1,0
240,208,177892,1,8
240,320,178392,6,0,B|392:320,1,140,2|8
384,208,179392,1,0
312,128,179892,1,8
216,64,180392,6,0,B|120:104|120:192,1,140,2|8
120,272,181392,1,0
216,328,181892,1,8
312,272,182392,2,0,B|312:120,2,140,2|8|2
416,224,183892,1,8
416,224,184392,5,6
416,224,184892,2,0,B|328:256|232:216|200:168|176:96,1,280,8|8
96,184,186392,1,0
184,256,186892,1,8
264,184,187392,1,0
352,256,187892,1,8
320,144,188392,6,2,B|232:112|136:152|104:200|80:272,1,280
200,280,189892,1,8
312,280,190392,1,2
416,240,190892,1,2
416,128,191392,1,2
312,96,191892,1,2
216,32,192392,6,8,B|144:40|80:80|56:152|40:208|64:280|88:320|160:352|248:352,1,490
272,328,194392,1,8
344,264,194892,1,8
344,152,195392,2,2,B|288:80|144:96|128:168|112:232,1,280
176,312,196892,5,0
248,232,197392,2,2,B|304:304|464:288|464:216|480:152,1,280
256,192,198642,12,0,200392
192,88,200892,5,8
152,192,201392,2,0,B|168:264|248:240,1,105,8|0
360,208,202392,1,8
360,208,202892,1,0
360,96,203392,2,0,B|344:24|264:48,1,105,8|0
152,88,204392,6,0,B|64:112|56:216,2,140,8|0|8
152,200,205892,1,0
152,312,206392,2,0,B|240:304|240:206,2,140,8|0|8
96,216,207892,2,2,B|40:200|40:120|112:112,1,140
184,56,208892,5,8
296,56,209392,1,0
240,152,209892,1,8
176,248,210392,2,0,B|224:296|256:296|304:240,3,140,0|8|0|8
296,136,212392,2,0,B|257:90|225:90|177:138,3,140,0|8|0|8
256,192,214392,12,4,216392
