osu file format v9

[General]
AudioFilename: Sam Tsui - DJ Got Us Falling In Love.mp3
AudioLeadIn: 0
PreviewTime: 39267
Countdown: 1
SampleSet: Normal
StackLeniency: 0.7
Mode: 0
LetterboxInBreaks: 1
EpilepsyWarning: 1

[Editor]
Bookmarks: 119892,216392
DistanceSpacing: 1.1
BeatDivisor: 4
GridSize: 8

[Metadata]
Title:DJ Got Us Falling In Love
Artist:Sam Tsui
Creator:dkun
Version:Crazy for You!
Source:
Tags:mmzz animelover1432

[Difficulty]
HPDrainRate:7
CircleSize:4
OverallDifficulty:6
ApproachRate:8
SliderMultiplier:2.1
SliderTickRate:1

[Events]
//Background and Video events
0,0,"bg.jpg"
//Break Periods
2,72591,79642
2,152342,158392
//Storyboard Layer 0 (Background)
//Storyboard Layer 1 (Fail)
//Storyboard Layer 2 (Pass)
//Storyboard Layer 3 (Foreground)
Sprite,Foreground,Centre,"credit_dkun.png",320,240 L,40392,64 F,1,0,500,0.8,0 S,1,0,500,0.8,0.85 L,104392,64 F,1,0,500,0.8,0 S,1,0,500,0.8,0.85 L,176392,68 F,1,0,500,0.8,0 S,1,0,500,0.8,0.85 M,0,0,,272,276 S,0,0,,0.8464001 F,0,0,392,0,1 F,0,392,216392,1 F,0,216392,216892,1,0
//Storyboard Sound Samples
//Background Colour Transformations
3,100,163,162,255

[TimingPoints]
8392,500,4,1,0,100,1,0
40392,-100,4,1,0,100,0,1
47142,-100,4,1,0,100,0,0
47392,-100,4,1,0,100,0,1
56142,-100,4,1,0,100,0,0
56392,-100,4,1,0,100,0,1
72392,-100,4,1,0,100,0,0
104392,-100,4,1,0,100,0,1
110892,-100,4,1,0,100,0,0
111392,-100,4,1,0,100,0,1
119892,-100,4,1,0,100,0,0
120392,-100,4,1,0,100,0,1
127267,-100,4,1,0,100,0,0
127392,-100,4,1,0,100,0,1
136267,-100,4,1,0,100,0,0
159142,-133.333333333333,4,2,0,100,0,0
174642,-133.333333333333,4,2,0,10,0,0
175142,-100,4,1,0,100,0,0
176392,-100,4,1,0,100,0,1
183017,-100,4,1,0,100,0,0
183142,-100,4,1,0,100,0,1
191517,-100,4,1,0,100,0,0
191642,-100,4,1,0,100,0,1
200017,-100,4,1,0,100,0,0
200142,-100,4,1,0,100,0,1
216392,-100,4,1,0,100,0,0

[Colours]
Combo1 : 255,128,128
Combo2 : 255,128,64
Combo3 : 255,128,128
Combo4 : 255,128,64

[HitObjects]
192,120,8392,1,0
256,40,8642,1,8
320,120,8892,1,0
256,320,9392,1,0
256,320,9517,1,8
256,320,9642,1,0
256,320,9767,1,8
256,320,9892,1,4
256,216,10142,5,0
208,128,10392,1,8
304,128,10642,1,0
368,40,10892,1,8
424,128,11142,1,0
472,224,11392,2,2,B|456:288|368:296,1,105
296,328,11892,1,4
80,192,12392,5,4
256,80,12892,1,4
432,192,13392,1,4
232,240,13892,1,8
304,160,14142,1,4
112,240,14642,1,8
48,160,14892,1,4
168,328,15392,1,8
80,320,16642,6,2,B|32:272|88:216,1,105
152,152,17142,1,8
240,96,17392,1,0
240,200,17642,1,8
336,152,17892,1,4
440,320,18392,6,2,B|488:264|424:216,1,105
376,144,18892,1,8
304,72,19142,1,0
200,72,19392,1,8
128,152,19642,1,4
128,152,19767,1,8
128,152,19892,1,4
320,64,20392,6,2,B|360:120|312:176,1,105
256,240,20892,1,8
200,328,21142,1,0
312,328,21392,1,4
256,40,22142,5,8
256,40,22392,1,4
136,216,22892,1,0
200,296,23142,1,8
312,296,23392,1,0
384,216,23642,1,4
80,328,24392,6,2,B|40:272|72:232,1,105
128,144,24892,1,8
216,88,25142,1,0
256,56,25267,1,8
296,88,25392,1,4
384,144,25642,1,8
384,144,25892,1,0
304,208,26142,5,8
200,208,26392,1,0
160,112,26642,1,8
248,56,26892,1,0
336,112,27142,1,8
304,208,27392,1,0
304,312,27642,2,2,B|256:352|184:296,1,105
112,256,28142,1,8
40,184,28392,5,0
40,184,28517,1,8
40,184,28642,1,0
40,184,28767,1,8
40,184,28892,1,4
112,104,29142,1,0
200,48,29392,1,8
312,48,29642,1,0
400,104,29892,1,8
464,184,30142,1,0
376,312,30392,6,2,B|328:360|248:352,1,105
136,312,30892,2,2,B|184:360|264:352,1,105
256,248,31392,1,0
256,192,31517,1,8
256,136,31642,1,4
256,32,31892,1,8
256,32,32142,1,0
72,136,32642,6,0,B|24:184|88:248,1,105
136,312,33142,1,8
200,224,33392,1,0
304,224,33642,1,8
360,312,33892,1,0
256,328,34142,1,8
256,224,34392,1,0
256,120,34642,1,8
256,16,34892,2,2,B|184:40|168:96,1,105
256,16,35392,2,2,B|320:48|344:96,1,105
256,152,35892,1,8
216,248,36142,5,0
256,280,36267,1,8
296,248,36392,1,2
376,176,36642,1,8
456,248,36892,1,0
376,320,37142,1,8
296,248,37392,1,0
216,320,37642,1,4
48,192,38142,6,2,B|48:128|128:112,1,105
216,96,38642,1,0
216,96,38767,1,8
216,96,38892,1,4
304,152,39142,1,8
392,96,39392,5,0
480,152,39642,2,2,B|512:216|440:264,1,105
392,328,40142,1,8
296,296,40392,1,0
248,272,40517,1,8
200,248,40642,1,4
112,192,40892,1,8
200,128,41142,1,0
248,104,41267,1,8
296,80,41392,1,4
464,192,41642,1,8
464,192,41892,1,0
400,280,42142,6,2,B|352:336|288:304,1,105
200,296,42642,1,8
128,224,42892,1,0
128,168,43017,1,8
128,112,43142,1,4
200,48,43392,1,8
288,176,43642,1,0
288,176,43767,1,8
288,176,43892,1,4
392,176,44142,2,2,B|416:128|488:96,1,105
392,176,44642,2,2,B|416:224|488:256,1,105
392,176,45142,5,0
392,176,45267,1,8
392,176,45392,1,4
304,232,45642,1,8
216,288,45892,1,0
112,288,46142,1,8
24,232,46392,1,0
168,160,46642,1,0
168,160,46767,1,8
168,160,46892,1,8
168,56,47142,1,4
272,32,47392,6,2,B|240:88|280:144,1,105
368,176,47892,1,0
368,176,48017,1,8
368,176,48142,1,4
288,248,48392,1,8
184,248,48642,1,0
112,176,48892,1,8
240,112,49142,1,0
240,112,49267,1,8
240,112,49392,1,4
240,216,49642,1,8
240,320,49892,1,0
344,344,50142,6,2,B|400:304|336:248,1,105
240,216,50642,1,8
192,120,50892,1,0
296,120,51142,1,8
240,32,51392,1,0
352,56,51642,1,8
432,128,51892,1,0
352,192,52142,1,8
424,264,52392,1,0
352,336,52642,1,0
352,336,52767,1,8
352,336,52892,1,4
248,336,53142,1,8
168,272,53392,5,0
96,192,53642,1,0
96,192,53767,1,8
96,192,53892,1,4
96,88,54142,1,8
176,24,54392,1,0
232,144,54642,1,0
232,144,54767,1,8
232,144,54892,5,4
336,144,55142,1,8
440,144,55392,1,0
440,144,55517,1,8
440,144,55642,1,4
384,232,55892,1,8
280,296,56142,6,2,B|224:336|152:272,1,105
184,296,56642,1,8
96,240,56892,1,0
96,136,57142,1,8
176,72,57392,1,0
256,192,57642,1,0
256,192,57767,1,8
256,192,57892,1,4
320,72,58142,5,0
400,136,58392,1,8
400,232,58642,1,0
328,296,58892,1,8
256,192,59142,1,0
256,192,59267,1,8
256,192,59392,1,4
192,112,59642,5,0
88,112,59892,1,8
16,192,60142,1,0
136,256,60392,1,0
136,256,60517,1,8
136,256,60642,1,4
136,360,60892,5,0
232,320,61142,1,8
312,256,61392,1,0
368,168,61642,2,2,B|408:112|352:56,1,105
365,71,62142,1,8
272,120,62392,1,0
272,120,62517,1,8
272,120,62642,1,4
272,120,62767,1,8
272,120,62892,1,4
176,72,63142,6,2,B|32:144|208:256,1,210
272,272,63892,1,0
352,208,64142,1,8
352,104,64392,1,0
272,40,64642,1,8
208,160,64892,1,0
208,160,65017,1,8
208,160,65142,1,4
144,40,65392,5,0
64,104,65642,1,8
64,208,65892,1,0
144,280,66142,1,8
240,240,66392,2,2,B|288:176|312:144,1,105
240,72,66892,2,2,B|288:136|312:168,1,105
303,156,67392,1,0
303,156,67517,1,8
303,156,67642,1,4
384,216,67892,5,0
304,280,68142,1,8
224,344,68392,1,0
120,344,68642,1,8
32,280,68892,1,0
168,248,69142,1,0
168,192,69267,1,8
168,136,69392,1,4
168,32,69642,1,8
168,32,69892,1,0
256,88,70142,5,0
256,144,70267,1,8
256,200,70392,1,4
256,304,70642,1,8
256,304,70892,1,0
344,248,71142,5,0
344,192,71267,1,8
344,136,71392,1,4
344,32,71642,1,8
344,32,71892,1,0
432,88,72142,2,4,B|432:224,1,105
176,280,80392,5,8
256,352,80642,1,0
256,352,80767,1,8
256,352,80892,1,4
336,280,81142,1,8
256,224,81392,1,0
256,168,81517,1,8
256,112,81642,1,4
256,8,81892,1,8
344,64,82142,6,2,B|304:128|352:176,1,105
440,120,82642,2,2,B|480:184|432:224,1,105
384,288,83142,1,0
304,352,83392,1,8
200,352,83642,1,0
120,288,83892,1,0
120,288,84017,1,8
120,288,84142,1,4
208,208,84392,5,0
312,208,84642,1,8
336,104,84892,1,0
256,32,85142,1,8
176,104,85392,1,0
176,104,85517,1,8
176,104,85642,1,4
200,208,85892,1,8
352,328,86392,5,0
416,248,86642,1,8
416,144,86892,1,0
352,64,87142,1,8
304,200,87392,1,0
248,200,87517,1,8
192,200,87642,1,4
88,200,87892,1,4
256,344,88392,6,2,B|256:136,1,210
256,40,89142,1,0
256,40,89267,1,8
256,40,89392,1,4
328,144,89642,1,8
176,144,89892,1,0
256,200,90142,2,2,B|216:232|208:304,1,105
256,200,90642,2,0,B|304:256|304:304,1,105
248,352,91142,1,0
248,352,91267,1,8
248,352,91392,5,4
336,320,91642,1,8
400,256,91892,1,0
448,176,92142,1,8
352,64,92392,6,2,B|248:112|144:64,1,210
144,160,93142,2,2,B|256:120|360:168,1,210
256,320,94142,1,0
192,224,94392,1,8
320,224,94642,1,0
320,224,94892,1,8
256,160,95142,1,0
256,160,95267,1,8
256,160,95392,1,4
168,112,95642,1,0
256,48,95892,1,8
336,112,96142,1,0
168,112,96392,5,8
256,48,96642,1,0
336,112,96892,1,8
304,216,97142,1,0
304,216,97392,1,8
200,216,97642,1,0
200,216,97892,1,8
160,328,98392,6,2,B|264:368|376:320,1,210
408,232,99142,1,0
408,232,99267,1,8
408,232,99392,1,4
456,136,99642,1,8
352,136,99892,1,0
72,64,100392,6,2,B|16:120|96:176,1,105
168,112,100892,2,2,B|208:176|152:216,1,105
80,264,101392,1,8
80,264,101642,1,8
368,336,102142,6,2,B|416:272|336:216,1,105
272,296,102642,2,2,B|224:248|272:200,1,105
352,136,103142,1,8
352,136,103392,1,0
280,64,103642,1,8
176,64,103892,1,0
104,136,104142,1,8
224,184,104392,5,0
224,240,104517,1,8
224,296,104642,1,4
312,352,104892,1,8
400,296,105142,1,0
400,192,105392,1,0
400,136,105517,1,8
400,80,105642,1,4
304,32,105892,1,0
216,80,106142,6,2,B|152:120|232:176,1,105
215,163,106642,2,2,B|256:208|192:264,1,105
201,255,107142,1,8
120,328,107392,1,0
96,280,107517,1,8
72,232,107642,1,4
104,128,107892,2,2,B|152:64|224:168,1,105
288,184,108392,1,0
352,96,108642,1,8
456,96,108892,1,0
456,96,109142,1,8
416,192,109392,1,0
416,296,109642,5,0
416,296,109767,1,8
416,296,109892,1,4
320,344,110142,1,0
216,344,110392,1,8
128,288,110642,1,0
264,248,110892,1,0
264,200,111017,1,8
264,152,111142,1,4
264,56,111392,6,2,B|200:56|176:128,1,105
264,56,111892,2,2,B|336:56|344:136,1,105
264,200,112392,1,4
264,296,112642,1,0
264,296,112767,1,8
264,296,112892,1,4
344,248,113142,1,8
440,248,113392,1,0
440,200,113517,1,8
440,152,113642,1,4
440,104,113767,1,8
440,56,113892,1,4
344,40,114142,6,2,B|272:8|208:72,1,105
304,120,114642,2,2,B|248:144|192:112,1,105
128,64,115142,1,8
56,128,115392,1,0
56,128,115517,1,8
56,128,115642,1,4
128,192,115892,1,8
224,192,116142,1,0
304,248,116392,1,8
256,192,116642,12,0,119892
256,136,120142,5,0
200,48,120392,2,2,B|256:16|336:64,1,105
400,104,120892,1,8
440,224,121142,1,0
400,248,121267,1,8
352,280,121392,1,4
256,328,121642,1,8
160,280,121892,1,0
112,256,122017,1,8
64,224,122142,1,4
256,152,122392,1,8
256,152,122642,1,0
312,232,122892,6,2,B|256:256|208:232,1,105
120,176,123392,1,8
120,72,123642,1,0
176,72,123767,1,8
232,72,123892,1,4
232,176,124142,1,8
328,128,124392,1,0
328,128,124517,1,8
328,128,124642,1,4
424,80,124892,2,2,B|472:128|416:216,1,105
448,272,125392,2,2,B|384:160|480:176,1,105
435,179,125892,5,0
435,179,126017,1,8
435,179,126142,1,4
336,216,126392,1,8
248,272,126642,1,0
144,272,126892,1,8
56,216,127142,1,0
200,160,127392,1,0
200,160,127517,1,8
200,160,127642,1,8
200,56,127892,1,4
304,40,128142,6,2,B|272:96|312:152,1,105
392,200,128642,1,0
392,200,128767,1,8
392,200,128892,1,4
304,256,129142,1,8
200,256,129392,1,0
120,192,129642,1,8
256,112,129892,1,0
256,112,130017,1,8
256,112,130142,1,4
256,216,130392,1,8
256,320,130642,1,0
360,352,130892,6,2,B|304:296|368:256,1,105
440,192,131392,1,8
440,88,131642,1,0
344,136,131892,1,8
240,136,132142,1,0
176,56,132392,1,8
296,48,132642,1,0
296,152,132892,1,8
296,256,133142,1,0
296,360,133392,1,0
296,360,133517,1,8
296,360,133642,1,4
200,328,133892,1,8
128,256,134142,5,0
40,200,134392,1,0
40,200,134642,1,0
48,96,134892,1,0
128,32,135142,1,0
152,160,135392,2,0,B|264:160,3,105
440,64,136392,5,0
440,64,136517,1,0
440,64,136642,1,0
376,144,136892,1,0
272,144,137142,1,0
200,64,137392,5,0
200,64,137517,1,0
200,64,137642,1,0
104,112,137892,1,0
104,216,138142,1,0
200,264,138392,5,0
200,264,138517,1,0
200,264,138642,1,0
272,336,138892,1,0
376,336,139142,1,0
456,264,139392,5,0
456,264,139517,1,0
456,264,139642,1,0
376,200,139892,2,0,B|328:152|376:104,1,105
440,176,140392,2,0,B|440:112|328:104,1,105
378,109,140892,1,0
296,48,141142,1,0
208,112,141392,1,0
208,112,141517,1,0
208,112,141642,1,0
128,176,141892,1,0
184,264,142142,1,0
264,328,142392,5,0
352,264,142642,1,0
352,264,142767,1,0
352,264,142892,1,0
376,160,143142,1,0
336,64,143392,1,0
336,64,143517,1,0
336,64,143642,1,0
336,64,143767,1,0
336,64,143892,1,0
232,88,144142,1,0
64,288,144892,5,0
152,344,145142,1,0
152,344,145267,1,0
152,344,145392,1,0
256,344,145642,1,0
336,272,145892,1,0
208,232,146142,1,0
208,128,146392,5,0
208,128,146517,1,0
208,128,146642,1,0
272,48,146892,1,0
376,48,147142,1,0
440,128,147392,1,0
328,144,147642,1,0
328,248,147892,1,0
328,248,148017,1,0
328,248,148142,1,0
408,312,148392,6,0,B|296:360|184:312,1,210
112,272,149142,1,0
32,200,149392,1,0
32,144,149517,1,0
32,96,149642,1,0
112,24,149892,1,0
168,144,150142,1,0
256,80,150392,2,0,B|344:144,1,105
256,208,150892,2,0,B|352:136,1,105
232,144,151392,2,0,B|352:144,1,105
337,144,151892,1,0
392,144,152017,1,0
440,144,152142,1,0
80,112,159142,6,0,B|8:192|96:256,1,157.499995306134
152,304,159892,1,0
216,352,160142,1,0
296,352,160392,1,0
360,304,160642,1,0
256,264,160892,1,0
256,184,161142,1,0
256,104,161392,1,0
256,24,161642,1,0
256,24,161767,1,0
256,24,161892,1,0
368,64,162142,6,0,B|440:120,1,78.7499976530672
488,168,162642,2,0,B|416:224,1,78.7499976530672
368,264,163142,1,0
304,304,163392,1,0
304,224,163642,1,0
232,264,163892,1,0
232,344,164142,1,0
232,344,164267,1,0
232,344,164392,1,0
160,304,164642,2,0,B|88:296|96:168,1,157.499995306134
96,80,165392,5,0
168,48,165642,1,0
168,48,165767,1,0
168,48,165892,1,0
184,152,166142,5,0
248,104,166392,1,0
328,88,166642,1,0
408,104,166892,1,0
472,152,167142,1,0
328,200,167392,5,0
328,200,167517,1,0
328,200,167642,1,0
328,280,167892,2,0,B|328:360,4,78.7499976530672
328,200,169142,1,0
328,120,169392,1,0
328,120,169517,1,0
328,120,169642,1,0
328,40,169892,1,0
216,32,170142,6,0,B|120:40|56:128,1,157.499995306134
56,176,170892,1,0
24,248,171142,1,0
48,320,171392,1,0
48,320,171642,1,0
200,248,171892,6,0,B|96:248,4,78.7499976530672
200,248,173142,1,0
280,248,173392,1,0
280,248,173517,1,0
280,248,173642,1,0
352,248,173892,1,0
440,208,174142,5,0
440,208,174392,1,0
384,136,174642,2,0,B|272:136|272:136,1,78.7499976530672
256,192,175142,12,0,176142
160,88,176392,5,0
216,40,176642,1,0
288,40,176892,1,0
344,88,177142,1,0
256,144,177392,1,0
256,200,177517,1,0
256,256,177642,1,0
256,360,177892,1,0
256,360,178142,2,0,B|176:328|136:264,1,105
256,360,178642,2,0,B|336:328|376:264,1,105
256,256,179142,1,0
256,152,179392,1,0
256,96,179517,1,0
256,40,179642,1,0
160,88,179892,6,0,B|64:136,1,105
66,134,180392,1,0
72,248,180642,2,0,B|176:296,1,105
167,292,181142,1,0
192,192,181392,1,0
192,192,181517,1,0
192,192,181642,1,0
192,192,181767,1,0
192,192,181892,1,0
296,192,182142,1,0
400,192,182392,1,0
488,248,182642,1,0
488,144,182892,1,0
400,88,183142,5,0
304,40,183392,1,0
200,40,183642,1,0
104,88,183892,1,0
256,144,184142,1,0
256,144,184267,1,0
256,144,184392,1,0
256,248,184642,1,0
256,248,184892,1,0
312,336,185142,1,0
208,336,185392,1,0
208,336,185517,1,0
208,336,185642,1,0
208,336,185767,1,0
208,336,185892,1,0
104,288,186142,6,0,B|48:240|104:200,1,105
104,112,186642,2,0,B|48:160|104:200,1,105
101,198,187142,1,0
208,200,187392,1,0
208,200,187517,1,0
208,200,187642,1,0
272,288,187892,1,0
376,288,188142,1,0
432,200,188392,1,0
320,168,188642,5,0
320,168,188767,1,0
320,168,188892,1,0
432,96,189142,1,0
360,40,189392,1,0
264,40,189642,1,0
192,96,189892,1,0
96,152,190142,6,0,B|24:272|184:320,1,210
40,336,190892,2,0,B|104:232|216:224,1,210
288,288,191642,1,0
352,208,191892,1,0
352,104,192142,1,0
280,32,192392,1,0
256,160,192642,1,0
256,160,192767,1,0
256,160,192892,1,0
160,160,193142,1,0
64,160,193392,1,0
64,160,193517,1,0
64,160,193642,1,0
64,160,193767,1,0
64,160,193892,1,0
112,264,194142,6,0,B|208:328|336:248,1,210
280,352,194892,2,0,B|184:248|296:144,1,210
344,96,195642,1,0
264,48,195892,1,0
168,48,196142,1,0
88,96,196392,1,0
216,136,196642,2,0,B|216:264,1,105
144,304,197142,1,0
216,368,197392,1,0
288,304,197642,1,0
288,304,197892,1,0
216,248,198142,2,0,B|216:144,1,105
168,240,198642,2,0,B|232:208|304:256,1,105
328,136,199142,1,0
328,232,199392,1,0
408,184,199642,1,0
408,184,199892,1,0
384,96,200142,6,0,B|288:48|160:104,1,210
248,16,200892,2,0,B|336:88|256:216,1,210
152,280,201642,1,0
152,280,201767,1,0
152,280,201892,1,0
224,344,202142,1,0
320,344,202392,2,0,B|360:240,1,105
400,344,202892,2,0,B|360:248,1,105
359,247,203392,2,0,B|360:128,1,105
296,72,203892,5,0
200,72,204142,1,0
126,125,204392,2,0,B|214:213,1,105
96,200,204892,2,0,B|200:200,1,105
128,272,205392,2,0,B|208:192,1,105
199,199,205892,2,0,B|327:198,1,105
400,200,206392,1,0
400,200,206517,1,0
400,200,206642,1,0
480,248,206892,1,0
480,152,207142,1,0
392,120,207392,6,0,B|288:48|168:136,1,210
208,16,208142,2,0,B|304:112|208:200,1,210
128,264,208892,1,0
200,328,209142,1,0
200,328,209267,1,0
200,328,209392,1,0
296,328,209642,2,0,B|384:256,1,105
256,192,210142,12,0,216392
