osu file format v9

[General]
AudioFilename: Sam Tsui - DJ Got Us Falling In Love.mp3
AudioLeadIn: 0
PreviewTime: 39267
Countdown: 1
SampleSet: Normal
StackLeniency: 0.7
Mode: 1
LetterboxInBreaks: 1
EpilepsyWarning: 1

[Editor]
Bookmarks: 119892,216392
DistanceSpacing: 1.1
BeatDivisor: 4
GridSize: 8

[Metadata]
Title:DJ Got Us Falling In Love
Artist:Sam Tsui
Creator:dkun
Version:Beating for You!
Source:
Tags:mmzz animelover1432

[Difficulty]
HPDrainRate:7
CircleSize:5
OverallDifficulty:5
ApproachRate:5
SliderMultiplier:1.6
SliderTickRate:1

[Events]
//Background and Video events
0,0,"bg.jpg"
//Break Periods
2,72592,78692
2,152342,159192
//Storyboard Layer 0 (Background)
//Storyboard Layer 1 (Fail)
//Storyboard Layer 2 (Pass)
//Storyboard Layer 3 (Foreground)
Sprite,Foreground,Centre,"credit_dkun.png",320,240 L,40392,64 F,1,0,500,0.8,0 S,1,0,500,0.8,0.85 L,104392,64 F,1,0,500,0.8,0 S,1,0,500,0.8,0.85 L,176392,68 F,1,0,500,0.8,0 S,1,0,500,0.8,0.85 M,0,0,,272,276 S,0,0,,0.8464001 F,0,0,392,0,1 F,0,392,216392,1 F,0,216392,216892,1,0
//Storyboard Sound Samples
//Background Colour Transformations
3,100,163,162,255

[TimingPoints]
8392,500,4,1,0,100,1,0
40392,-100,4,1,0,100,0,1
47142,-100,4,1,0,100,0,0
47392,-100,4,1,0,100,0,1
56142,-100,4,1,0,100,0,0
56392,-100,4,1,0,100,0,1
72392,-100,4,1,0,100,0,0
104392,-100,4,1,0,100,0,1
110892,-100,4,1,0,100,0,0
111392,-100,4,1,0,100,0,1
119892,-100,4,1,0,100,0,0
120392,-100,4,1,0,100,0,1
127267,-100,4,1,0,100,0,0
127392,-100,4,1,0,100,0,1
136267,-100,4,1,0,100,0,0
175142,-100,4,1,0,100,0,0
176392,-100,4,1,0,100,0,1
183017,-100,4,1,0,100,0,0
183142,-100,4,1,0,100,0,1
191517,-100,4,1,0,100,0,0
191642,-100,4,1,0,100,0,1
200017,-100,4,1,0,100,0,0
200142,-100,4,1,0,100,0,1
216392,-100,4,1,0,100,0,0

[Colours]
Combo1 : 255,128,128
Combo2 : 255,128,64
Combo3 : 255,128,128
Combo4 : 255,128,64

[HitObjects]
256,192,8392,1,0
256,192,8767,1,8
256,192,8892,1,0
256,192,9142,1,8
256,192,9392,1,0
256,192,9642,1,8
256,192,9892,1,0
256,192,10142,1,8
256,192,10267,1,8
256,192,10392,1,0
256,192,10767,1,8
256,192,10892,1,0
256,192,11142,1,8
256,192,11392,1,0
256,192,11642,1,8
256,192,11892,1,0
256,192,12142,1,8
256,192,12267,1,8
256,192,12392,1,0
256,192,12767,1,8
256,192,12892,1,0
256,192,13142,1,8
256,192,13392,1,0
256,192,13767,1,8
256,192,13892,1,0
256,192,14142,1,8
256,192,14392,1,0
256,192,14642,1,8
256,192,14767,1,8
256,192,14892,1,0
256,192,15142,1,8
256,192,15392,1,0
256,192,15642,1,8
256,192,15892,1,0
256,192,16017,1,0
256,192,16142,1,8
256,192,16267,1,8
256,192,16392,1,0
256,192,16767,1,8
256,192,16892,1,0
256,192,17142,1,8
256,192,17392,1,0
256,192,17642,1,8
256,192,17892,1,0
256,192,18142,1,8
256,192,18267,1,8
256,192,18392,1,0
256,192,18767,1,8
256,192,18892,1,0
256,192,19142,1,8
256,192,19392,1,0
256,192,19642,1,8
256,192,19892,1,0
256,192,20142,1,8
256,192,20267,1,8
256,192,20392,1,0
256,192,20767,1,8
256,192,20892,1,0
256,192,21142,1,8
256,192,21392,1,0
256,192,21767,1,8
256,192,21892,1,0
256,192,22142,1,8
256,192,22392,1,0
256,192,22642,1,8
256,192,22767,1,8
256,192,22892,1,0
256,192,23142,1,8
256,192,23392,1,0
256,192,23642,1,8
256,192,23892,1,0
256,192,24017,1,0
256,192,24142,1,8
256,192,24267,1,8
256,192,24392,1,0
256,192,24767,1,8
256,192,24892,1,0
256,192,25142,1,8
256,192,25392,1,0
256,192,25517,1,0
256,192,25642,1,8
256,192,25892,1,0
256,192,26142,1,8
256,192,26392,1,0
256,192,26767,1,8
256,192,26892,1,0
256,192,27142,1,8
256,192,27392,1,0
256,192,27517,1,0
256,192,27642,1,0
256,192,27892,1,8
256,192,28142,1,8
256,192,28392,1,0
256,192,28767,1,8
256,192,28892,1,0
256,192,29142,1,8
256,192,29392,1,0
256,192,29517,1,0
256,192,29642,1,8
256,192,29892,5,0
256,192,30142,1,8
256,192,30392,1,0
256,192,30767,5,8
256,192,30892,1,0
256,192,31142,1,8
256,192,31392,1,0
256,192,31642,1,8
256,192,31892,1,0
256,192,32017,1,0
256,192,32142,1,8
256,192,32267,1,8
256,192,32392,1,0
256,192,32767,1,8
256,192,32892,1,0
256,192,33142,1,8
256,192,33392,1,0
256,192,33517,1,0
256,192,33642,1,8
256,192,33892,1,0
256,192,34142,1,8
256,192,34392,1,0
256,192,34767,1,8
256,192,34892,1,0
256,192,35142,5,8
256,192,35392,1,0
256,192,35517,1,0
256,192,35642,1,0
256,192,35892,1,8
256,192,36142,1,8
256,192,36392,1,0
256,192,36767,1,8
256,192,36892,1,0
256,192,37142,1,8
256,192,37392,1,0
256,192,37517,1,0
256,192,37642,1,8
256,192,37892,1,0
256,192,38142,1,8
256,200,38642,5,0
256,200,38892,1,0
256,200,39392,1,0
264,192,39892,5,12
256,192,40392,1,4
256,192,40642,1,0
256,192,40767,1,0
256,192,40892,1,8
264,192,41142,1,0
264,192,41392,1,0
256,192,41517,1,0
256,192,41642,1,8
256,192,41892,1,0
256,192,42142,1,8
256,192,42392,1,0
256,192,42642,1,0
256,192,42767,1,0
256,192,42892,1,8
264,192,43142,1,0
264,192,43392,1,0
256,192,43517,1,0
256,192,43642,1,8
256,192,43892,1,0
256,192,44142,1,8
256,192,44392,1,0
256,192,44642,1,0
256,192,44767,1,0
256,192,44892,1,8
264,192,45142,1,0
264,192,45392,1,0
256,192,45517,1,0
256,192,45642,1,8
256,192,45892,1,0
256,192,46142,1,8
256,192,46392,1,0
264,192,46517,1,0
264,192,46642,1,8
264,192,46767,1,8
264,192,46892,1,0
256,192,47142,1,8
256,192,47392,1,0
256,192,47517,1,0
256,192,47642,1,0
256,192,47892,1,8
264,192,48142,1,8
264,192,48267,1,8
264,192,48392,1,0
256,192,48642,1,0
256,192,48767,1,0
256,192,48892,1,8
264,192,49142,1,0
264,192,49392,1,0
256,192,49517,1,0
256,192,49642,1,8
256,192,49892,1,0
256,192,50142,1,8
256,192,50392,1,0
256,192,50642,1,0
256,192,50767,1,0
256,192,50892,1,8
264,192,51142,1,0
264,192,51392,1,0
256,192,51517,1,0
256,192,51642,1,8
256,192,51892,1,0
256,192,52142,1,8
256,192,52392,1,0
256,192,52642,1,0
256,192,52767,1,0
256,192,52892,1,8
264,192,53142,1,0
264,192,53392,1,0
256,192,53517,1,0
256,192,53642,1,8
256,192,53892,1,0
256,192,54142,1,8
256,192,54392,1,0
264,192,54517,1,0
264,192,54642,1,8
264,192,54767,1,8
264,192,54892,1,0
256,192,55142,1,8
256,192,55392,1,8
256,192,55517,1,8
256,192,55579,1,8
256,192,55642,1,8
256,192,55767,1,8
256,192,55892,1,8
264,192,56017,1,8
264,192,56142,1,8
264,192,56267,1,8
264,192,56392,1,0
256,192,56892,1,4
256,192,57392,1,0
264,192,57767,1,8
264,192,57892,1,0
256,192,58142,1,8
256,192,58392,1,4
256,192,58892,1,4
256,192,59392,1,0
256,192,59767,1,8
256,192,59892,1,0
256,192,60142,1,8
256,192,60392,1,4
256,192,60892,1,4
264,192,61392,1,0
256,192,61642,1,8
256,192,61892,1,0
256,192,62017,1,0
256,192,62142,1,8
256,192,62267,1,8
256,192,62392,1,0
264,192,62642,1,8
264,192,62892,1,0
256,192,63017,1,0
256,192,63142,1,8
256,192,63392,1,0
256,192,63642,1,8
256,192,63892,1,0
256,192,64017,1,0
256,192,64142,1,8
256,192,64267,1,8
264,192,64392,1,0
256,192,64642,1,0
256,192,64767,1,0
256,192,64892,1,8
264,192,65142,1,0
264,192,65392,1,0
256,192,65517,1,0
256,192,65642,1,8
256,192,65892,1,0
256,192,66142,1,8
256,192,66392,1,0
256,192,66642,1,0
256,192,66767,1,0
256,192,66892,1,8
264,192,67142,1,0
264,192,67392,1,0
256,192,67517,1,0
256,192,67642,1,8
256,192,67892,1,0
256,192,68142,1,8
256,192,68392,1,0
256,192,68642,1,0
256,192,68767,1,0
256,192,68892,1,8
264,192,69142,1,0
264,192,69392,1,0
256,192,69517,1,0
256,192,69642,1,8
256,192,69892,1,0
256,192,70142,1,8
256,192,70392,1,0
264,192,70517,1,0
264,192,70642,1,8
264,192,70767,1,8
264,192,70892,1,0
256,192,71142,1,8
256,192,71392,1,8
256,192,71517,1,8
256,192,71579,1,8
256,192,71642,1,8
256,192,71767,1,8
256,192,71892,1,8
264,192,72017,1,8
264,192,72142,1,8
264,192,72267,1,8
264,192,72392,1,0
256,192,79892,5,12
256,192,80392,1,4
256,192,80642,1,0
256,192,80892,1,8
256,192,81142,1,0
256,192,81267,1,0
256,192,81392,1,0
256,192,81642,1,0
256,192,81892,1,8
256,192,82142,1,8
256,192,82267,1,8
256,192,82392,1,0
256,192,82642,1,0
256,192,82892,1,8
256,192,83017,1,0
256,192,83142,1,0
256,192,83392,1,0
256,192,83767,1,8
256,192,83892,1,0
256,192,84142,1,8
256,192,84392,1,0
256,192,84642,1,0
256,192,84767,1,0
256,192,84892,1,8
256,192,85142,1,0
256,192,85392,1,0
256,192,85642,1,0
256,192,85767,1,0
256,192,85892,1,8
256,192,86142,1,0
256,192,86392,1,0
256,192,86642,1,0
256,192,86767,1,0
256,192,86892,1,8
256,192,87142,1,0
256,192,87392,1,0
256,192,87642,1,0
256,192,87767,1,0
256,192,87892,1,8
256,192,88142,1,8
256,192,88392,1,0
256,192,88642,1,0
256,192,88892,1,8
256,192,89142,1,0
256,192,89267,1,0
256,192,89392,1,0
256,192,89642,1,0
256,192,89892,1,8
256,192,90142,1,8
256,192,90267,1,8
256,192,90392,1,0
256,192,90642,1,0
256,192,90892,1,8
256,192,91392,1,0
256,192,91767,1,8
256,192,92142,1,8
256,192,92392,1,0
256,192,92892,1,0
256,192,93392,1,0
256,192,93767,1,8
256,192,94142,1,8
256,192,94392,1,0
256,192,94892,1,0
256,192,95142,1,0
256,192,95392,1,0
256,192,95517,1,8
256,192,95642,1,0
256,192,95892,1,12
256,192,96392,1,4
256,192,96642,1,0
256,192,96892,1,8
256,192,97142,1,0
256,192,97267,1,0
256,192,97392,1,0
256,192,97642,1,0
256,192,97892,1,8
256,192,98142,1,8
256,192,98267,1,8
256,192,98392,1,0
256,192,98642,1,0
256,192,98892,1,8
256,192,99017,1,0
256,192,99142,1,0
256,192,99392,1,0
256,192,99767,1,8
256,192,99892,1,0
256,192,100142,1,8
256,192,100392,1,0
256,192,100642,1,0
256,192,100767,1,0
256,192,100892,1,8
256,192,101142,1,0
256,192,101392,1,0
256,192,101642,1,0
256,192,101767,1,0
256,192,101892,1,8
256,192,102142,1,0
256,192,102642,1,0
256,192,102892,1,0
256,192,103392,1,0
256,192,103892,1,12
256,192,104392,1,4
256,192,104642,1,8
256,192,104892,1,0
256,192,105017,1,0
256,192,105142,1,8
256,192,105392,1,0
256,192,105642,1,8
256,192,105892,1,0
256,192,106017,1,0
256,192,106142,1,8
256,192,106392,1,0
256,192,106642,1,8
256,192,106767,1,8
256,192,106892,1,0
256,192,107142,1,8
256,192,107392,1,0
256,192,107642,1,8
256,192,107767,1,0
256,192,108017,1,0
256,192,108142,1,8
256,192,108392,1,0
256,192,108642,1,8
256,192,108767,1,8
256,192,108892,1,0
256,192,109142,1,8
256,192,109392,1,0
256,192,109642,1,8
256,192,109767,1,0
256,192,110017,1,0
256,192,110142,1,8
256,192,110392,1,0
256,192,110642,1,8
256,192,110767,1,8
256,192,110892,1,0
256,192,111142,1,8
256,192,111392,1,0
256,192,111642,1,8
256,192,111767,1,0
256,192,112017,1,0
256,192,112142,1,8
232,160,112267,1,8
232,160,112392,1,0
256,192,112642,1,8
256,192,112892,1,0
256,192,113017,1,0
256,192,113142,1,8
256,192,113392,1,0
256,192,113642,1,8
256,192,113892,1,0
256,192,114017,1,0
256,192,114142,1,8
256,192,114392,1,0
256,192,114642,1,8
256,192,114767,1,8
256,192,114892,1,0
256,192,115142,1,8
256,192,115392,1,0
256,192,115642,1,8
256,192,115767,1,0
256,192,116017,1,0
256,192,116142,1,8
256,192,116392,1,0
256,192,116642,1,8
256,192,116767,1,8
256,192,116892,1,0
256,192,117142,1,8
256,192,117392,1,0
256,192,117642,1,8
256,192,117767,1,0
256,192,118017,1,0
256,192,118142,1,8
256,192,118392,1,0
256,192,118517,1,0
256,192,118642,1,8
256,192,118892,1,0
256,192,119142,1,8
256,192,119392,1,8
256,192,119517,1,8
256,192,119579,1,8
256,192,119642,1,8
256,192,119767,1,8
256,192,119892,1,8
264,192,120017,1,8
264,192,120142,1,8
264,192,120267,1,8
264,192,120392,1,0
256,192,120892,1,4
256,192,121392,1,0
264,192,121767,1,8
264,192,121892,1,0
256,192,122142,1,8
256,192,122392,1,4
256,192,122892,1,4
256,192,123392,1,0
256,192,123767,1,8
256,192,123892,1,0
256,192,124142,1,8
256,192,124392,1,4
256,192,124892,1,4
264,192,125392,1,0
256,192,125642,1,8
256,192,125892,1,0
256,192,126017,1,0
256,192,126142,1,8
256,192,126267,1,8
256,192,126392,1,0
264,192,126642,1,8
264,192,126892,1,0
256,192,127017,1,0
256,192,127142,1,8
256,192,127392,1,0
256,192,127642,1,8
256,192,127892,1,0
256,192,128017,1,0
256,192,128142,1,8
256,192,128267,1,8
256,192,128392,1,0
256,192,128642,1,8
256,192,128892,1,0
256,192,129017,1,0
256,192,129142,1,8
256,192,129392,1,0
256,192,129642,1,8
256,192,129892,1,0
256,192,130017,1,0
256,192,130142,1,8
256,192,130392,1,0
256,192,130642,1,8
256,192,130767,1,8
256,192,130892,1,0
256,192,131142,1,8
256,192,131392,1,0
256,192,131642,1,8
256,192,131767,1,0
256,192,132017,1,0
256,192,132142,1,8
256,192,132392,1,0
256,192,132642,1,8
256,192,132767,1,8
256,192,132892,1,0
256,192,133142,1,8
256,192,133392,1,0
256,192,133642,1,8
256,192,133767,1,0
256,192,134017,1,0
256,192,134142,1,8
256,192,134392,1,0
256,192,134517,1,0
256,192,134642,1,8
256,192,134892,1,0
256,192,135142,1,8
256,192,135392,1,8
256,192,135517,1,8
256,192,135579,1,8
256,192,135642,1,8
256,192,135767,1,8
256,192,135892,1,8
264,192,136017,1,8
264,192,136142,1,8
264,192,136267,1,8
264,192,136392,1,0
256,192,136642,1,0
256,192,136892,1,8
256,192,137142,1,0
256,192,137267,1,0
256,192,137392,1,0
264,192,137642,1,0
264,192,137892,1,8
256,192,138142,1,0
256,192,138267,1,0
256,192,138392,1,0
264,192,138642,1,0
264,192,138892,1,8
256,192,139142,1,0
256,192,139267,1,0
256,192,139392,1,0
264,192,139642,1,0
264,192,139892,1,8
264,192,140142,1,8
264,192,140267,1,8
264,192,140392,1,0
264,192,140642,1,0
264,192,140892,1,8
264,192,141142,1,0
264,192,141267,1,0
264,192,141392,1,0
264,192,141642,1,0
264,192,141892,1,8
264,192,142142,1,0
264,192,142267,1,0
264,192,142392,1,0
264,192,142642,1,0
264,192,142892,1,8
264,192,143142,1,0
264,192,143267,1,0
264,192,143392,1,0
264,192,143642,1,0
264,192,143892,1,8
264,192,144142,1,0
264,192,144267,1,0
264,192,144392,1,0
264,192,144892,1,12
264,192,145142,1,0
264,192,145392,1,0
264,192,145642,1,0
264,192,145767,1,0
264,192,145892,1,8
264,192,146142,1,0
264,192,146392,1,0
264,192,146642,1,0
264,192,146767,1,0
264,192,146892,1,8
264,192,147142,1,0
264,192,147392,1,0
264,192,147642,1,0
264,192,147767,1,0
264,192,147892,1,8
264,192,148142,1,0
264,192,148392,1,4
264,192,148642,1,0
264,192,148767,1,0
264,192,148892,1,8
264,192,149142,1,0
264,192,149392,1,0
264,192,149642,1,0
264,192,149767,1,0
264,192,149892,1,8
264,192,150142,1,0
264,192,150392,1,0
264,192,150642,1,0
264,192,150767,1,0
264,192,150892,1,8
264,192,151142,1,0
264,192,151392,1,0
264,192,151642,1,0
264,192,151767,1,0
264,192,151892,1,8
264,192,152142,1,8
256,192,160392,5,0
256,192,160892,1,0
256,192,161392,1,0
256,192,161767,1,8
256,192,161892,1,0
256,192,162142,1,8
256,192,162392,1,0
256,192,162892,1,0
256,192,163392,1,0
256,192,163767,1,8
256,192,163892,1,0
256,192,164142,1,8
256,192,164392,1,0
256,192,164892,1,0
256,192,165392,1,0
256,192,165767,1,8
256,192,165892,1,0
256,192,166142,1,8
256,192,166392,1,0
256,192,166892,1,0
256,192,167392,1,0
256,192,167767,1,8
256,192,167892,1,0
256,192,168142,1,8
256,192,168392,1,0
256,192,168892,1,0
256,192,169392,1,0
256,192,169767,1,8
256,192,169892,1,0
256,192,170142,1,8
256,192,170392,1,0
256,192,170892,1,0
256,192,171392,1,0
256,192,171767,1,8
256,192,171892,1,0
256,192,172142,5,8
256,192,172392,1,0
256,192,172892,1,0
256,192,173392,1,0
256,192,173767,1,8
256,192,173892,1,0
256,192,174142,1,8
256,192,174392,12,0,175892
264,192,176392,5,4
256,192,176892,1,4
256,192,177392,1,0
264,192,177767,1,8
264,192,177892,1,0
256,192,178017,1,0
256,192,178142,1,8
256,192,178392,1,4
256,192,178892,1,4
256,192,179392,1,0
256,192,179767,1,8
256,192,179892,1,0
256,192,180017,1,0
256,192,180142,1,8
256,192,180392,1,4
256,192,180892,1,4
264,192,181392,1,0
256,192,181642,1,8
256,192,181892,1,0
256,192,182017,1,0
256,192,182142,1,8
256,192,182267,1,8
256,192,182392,1,0
264,192,182642,1,8
264,192,182892,1,0
256,192,183017,1,0
256,192,183142,1,8
256,192,183392,1,0
256,192,183642,1,8
256,192,183892,1,0
256,192,184017,1,0
256,192,184142,1,8
256,192,184267,1,8
256,192,184392,1,0
256,192,184642,1,0
256,192,184767,1,0
256,192,184892,1,8
264,192,185142,1,0
264,192,185392,1,0
256,192,185517,1,0
256,192,185642,1,8
256,192,185892,1,0
256,192,186142,1,8
256,192,186392,1,4
256,192,186642,1,0
256,192,186767,1,0
256,192,186892,1,8
264,192,187142,1,0
264,192,187392,1,0
256,192,187517,1,0
256,192,187642,1,8
256,192,187892,1,0
256,192,188142,1,8
256,192,188392,1,4
256,192,188642,1,0
256,192,188767,1,0
256,192,188892,1,8
264,192,189142,1,0
264,192,189392,1,0
256,192,189517,1,0
256,192,189642,1,8
256,192,189892,5,0
256,192,190142,1,8
256,192,190392,1,4
264,192,190642,1,8
264,192,190767,1,8
264,192,190892,1,0
256,192,191017,1,8
256,192,191267,1,8
256,192,191392,1,0
256,192,191642,1,8
256,192,191892,1,0
264,192,192017,1,0
264,192,192142,1,8
264,192,192267,1,8
232,160,192392,1,0
256,192,192642,1,8
256,192,192892,1,0
256,192,193017,1,0
256,192,193142,1,8
256,192,193392,1,0
256,192,193642,1,8
256,192,193892,1,0
256,192,194017,1,0
256,192,194142,1,8
256,192,194392,1,4
256,192,194642,1,8
256,192,194767,1,8
256,192,194892,1,0
256,192,195142,1,8
256,192,195392,1,0
256,192,195642,1,8
256,192,195767,1,0
256,192,196017,1,0
256,192,196142,1,8
256,192,196392,1,4
256,192,196642,1,8
256,192,196767,1,8
256,192,196892,1,0
256,192,197142,1,8
256,192,197392,1,0
256,192,197642,1,8
256,192,197767,1,0
256,192,198017,1,0
256,192,198142,1,8
256,192,198392,1,0
256,192,198517,1,0
256,192,198642,1,8
256,192,198892,1,0
256,192,199142,1,8
256,192,199392,1,8
256,192,199517,1,8
256,192,199579,1,8
256,192,199642,1,8
256,192,199767,1,8
256,192,199892,1,8
264,192,200017,1,8
264,192,200142,1,8
264,192,200267,1,8
264,192,200392,1,0
256,192,200892,1,4
256,192,201142,1,8
256,192,201392,1,0
264,192,201767,1,8
264,192,201892,1,0
256,192,202017,1,0
256,192,202142,1,8
256,192,202392,1,4
256,192,202892,1,4
264,192,203142,1,8
256,192,203392,1,0
256,192,203767,1,8
256,192,203892,1,0
256,192,204017,1,0
256,192,204142,1,8
256,192,204392,1,4
256,192,204892,1,4
256,192,205142,1,8
264,192,205392,1,0
256,192,205642,1,8
256,192,205892,1,0
256,192,206017,1,0
256,192,206142,1,8
256,192,206267,1,8
256,192,206392,1,0
264,192,206642,1,8
264,192,206892,1,0
256,192,207017,1,0
256,192,207142,1,8
256,192,207392,1,0
256,192,207642,1,8
256,192,207892,1,0
256,192,208017,1,0
256,192,208142,1,8
256,192,208267,1,8
264,192,208392,1,0
256,192,208642,1,0
256,192,208767,1,0
256,192,208892,1,8
264,192,209142,1,0
264,192,209392,1,0
256,192,209517,1,0
256,192,209642,1,8
256,192,209892,1,0
256,192,210142,1,8
256,192,210392,1,4
256,192,210642,1,0
256,192,210767,1,0
256,192,210892,1,8
264,192,211142,1,0
264,192,211392,1,0
256,192,211517,1,0
256,192,211642,1,8
256,192,211892,1,0
256,192,212142,1,8
256,192,212392,1,4
256,192,212642,1,0
256,192,212767,1,0
256,192,212892,1,8
264,192,213142,1,0
264,192,213392,1,0
256,192,213517,1,0
256,192,213642,1,8
256,192,213892,1,0
256,192,214142,1,8
256,192,214392,1,0
264,192,214517,1,0
264,192,214642,1,8
264,192,214767,1,8
264,192,214892,1,0
256,192,215142,1,8
256,192,215392,1,8
256,192,215517,1,8
256,192,215579,1,8
256,192,215642,1,8
256,192,215767,1,8
256,192,215892,1,8
264,192,216017,1,8
264,192,216142,1,8
264,192,216267,1,8
264,192,216392,1,0
