osu file format v14

[General]
AudioFilename: isangdaanampli.mp3
AudioLeadIn: 0
PreviewTime: 39004
Countdown: 0
SampleSet: Normal
StackLeniency: 0.7
Mode: 2
LetterboxInBreaks: 0
WidescreenStoryboard: 0

[Editor]
Bookmarks: 13653,66618
DistanceSpacing: 0.9
BeatDivisor: 4
GridSize: 8
TimelineZoom: 1.8

[Metadata]
Title:1SANG Daan
TitleUnicode:1SANG Daan
Artist:Sam Concepcion
ArtistUnicode:Sam Concepcion
Creator:Hi_Hello
Version:Mahirap
Source:
Tags:bago isang 100 one hundred opm ppop filipino tagalog -nicotine
BeatmapID:1583026
BeatmapSetID:751951

[Difficulty]
HPDrainRate:5
CircleSize:3.8
OverallDifficulty:7.7
ApproachRate:7.7
SliderMultiplier:1.8
SliderTickRate:1

[Events]
//Background and Video events
0,0,"thebg.jpg",0,0
//Break Periods
//Storyboard Layer 0 (Background)
//Storyboard Layer 1 (Fail)
//Storyboard Layer 2 (Pass)
//Storyboard Layer 3 (Foreground)
//Storyboard Sound Samples

[TimingPoints]
412,413.793103448276,4,2,0,5,1,0
13653,-125,4,2,1,60,0,0
21101,-66.6666666666667,4,2,1,60,0,0
21515,-125,4,2,1,60,0,0
26894,-100,4,2,2,70,0,0
40136,-83.3333333333333,4,2,1,80,0,1
51308,-58.8235294117647,4,2,1,80,0,1
51722,-83.3333333333333,4,3,0,80,0,1
52136,-83.3333333333333,4,2,1,80,0,1
52343,-83.3333333333333,4,3,0,80,0,1
52549,-83.3333333333333,4,3,0,80,0,0
53377,-83.3333333333333,4,2,1,80,0,1
59894,-83.3333333333333,4,2,1,80,0,0
59998,-83.3333333333333,4,2,1,80,0,1
65791,-83.3333333333333,4,2,2,80,0,1
66618,-83.3333333333333,4,1,0,80,0,0

[Colours]
Combo1 : 253,208,53
Combo2 : 64,128,128

[HitObjects]
256,192,11584,8,0,13239,0:0:0:0:
128,320,13653,5,6,0:0:0:0:
40,272,13860,1,0,0:0:0:0:
40,168,14067,1,0,0:0:0:0:
128,112,14274,1,0,0:0:0:0:
248,112,14480,6,0,L|312:168,1,72,8|0,0:0|0:0,0:0:0:0:
192,208,14894,2,0,L|128:280,1,72,0|8,0:0|0:0,0:0:0:0:
264,328,15308,2,0,L|184:352,1,72,0|2,0:0|0:0,0:0:0:0:
400,344,15722,2,0,B|424:296|424:296|320:272,1,144,2|8,0:0|0:0,0:0:0:0:
139,262,16343,2,0,B|75:230|75:230|139:190,1,144,2|8,0:0|0:0,0:0:0:0:
312,192,16963,6,0,L|392:168,1,72,2|0,0:0|0:0,0:0:0:0:
400,72,17377,2,0,L|312:48,1,72
208,72,17791,1,8,0:0:0:0:
296,128,17998,1,0,0:0:0:0:
296,208,18205,1,0,0:0:0:0:
208,256,18412,1,8,0:0:0:0:
320,288,18618,6,0,L|400:344,1,72,0|2,0:0|0:0,0:0:0:0:
200,336,19032,2,0,B|120:312|120:312|96:232,1,144,2|8,0:0|0:0,0:0:0:0:
296,248,19653,2,0,B|376:224|376:224|400:144,1,144,2|8,0:0|0:0,0:0:0:0:
96,152,20274,5,2,0:0:0:0:
32,208,20480,1,0,0:0:0:0:
56,296,20687,1,0,0:0:0:0:
152,328,20894,1,0,0:0:0:0:
352,256,21101,2,0,P|384:192|258:58,1,270.000010299683,8|0,0:0|0:0,0:0:0:0:
168,96,21722,1,8,0:0:0:0:
288,64,21929,6,0,L|376:112,1,72,0|2,0:0|0:0,0:0:0:0:
136,200,22343,2,0,B|72:240|72:240|152:296,1,144,2|8,0:0|0:0,0:0:0:0:
296,336,22963,2,0,L|136:336,1,144,2|8,0:0|0:0,0:0:0:0:
432,336,23584,5,2,0:0:0:0:
472,248,23791,1,0,0:0:0:0:
432,152,23998,1,0,0:0:0:0:
344,104,24205,1,0,0:0:0:0:
232,112,24412,2,0,L|144:88,1,72,8|0,0:0|0:0,0:0:0:0:
328,192,24825,2,0,L|416:176,1,72,0|8,0:0|0:0,0:0:0:0:
112,256,25239,6,0,L|24:240,1,72,0|2,0:0|0:0,0:0:0:0:
256,320,25653,2,0,L|296:232,1,72,2|0,0:0|0:0,0:0:0:0:
200,208,26067,1,0,0:0:0:0:
112,192,26274,1,0,0:0:0:0:
24,176,26480,1,0,0:0:0:0:
336,280,26894,6,0,L|392:176,1,90,6|0,0:0|0:0,0:0:0:0:
320,120,27308,2,0,L|416:120,1,90
216,240,27722,1,8,0:0:0:0:
144,176,27929,1,0,0:0:0:0:
144,80,28136,1,0,0:0:0:0:
232,40,28343,2,0,L|408:120,1,180,8|2,0:0|0:0,0:0:0:0:
200,160,28963,6,0,L|160:248,1,90,2|0,0:0|0:0,0:0:0:0:
368,320,29377,2,0,L|296:264,2,90,8|2|0,0:0|0:0|0:0,0:0:0:0:
472,336,29998,1,8,0:0:0:0:
128,328,30205,5,2,0:0:0:0:
56,280,30412,1,0,0:0:0:0:
32,192,30618,1,0,0:0:0:0:
80,104,30825,1,0,0:0:0:0:
264,96,31032,2,0,L|368:96,1,90,8|0,0:0|0:0,0:0:0:0:
224,168,31446,2,0,L|112:168,1,90,0|8,0:0|0:0,0:0:0:0:
352,192,31860,5,0,0:0:0:0:
392,224,31963,1,0,0:0:0:0:
432,256,32067,1,2,0:0:0:0:
392,288,32170,1,0,0:0:0:0:
352,320,32274,1,2,0:0:0:0:
248,352,32480,1,0,0:0:0:0:
392,352,32687,6,0,L|408:240,1,90,8|2,0:0|0:0,0:0:0:0:
280,240,33101,1,0,0:0:0:0:
320,208,33205,1,0,0:0:0:0:
360,176,33308,1,8,0:0:0:0:
48,272,33515,5,6,0:0:0:0:
16,184,33722,1,0,0:0:0:0:
80,104,33929,1,0,0:0:0:0:
184,96,34136,1,0,0:0:0:0:
384,160,34343,2,0,L|400:272,1,90,8|0,0:0|0:0,0:0:0:0:
304,272,34756,2,0,L|200:288,1,90,0|8,0:0|0:0,0:0:0:0:
320,344,35170,5,0,0:0:0:0:
424,304,35377,1,2,0:0:0:0:
216,280,35584,2,0,L|104:240,1,90,2|0,0:0|0:0,0:0:0:0:
192,160,35998,1,8,0:0:0:0:
400,184,36205,1,2,0:0:0:0:
472,128,36412,1,0,0:0:0:0:
432,48,36618,1,8,0:0:0:0:
144,56,36825,6,0,L|48:120,1,90,2|0,0:0|0:0,0:0:0:0:
200,152,37239,2,0,L|264:216,1,90
136,272,37653,2,0,L|56:344,1,90,8|0,0:0|0:0,0:0:0:0:
392,184,38067,2,0,L|480:264,1,90,2|0,0:0|0:0,0:0:0:0:
104,176,40136,6,0,L|0:248,2,107.999996704102,6|0|0,0:0|0:0|0:0,0:0:0:0:
224,216,40756,1,0,0:0:0:0:
256,160,40860,1,0,0:0:0:0:
224,104,40963,1,8,0:0:0:0:
128,72,41170,1,0,0:0:0:0:
256,32,41377,2,0,L|376:48,1,107.999996704102,0|8,0:0|0:0,0:0:0:0:
176,136,41791,5,0,0:0:0:0:
136,160,41894,1,0,0:0:0:0:
144,208,41998,1,2,0:0:0:0:
184,224,42101,1,0,0:0:0:0:
232,224,42205,1,2,0:0:0:0:
120,304,42412,1,0,0:0:0:0:
320,336,42618,2,0,L|248:232,1,107.999996704102,8|2,0:0|0:0,0:0:0:0:
144,240,43032,2,0,L|128:128,1,107.999996704102,0|8,0:0|0:0,0:0:0:0:
400,176,43446,6,0,L|496:248,2,107.999996704102,2|0|0,0:0|0:0|0:0,0:0:0:0:
280,224,44067,1,0,0:0:0:0:
248,176,44170,1,0,0:0:0:0:
280,128,44274,1,8,0:0:0:0:
376,96,44480,1,0,0:0:0:0:
256,296,44687,2,0,L|128:280,1,107.999996704102,0|8,0:0|0:0,0:0:0:0:
360,360,45101,5,0,0:0:0:0:
408,336,45205,1,0,0:0:0:0:
456,280,45308,1,2,0:0:0:0:
440,224,45412,1,0,0:0:0:0:
384,192,45515,1,2,0:0:0:0:
288,192,45722,1,0,0:0:0:0:
184,160,45929,5,8,0:0:0:0:
160,112,46032,1,0,0:0:0:0:
200,72,46136,1,2,0:0:0:0:
304,56,46343,1,0,0:0:0:0:
408,48,46549,1,8,0:0:0:0:
136,208,46756,6,0,L|24:288,1,107.999996704102,6|0,0:0|0:0,0:0:0:0:
152,280,47170,2,0,L|232:368,1,107.999996704102
352,328,47584,2,0,L|272:232,1,107.999996704102,8|0,0:0|0:0,0:0:0:0:
504,200,47998,2,0,L|480:312,1,107.999996704102,0|8,0:0|0:0,0:0:0:0:
192,352,48412,5,0,0:0:0:0:
88,312,48618,1,2,0:0:0:0:
56,232,48825,1,2,0:0:0:0:
96,152,49032,1,0,0:0:0:0:
320,224,49239,5,8,0:0:0:0:
440,192,49446,1,2,0:0:0:0:
472,152,49549,1,0,0:0:0:0:
440,112,49653,1,0,0:0:0:0:
368,88,49860,1,8,0:0:0:0:
88,64,50067,6,0,L|0:176,1,107.999996704102,2|0,0:0|0:0,0:0:0:0:
136,176,50480,2,0,L|240:256,1,107.999996704102
16,336,50894,2,0,L|128:272,1,107.999996704102,8|0,0:0|0:0,0:0:0:0:
336,352,51308,2,0,P|408:280|296:120,1,306.000005836487,0|2,0:0|0:0,0:0:0:0:
272,112,51825,5,2,0:0:0:0:
224,104,51929,1,2,0:0:0:0:
344,56,52136,1,0,0:0:0:0:
176,240,52343,1,2,0:0:0:0:
248,232,52446,1,0,0:0:0:0:
320,232,52549,2,0,L|328:160,1,53.9999983520508,0|2,0:0|0:0,0:0:0:0:
208,168,52860,1,2,0:0:0:0:
88,160,53067,1,2,0:0:0:0:
480,136,53377,6,0,L|488:280,1,107.999996704102,6|0,0:0|0:0,0:0:0:0:
368,296,53791,2,0,L|280:216,1,107.999996704102
72,312,54205,2,0,L|24:248,1,53.9999983520508,8|0,0:0|0:0,0:0:0:0:
56,192,54412,2,0,L|144:168,1,53.9999983520508
208,160,54618,2,0,L|328:128,1,107.999996704102,0|8,0:0|0:0,0:0:0:0:
176,48,55032,1,0,0:0:0:0:
443,133,55239,6,0,L|472:88,1,53.9999983520508,2|0,0:0|0:0,0:0:0:0:
400,56,55446,2,0,L|256:32,1,107.999996704102,2|0,0:0|0:0,0:0:0:0:
80,160,55860,2,0,L|48:224,1,53.9999983520508,8|0,0:0|0:0,0:0:0:0:
112,264,56067,2,0,L|192:296,1,53.9999983520508
192,360,56274,2,0,L|56:344,1,107.999996704102,0|8,0:0|0:0,0:0:0:0:
352,328,56687,1,2,0:0:0:0:
448,208,56894,6,0,L|400:104,1,107.999996704102
256,152,57308,1,0,0:0:0:0:
184,160,57412,1,0,0:0:0:0:
112,160,57515,2,0,L|8:56,1,107.999996704102,8|0,0:0|0:0,0:0:0:0:
128,48,57929,5,0,0:0:0:0:
416,80,58136,2,0,P|448:152|336:208,1,215.999993408203,8|2,0:0|0:0,0:0:0:0:
288,200,58653,1,0,0:0:0:0:
224,192,58756,6,0,L|152:312,1,107.999996704102,2|0,0:0|0:0,0:0:0:0:
288,312,59170,2,0,L|176:376,1,107.999996704102,8|0,0:0|0:0,0:0:0:0:
368,352,59584,1,0,0:0:0:0:
408,304,59687,1,0,0:0:0:0:
368,256,59791,1,8,0:0:0:0:
32,248,59998,6,0,L|24:104,1,107.999996704102,6|0,0:0|0:0,0:0:0:0:
144,88,60412,2,0,L|232:168,1,107.999996704102
440,72,60826,2,0,L|488:136,1,53.9999983520508,8|0,0:0|0:0,0:0:0:0:
456,192,61033,2,0,L|368:216,1,53.9999983520508
304,224,61239,2,0,L|184:256,1,107.999996704102,0|8,0:0|0:0,0:0:0:0:
336,336,61653,1,0,0:0:0:0:
68,133,61860,6,0,L|40:88,1,53.9999983520508,2|0,0:0|0:0,0:0:0:0:
112,56,62067,2,0,L|256:32,1,107.999996704102,2|0,0:0|0:0,0:0:0:0:
432,160,62481,2,0,L|464:224,1,53.9999983520508,8|0,0:0|0:0,0:0:0:0:
400,264,62688,2,0,L|320:296,1,53.9999983520508
320,360,62894,2,0,L|456:344,1,107.999996704102,0|8,0:0|0:0,0:0:0:0:
160,328,63307,1,2,0:0:0:0:
32,176,63515,6,0,L|80:280,1,107.999996704102
256,232,63929,1,0,0:0:0:0:
328,224,64033,1,0,0:0:0:0:
400,224,64136,2,0,L|472:328,1,107.999996704102,8|0,0:0|0:0,0:0:0:0:
376,352,64550,5,0,0:0:0:0:
96,304,64756,2,0,P|64:232|176:176,1,215.999993408203,8|2,0:0|0:0,0:0:0:0:
224,184,65274,1,0,0:0:0:0:
288,192,65377,2,0,L|408:112,1,107.999996704102,2|0,0:0|0:0,0:0:0:0:
80,96,65791,5,8,0:0:0:0:
184,144,66101,1,0,0:0:0:0:
32,200,66412,1,0,0:0:0:0:
304,312,66618,5,4,1:0:0:0:
