osu file format v14

[General]
AudioFilename: isangdaanampli.mp3
AudioLeadIn: 0
PreviewTime: 39004
Countdown: 0
SampleSet: Normal
StackLeniency: 0.7
Mode: 2
LetterboxInBreaks: 0
WidescreenStoryboard: 0

[Editor]
Bookmarks: 13653,66618
DistanceSpacing: 1.2
BeatDivisor: 4
GridSize: 8
TimelineZoom: 1.8

[Metadata]
Title:1SANG Daan
TitleUnicode:1SANG Daan
Artist:Sam Concepcion
ArtistUnicode:Sam Concepcion
Creator:Hi_Hello
Version:Maghihintay
Source:
Tags:bago isang 100 one hundred opm ppop filipino tagalog -nicotine
BeatmapID:1583027
BeatmapSetID:751951

[Difficulty]
HPDrainRate:6
CircleSize:4.1
OverallDifficulty:8.7
ApproachRate:8.7
SliderMultiplier:2
SliderTickRate:1

[Events]
//Background and Video events
0,0,"thebg.jpg",0,0
//Break Periods
//Storyboard Layer 0 (Background)
//Storyboard Layer 1 (Fail)
//Storyboard Layer 2 (Pass)
//Storyboard Layer 3 (Foreground)
//Storyboard Sound Samples

[TimingPoints]
412,413.793103448276,4,2,0,5,1,0
13653,-125,4,2,1,60,0,0
21101,-66.6666666666667,4,2,1,60,0,0
21515,-125,4,2,1,60,0,0
26274,-125,4,2,0,30,0,0
26894,-100,4,2,2,70,0,0
40136,-83.3333333333333,4,2,1,80,0,1
51308,-58.8235294117647,4,2,1,80,0,1
51722,-83.3333333333333,4,3,0,80,0,1
52136,-83.3333333333333,4,2,1,80,0,1
52343,-83.3333333333333,4,3,0,80,0,1
52549,-83.3333333333333,4,3,0,80,0,0
53377,-83.3333333333333,4,2,1,80,0,1
59894,-83.3333333333333,4,2,1,80,0,0
59998,-83.3333333333333,4,2,1,80,0,1
65791,-83.3333333333333,4,2,2,80,0,1
66618,-83.3333333333333,4,1,0,80,0,0

[Colours]
Combo1 : 253,208,53
Combo2 : 64,128,128

[HitObjects]
256,192,11584,8,0,13239,0:0:0:0:
208,312,13653,5,6,0:0:0:0:
104,264,13860,1,0,0:0:0:0:
88,152,14067,1,0,0:0:0:0:
192,112,14274,1,0,0:0:0:0:
368,176,14480,2,0,L|464:136,1,80,8|0,0:0|0:0,0:0:0:0:
360,88,14894,2,0,L|248:56,1,80,0|8,0:0|0:0,0:0:0:0:
88,72,15308,6,0,L|12:99,1,80,0|2,0:0|0:0,0:0:0:0:
280,144,15722,2,0,L|328:232,1,80,2|0,0:0|0:0,0:0:0:0:
424,248,16136,1,8,0:0:0:0:
96,320,16343,2,0,B|48:280|48:280|144:232,1,160,2|10,0:0|0:0,0:0:0:0:
400,192,16963,5,2,0:0:0:0:
464,112,17170,1,0,0:0:0:0:
376,72,17377,1,0,0:0:0:0:
264,64,17584,1,0,0:0:0:0:
424,48,17791,2,0,L|504:112,1,80,8|0,0:0|0:0,0:0:0:0:
328,288,18205,1,0,0:0:0:0:
272,224,18412,1,8,0:0:0:0:
328,152,18618,5,0,0:0:0:0:
440,152,18825,1,2,0:0:0:0:
120,272,19032,2,0,L|232:296,1,80,2|0,0:0|0:0,0:0:0:0:
360,312,19446,1,8,0:0:0:0:
64,312,19653,2,0,B|8:256|8:256|80:208,1,160,2|10,0:0|0:0,0:0:0:0:
368,240,20274,6,0,L|280:208,1,80,2|0,0:0|0:0,0:0:0:0:
408,144,20687,1,0,0:0:0:0:
504,96,20894,1,0,0:0:0:0:
208,320,21101,2,0,P|128:264|232:120,1,300.000011444092,8|0,0:0|0:0,0:0:0:0:
384,120,21722,1,8,0:0:0:0:
472,168,21929,1,0,0:0:0:0:
384,208,22136,5,0,0:0:0:0:
80,152,22343,2,0,L|32:56,1,80,2|0,0:0|0:0,0:0:0:0:
160,56,22756,1,8,0:0:0:0:
424,48,22963,2,0,B|488:104|488:104|400:152,1,160,2|10,0:0|0:0,0:0:0:0:
136,256,23584,6,0,L|72:208,1,80,2|0,0:0|0:0,0:0:0:0:
192,168,23998,2,0,L|256:120,1,80
72,328,24412,1,8,0:0:0:0:
8,256,24618,1,0,0:0:0:0:
160,240,24825,1,0,0:0:0:0:
240,184,25032,1,8,0:0:0:0:
240,96,25239,5,0,0:0:0:0:
112,64,25446,1,2,0:0:0:0:
456,56,25653,1,2,0:0:0:0:
288,256,26067,1,0,0:0:0:0:
368,280,26274,1,8,0:0:0:0:
448,304,26480,1,8,0:0:0:0:
144,328,26894,5,6,0:0:0:0:
64,296,27101,1,0,0:0:0:0:
40,216,27308,1,0,0:0:0:0:
88,144,27515,1,0,0:0:0:0:
296,104,27722,5,8,0:0:0:0:
344,192,27929,1,0,0:0:0:0:
264,264,28136,1,0,0:0:0:0:
152,280,28343,1,8,0:0:0:0:
264,344,28549,5,0,0:0:0:0:
424,344,28756,1,2,0:0:0:0:
128,328,28963,2,0,L|16:256,1,100,2|0,0:0|0:0,0:0:0:0:
144,208,29377,1,8,0:0:0:0:
432,208,29584,2,0,B|504:144|504:144|416:72,1,200,2|10,0:0|0:0,0:0:0:0:
144,80,30205,5,2,0:0:0:0:
256,112,30412,2,0,L|312:224,1,100
144,232,30825,1,0,0:0:0:0:
304,320,31032,2,0,L|376:224,1,100,8|0,0:0|0:0,0:0:0:0:
208,336,31446,2,0,L|80:344,1,100,0|8,0:0|0:0,0:0:0:0:
280,288,31860,5,0,0:0:0:0:
328,272,31963,1,0,0:0:0:0:
344,224,32067,1,2,0:0:0:0:
328,184,32170,1,0,0:0:0:0:
280,168,32274,1,2,0:0:0:0:
160,160,32480,1,0,0:0:0:0:
352,80,32687,6,0,L|488:104,1,100,8|2,0:0|0:0,0:0:0:0:
320,160,33101,2,0,L|248:176,1,50
368,232,33308,2,0,L|432:248,1,50,8|0,0:0|0:0,0:0:0:0:
144,344,33515,5,6,0:0:0:0:
32,312,33722,1,0,0:0:0:0:
32,208,33929,1,0,0:0:0:0:
136,160,34136,1,0,0:0:0:0:
336,144,34343,5,8,0:0:0:0:
416,64,34549,1,0,0:0:0:0:
320,24,34756,1,0,0:0:0:0:
144,32,34963,1,8,0:0:0:0:
216,96,35170,6,0,L|336:96,1,100,0|2,0:0|0:0,0:0:0:0:
144,184,35584,2,0,L|32:240,2,100,2|0|8,0:0|0:0|0:0,0:0:0:0:
432,288,36205,2,0,P|480:240|400:136,1,200,2|10,0:0|0:0,0:0:0:0:
96,192,36825,6,0,L|0:112,1,100,2|0,0:0|0:0,0:0:0:0:
112,72,37239,2,0,L|208:-16,1,100
496,88,37653,2,0,L|408:176,1,100,8|0,0:0|0:0,0:0:0:0:
160,192,38067,2,0,L|216:296,1,100,2|0,0:0|0:0,0:0:0:0:
424,320,39101,5,0,0:0:0:0:
328,280,39308,1,0,0:0:0:0:
296,184,39515,1,0,0:0:0:0:
328,88,39722,1,0,0:0:0:0:
432,56,39929,1,0,0:0:0:0:
104,40,40136,6,0,L|24:136,1,119.999996337891,6|0,0:0|0:0,0:0:0:0:
112,232,40549,1,0,0:0:0:0:
240,208,40756,5,0,0:0:0:0:
280,192,40860,1,0,0:0:0:0:
296,144,40963,1,8,0:0:0:0:
272,112,41067,1,0,0:0:0:0:
224,104,41170,1,0,0:0:0:0:
376,160,41377,1,0,0:0:0:0:
488,152,41584,1,8,0:0:0:0:
216,184,41791,5,0,0:0:0:0:
240,144,41894,1,0,0:0:0:0:
264,104,41998,1,2,0:0:0:0:
120,144,42205,5,2,0:0:0:0:
304,256,42412,1,0,0:0:0:0:
344,216,42515,1,0,0:0:0:0:
328,168,42618,1,8,0:0:0:0:
208,144,42825,1,2,0:0:0:0:
328,120,43032,6,0,L|368:40,1,59.9999981689454
304,56,43239,2,0,L|224:56,1,59.9999981689454,8|0,0:0|0:0,0:0:0:0:
64,80,43446,5,2,0:0:0:0:
144,144,43653,1,0,0:0:0:0:
240,160,43860,1,0,0:0:0:0:
400,240,44067,2,0,L|440:296,1,59.9999981689454
296,320,44274,6,0,L|200:240,1,119.999996337891,8|0,0:0|0:0,0:0:0:0:
352,192,44687,1,0,0:0:0:0:
224,152,44894,1,8,0:0:0:0:
392,136,45101,5,0,0:0:0:0:
448,120,45205,1,0,0:0:0:0:
464,72,45308,1,2,0:0:0:0:
368,40,45515,1,2,0:0:0:0:
88,240,45722,5,0,0:0:0:0:
88,160,45825,1,0,0:0:0:0:
168,160,45929,1,8,0:0:0:0:
48,112,46136,1,2,0:0:0:0:
232,336,46343,5,0,0:0:0:0:
256,280,46446,1,0,0:0:0:0:
232,224,46549,1,10,0:0:0:0:
176,200,46653,1,0,0:0:0:0:
488,192,46756,6,0,L|376:96,1,119.999996337891,4|0,0:0|0:0,0:0:0:0:
272,112,47170,1,0,0:0:0:0:
400,64,47377,5,0,0:0:0:0:
248,32,47584,1,8,0:0:0:0:
424,144,47791,1,0,0:0:0:0:
128,168,47998,1,0,0:0:0:0:
24,144,48205,1,0,0:0:0:0:
296,208,48412,5,0,0:0:0:0:
344,152,48515,1,0,0:0:0:0:
392,96,48618,1,2,0:0:0:0:
216,136,48825,2,0,L|123:59,1,119.999996337891,2|0,0:0|0:0,0:0:0:0:
256,24,49239,5,8,0:0:0:0:
104,160,49446,1,2,0:0:0:0:
296,320,49653,1,0,0:0:0:0:
208,304,49756,1,0,0:0:0:0:
120,288,49860,1,0,0:0:0:0:
432,72,50067,5,2,0:0:0:0:
496,144,50274,1,0,0:0:0:0:
296,184,50480,5,0,0:0:0:0:
256,224,50584,1,0,0:0:0:0:
296,264,50687,1,0,0:0:0:0:
464,288,50894,1,8,0:0:0:0:
504,208,51101,1,0,0:0:0:0:
128,280,51308,2,0,B|56:224|56:224|128:184,1,170.000003242493,0|8,0:0|0:0,0:0:0:0:
320,136,51722,5,2,0:0:0:0:
408,112,51825,1,2,0:0:0:0:
488,88,51929,1,6,0:0:0:0:
288,48,52136,1,2,0:0:0:0:
464,96,52343,2,0,L|504:144,1,59.9999981689454,2|0,0:0|0:0,0:0:0:0:
152,160,52549,5,2,0:0:0:0:
96,184,52653,1,2,0:0:0:0:
232,232,52860,1,2,0:0:0:0:
48,320,53067,1,2,0:0:0:0:
480,304,53377,6,0,L|488:160,1,119.999996337891,6|0,0:0|0:0,0:0:0:0:
328,200,53791,2,0,L|448:96,1,119.999996337891
376,88,54101,1,0,0:0:0:0:
256,128,54205,6,0,L|136:56,1,119.999996337891,8|0,0:0|0:0,0:0:0:0:
304,48,54618,2,0,L|360:8,1,59.9999981689454
152,184,54825,2,0,L|72:128,1,59.9999981689454
168,96,55032,5,0,0:0:0:0:
304,80,55239,1,2,0:0:0:0:
32,136,55446,2,0,L|0:288,1,119.999996337891,2|0,0:0|0:0,0:0:0:0:
160,320,55860,6,0,L|224:304,1,59.9999981689454,8|0,0:0|0:0,0:0:0:0:
264,232,56067,2,0,L|184:184,1,59.9999981689454
104,176,56274,2,0,L|80:104,1,59.9999981689454
248,72,56480,2,0,L|328:48,1,59.9999981689454
480,88,56687,6,0,L|384:184,1,119.999996337891,2|0,0:0|0:0,0:0:0:0:
216,200,57101,2,0,L|80:256,1,119.999996337891
152,272,57412,1,0,0:0:0:0:
256,256,57515,2,0,L|376:328,1,119.999996337891,8|0,0:0|0:0,0:0:0:0:
208,344,57929,2,0,L|72:376,1,119.999996337891
416,336,58343,5,0,0:0:0:0:
464,312,58446,1,0,0:0:0:0:
488,264,58549,1,2,0:0:0:0:
472,216,58653,1,0,0:0:0:0:
296,200,58756,5,2,0:0:0:0:
248,176,58860,1,0,0:0:0:0:
224,128,58963,1,0,0:0:0:0:
248,80,59067,1,0,0:0:0:0:
424,176,59170,6,0,L|472:112,1,59.9999981689454,8|0,0:0|0:0,0:0:0:0:
384,96,59377,2,0,L|320:88,1,59.9999981689454,2|0,0:0|0:0,0:0:0:0:
248,80,59584,2,0,L|232:16,1,59.9999981689454
336,32,59791,1,2,0:0:0:0:
424,32,59894,1,0,0:0:0:0:
112,88,59998,6,0,L|24:224,1,119.999996337891,6|0,0:0|0:0,0:0:0:0:
184,184,60412,2,0,L|64:288,1,119.999996337891
136,296,60722,1,0,0:0:0:0:
256,256,60826,6,0,L|376:328,1,119.999996337891,8|0,0:0|0:0,0:0:0:0:
216,328,61239,2,0,L|88:376,1,119.999996337891
416,328,61653,6,0,L|480:296,1,59.9999981689454
488,240,61860,1,2,0:0:0:0:
168,200,62067,1,2,0:0:0:0:
32,192,62274,1,0,0:0:0:0:
312,312,62480,5,8,0:0:0:0:
360,296,62584,1,0,0:0:0:0:
400,256,62687,1,0,0:0:0:0:
424,200,62791,1,0,0:0:0:0:
232,160,62894,2,0,L|152:160,1,59.9999981689454
336,96,63101,2,0,L|400:88,1,59.9999981689454,8|0,0:0|0:0,0:0:0:0:
48,160,63308,6,0,L|32:16,1,119.999996337891,2|0,0:0|0:0,0:0:0:0:
216,256,63722,2,0,L|136:144,1,119.999996337891
200,128,64032,1,0,0:0:0:0:
272,176,64136,6,0,L|344:144,1,59.9999981689454,8|0,0:0|0:0,0:0:0:0:
248,320,64343,2,0,L|176:296,1,59.9999981689454
360,288,64549,2,0,L|432:272,1,59.9999981689454
184,328,64756,5,0,0:0:0:0:
136,296,64860,1,0,0:0:0:0:
128,232,64963,1,0,0:0:0:0:
176,200,65067,1,0,0:0:0:0:
384,160,65170,6,0,L|464:144,1,59.9999981689454,2|0,0:0|0:0,0:0:0:0:
248,216,65377,1,2,0:0:0:0:
160,200,65480,1,0,0:0:0:0:
72,184,65584,1,0,0:0:0:0:
432,224,65791,5,8,0:0:0:0:
280,152,66101,1,0,0:0:0:0:
440,96,66412,1,0,0:0:0:0:
144,56,66618,5,4,0:0:0:0:
