osu file format v13

[General]
AudioFilename: Sakuzyo - Imprinting.mp3
AudioLeadIn: 0
PreviewTime: 79419
Countdown: 0
SampleSet: Soft
StackLeniency: 0.7
Mode: 3
LetterboxInBreaks: 0
SpecialStyle: 0
WidescreenStoryboard: 1

[Editor]
DistanceSpacing: 0.6
BeatDivisor: 4
GridSize: 8
TimelineZoom: 1

[Metadata]
Title:Imprinting
TitleUnicode:Imprinting
Artist:Sakuzyo
ArtistUnicode:削除
Creator:asd123iii
Version:Normal
Source:
Tags:fairythm C87
BeatmapID:598113
BeatmapSetID:255239

[Difficulty]
HPDrainRate:8
CircleSize:7
OverallDifficulty:8
ApproachRate:5
SliderMultiplier:1.4
SliderTickRate:1

[Events]
//Background and Video events
//Break Periods
//Storyboard Layer 0 (Background)
//Storyboard Layer 1 (Fail)
//Storyboard Layer 2 (Pass)
//Storyboard Layer 3 (Foreground)
//Storyboard Sound Samples

[TimingPoints]
2619,342.857142857143,4,2,1,0,1,0

[HitObjects]
256,192,2618,5,0,0:0:0:0:
475,192,2618,1,0,0:0:0:0:
109,192,3647,1,0,0:0:0:0:
402,192,3647,1,0,0:0:0:0:
256,192,3990,1,0,0:0:0:0:
475,192,3990,1,0,0:0:0:0:
402,192,5019,1,0,0:0:0:0:
109,192,5019,1,0,0:0:0:0:
256,192,5361,1,0,0:0:0:0:
475,192,5361,1,0,0:0:0:0:
109,192,6047,1,0,0:0:0:0:
329,192,6047,1,0,0:0:0:0:
256,192,6733,1,0,0:0:0:0:
402,192,6733,1,0,0:0:0:0:
182,192,7076,1,0,0:0:0:0:
36,192,7076,1,0,0:0:0:0:
109,192,7419,1,0,0:0:0:0:
256,192,7419,1,0,0:0:0:0:
402,192,7761,1,0,0:0:0:0:
182,192,7761,1,0,0:0:0:0:
475,192,8104,1,0,0:0:0:0:
256,192,8104,1,0,0:0:0:0:
109,192,9133,1,0,0:0:0:0:
402,192,9133,1,0,0:0:0:0:
256,192,9476,1,0,0:0:0:0:
475,192,9476,1,0,0:0:0:0:
109,192,10504,1,0,0:0:0:0:
402,192,10504,1,0,0:0:0:0:
256,192,10847,1,0,0:0:0:0:
475,192,10847,1,0,0:0:0:0:
256,192,11533,1,0,0:0:0:0:
36,192,11533,1,0,0:0:0:0:
329,192,12219,1,0,0:0:0:0:
256,192,12561,1,0,0:0:0:0:
182,192,12904,1,0,0:0:0:0:
109,192,13247,1,0,0:0:0:0:
256,192,13419,1,0,0:0:0:0:
329,192,13590,1,0,0:0:0:0:
109,192,13761,1,0,0:0:0:0:
329,192,13933,1,0,0:0:0:0:
109,192,14104,1,0,0:0:0:0:
329,192,14276,1,0,0:0:0:0:
109,192,14447,1,0,0:0:0:0:
402,192,14619,1,0,0:0:0:0:
402,192,14790,1,0,0:0:0:0:
182,192,14961,1,0,0:0:0:0:
402,192,15133,1,0,0:0:0:0:
182,192,15304,1,0,0:0:0:0:
402,192,15476,1,0,0:0:0:0:
182,192,15647,1,0,0:0:0:0:
402,192,15819,1,0,0:0:0:0:
109,192,15990,1,0,0:0:0:0:
109,192,16161,1,0,0:0:0:0:
329,192,16333,1,0,0:0:0:0:
182,192,16504,1,0,0:0:0:0:
329,192,16676,1,0,0:0:0:0:
182,192,16847,1,0,0:0:0:0:
329,192,17019,1,0,0:0:0:0:
182,192,17190,1,0,0:0:0:0:
402,192,17361,1,0,0:0:0:0:
256,192,17533,1,0,0:0:0:0:
109,192,17704,1,0,0:0:0:0:
329,192,17876,1,0,0:0:0:0:
109,192,18047,1,0,0:0:0:0:
329,192,18219,1,0,0:0:0:0:
109,192,18390,1,0,0:0:0:0:
329,192,18561,1,0,0:0:0:0:
109,192,18733,1,0,0:0:0:0:
402,192,18904,1,0,0:0:0:0:
256,192,19076,1,0,0:0:0:0:
36,192,19076,1,0,0:0:0:0:
256,192,20104,1,0,0:0:0:0:
36,192,20104,1,0,0:0:0:0:
402,192,20447,1,0,0:0:0:0:
182,192,20447,1,0,0:0:0:0:
182,192,21476,1,0,0:0:0:0:
402,192,21476,1,0,0:0:0:0:
109,192,21819,1,0,0:0:0:0:
329,192,21819,1,0,0:0:0:0:
402,192,22161,1,0,0:0:0:0:
182,192,22161,1,0,0:0:0:0:
329,192,22504,1,0,0:0:0:0:
109,192,22504,1,0,0:0:0:0:
182,192,22847,1,0,0:0:0:0:
475,192,22847,1,0,0:0:0:0:
109,192,23190,1,0,0:0:0:0:
402,192,23190,1,0,0:0:0:0:
36,192,23533,128,0,24561:0:0:0:0:
256,192,24561,1,0,0:0:0:0:
475,192,24561,1,0,0:0:0:0:
402,192,25590,1,0,0:0:0:0:
109,192,25590,1,0,0:0:0:0:
475,192,25933,1,0,0:0:0:0:
256,192,25933,1,0,0:0:0:0:
109,192,26961,1,0,0:0:0:0:
402,192,26961,1,0,0:0:0:0:
475,192,27304,1,0,0:0:0:0:
256,192,27304,1,0,0:0:0:0:
329,192,27990,1,0,0:0:0:0:
109,192,27990,1,0,0:0:0:0:
256,192,28676,1,0,0:0:0:0:
402,192,28676,1,0,0:0:0:0:
36,192,29019,1,0,0:0:0:0:
182,192,29019,1,0,0:0:0:0:
109,192,29361,1,0,0:0:0:0:
256,192,29361,1,0,0:0:0:0:
402,192,29704,1,0,0:0:0:0:
182,192,29704,1,0,0:0:0:0:
256,192,30047,1,0,0:0:0:0:
475,192,30047,1,0,0:0:0:0:
109,192,31076,1,0,0:0:0:0:
402,192,31076,1,0,0:0:0:0:
475,192,31419,1,0,0:0:0:0:
256,192,31419,1,0,0:0:0:0:
402,192,32447,1,0,0:0:0:0:
109,192,32447,1,0,0:0:0:0:
256,192,32790,1,0,0:0:0:0:
475,192,32790,1,0,0:0:0:0:
329,192,33476,1,0,0:0:0:0:
109,192,33476,1,0,0:0:0:0:
475,192,34161,1,0,0:0:0:0:
109,192,34504,1,0,0:0:0:0:
402,192,34847,1,0,0:0:0:0:
256,192,35190,128,0,35361:0:0:0:0:
109,192,35533,1,0,0:0:0:0:
329,192,35704,1,0,0:0:0:0:
109,192,35876,1,0,0:0:0:0:
329,192,36047,1,0,0:0:0:0:
182,192,36219,1,0,0:0:0:0:
402,192,36390,1,0,0:0:0:0:
182,192,36561,1,0,0:0:0:0:
402,192,36733,1,0,0:0:0:0:
256,192,36904,1,0,0:0:0:0:
475,192,37076,1,0,0:0:0:0:
256,192,37247,1,0,0:0:0:0:
475,192,37419,1,0,0:0:0:0:
329,192,37590,1,0,0:0:0:0:
36,192,37761,1,0,0:0:0:0:
329,192,37933,1,0,0:0:0:0:
36,192,38104,1,0,0:0:0:0:
402,192,38276,1,0,0:0:0:0:
109,192,38447,1,0,0:0:0:0:
402,192,38619,1,0,0:0:0:0:
109,192,38790,1,0,0:0:0:0:
475,192,38961,1,0,0:0:0:0:
182,192,39133,1,0,0:0:0:0:
475,192,39304,1,0,0:0:0:0:
182,192,39476,1,0,0:0:0:0:
329,192,39647,1,0,0:0:0:0:
329,192,39819,1,0,0:0:0:0:
109,192,39990,1,0,0:0:0:0:
329,192,40161,1,0,0:0:0:0:
182,192,40333,1,0,0:0:0:0:
182,192,40504,1,0,0:0:0:0:
402,192,40676,1,0,0:0:0:0:
182,192,40847,1,0,0:0:0:0:
256,192,41019,1,0,0:0:0:0:
402,192,41019,1,0,0:0:0:0:
256,192,42390,1,0,0:0:0:0:
109,192,42390,1,0,0:0:0:0:
329,192,43419,1,0,0:0:0:0:
109,192,43419,1,0,0:0:0:0:
402,192,43761,1,0,0:0:0:0:
182,192,43761,1,0,0:0:0:0:
329,192,44104,1,0,0:0:0:0:
109,192,44104,1,0,0:0:0:0:
402,192,44447,1,0,0:0:0:0:
182,192,44447,1,0,0:0:0:0:
36,192,44790,1,0,0:0:0:0:
329,192,44790,1,0,0:0:0:0:
402,192,45133,1,0,0:0:0:0:
109,192,45133,1,0,0:0:0:0:
182,192,45476,1,0,0:0:0:0:
182,192,45819,1,0,0:0:0:0:
329,192,46076,1,0,0:0:0:0:
402,192,46333,1,0,0:0:0:0:
182,192,46504,1,0,0:0:0:0:
109,192,46676,1,0,0:0:0:0:
256,192,46847,1,0,0:0:0:0:
402,192,47019,1,0,0:0:0:0:
475,192,47190,1,0,0:0:0:0:
256,192,47704,1,0,0:0:0:0:
36,192,47876,1,0,0:0:0:0:
109,192,48047,1,0,0:0:0:0:
402,192,48219,1,0,0:0:0:0:
329,192,48390,1,0,0:0:0:0:
109,192,48561,1,0,0:0:0:0:
182,192,48733,1,0,0:0:0:0:
475,192,48904,1,0,0:0:0:0:
402,192,49076,1,0,0:0:0:0:
109,192,49247,1,0,0:0:0:0:
329,192,49419,1,0,0:0:0:0:
182,192,49590,1,0,0:0:0:0:
329,192,49761,1,0,0:0:0:0:
475,192,49933,1,0,0:0:0:0:
36,192,50276,1,0,0:0:0:0:
182,192,50447,1,0,0:0:0:0:
329,192,50619,1,0,0:0:0:0:
256,192,50790,1,0,0:0:0:0:
182,192,50961,1,0,0:0:0:0:
109,192,51133,1,0,0:0:0:0:
402,192,51304,1,0,0:0:0:0:
329,192,51990,1,0,0:0:0:0:
109,192,52161,1,0,0:0:0:0:
182,192,52333,1,0,0:0:0:0:
256,192,52504,1,0,0:0:0:0:
329,192,52676,1,0,0:0:0:0:
402,192,53190,1,0,0:0:0:0:
109,192,53361,1,0,0:0:0:0:
182,192,53533,1,0,0:0:0:0:
475,192,53704,1,0,0:0:0:0:
402,192,53876,1,0,0:0:0:0:
36,192,54047,1,0,0:0:0:0:
109,192,54219,1,0,0:0:0:0:
402,192,54390,1,0,0:0:0:0:
329,192,54561,1,0,0:0:0:0:
256,192,54733,1,0,0:0:0:0:
109,192,54733,1,0,0:0:0:0:
329,192,55590,1,0,0:0:0:0:
475,192,55590,1,0,0:0:0:0:
182,192,55761,1,0,0:0:0:0:
36,192,55761,1,0,0:0:0:0:
329,192,55933,1,0,0:0:0:0:
475,192,55933,1,0,0:0:0:0:
256,192,56104,1,0,0:0:0:0:
109,192,56104,1,0,0:0:0:0:
109,192,56961,1,0,0:0:0:0:
182,192,56961,1,0,0:0:0:0:
402,192,57133,1,0,0:0:0:0:
329,192,57133,1,0,0:0:0:0:
109,192,57304,1,0,0:0:0:0:
182,192,57304,1,0,0:0:0:0:
475,192,57476,1,0,0:0:0:0:
256,192,57476,1,0,0:0:0:0:
182,192,57819,1,0,0:0:0:0:
329,192,58076,1,0,0:0:0:0:
182,192,58161,1,0,0:0:0:0:
109,192,58333,1,0,0:0:0:0:
256,192,58504,1,0,0:0:0:0:
329,192,58676,1,0,0:0:0:0:
475,192,58847,1,0,0:0:0:0:
182,192,59190,1,0,0:0:0:0:
475,192,59533,1,0,0:0:0:0:
256,192,59876,1,0,0:0:0:0:
109,192,60219,128,0,60904:0:0:0:0:
256,192,60219,1,0,0:0:0:0:
329,192,60904,128,0,61590:0:0:0:0:
182,192,61590,128,0,62276:0:0:0:0:
475,192,62276,128,0,62961:0:0:0:0:
256,192,62961,128,0,63647:0:0:0:0:
182,192,63647,128,0,64333:0:0:0:0:
402,192,64333,128,0,65019:0:0:0:0:
109,192,65019,128,0,65704:0:0:0:0:
256,192,65704,128,0,66390:0:0:0:0:
329,192,66390,128,0,67076:0:0:0:0:
182,192,67076,128,0,67761:0:0:0:0:
402,192,67761,128,0,68447:0:0:0:0:
109,192,68447,128,0,69133:0:0:0:0:
182,192,69133,128,0,69819:0:0:0:0:
402,192,69819,128,0,70504:0:0:0:0:
475,192,70504,128,0,71190:0:0:0:0:
36,192,71190,128,0,71876:0:0:0:0:
402,192,71876,128,0,72561:0:0:0:0:
109,192,72561,128,0,73247:0:0:0:0:
329,192,73247,128,0,73933:0:0:0:0:
36,192,73933,128,0,74619:0:0:0:0:
182,192,74619,128,0,75304:0:0:0:0:
256,192,75304,128,0,75990:0:0:0:0:
329,192,75990,128,0,76676:0:0:0:0:
475,192,76676,128,0,78047:0:0:0:0:
36,192,78047,1,0,0:0:0:0:
256,192,78390,1,0,0:0:0:0:
109,192,78733,1,0,0:0:0:0:
329,192,78904,1,0,0:0:0:0:
182,192,79076,1,0,0:0:0:0:
36,192,79247,1,0,0:0:0:0:
402,192,79419,1,0,0:0:0:0:
402,192,79590,1,0,0:0:0:0:
402,192,79761,1,0,0:0:0:0:
182,192,80104,1,0,0:0:0:0:
182,192,80276,1,0,0:0:0:0:
182,192,80447,1,0,0:0:0:0:
329,192,80790,1,0,0:0:0:0:
329,192,80961,1,0,0:0:0:0:
256,192,81133,1,0,0:0:0:0:
182,192,81304,1,0,0:0:0:0:
36,192,81476,1,0,0:0:0:0:
109,192,81647,1,0,0:0:0:0:
182,192,81819,1,0,0:0:0:0:
256,192,81990,1,0,0:0:0:0:
475,192,82161,1,0,0:0:0:0:
36,192,82333,1,0,0:0:0:0:
402,192,82504,1,0,0:0:0:0:
109,192,82676,1,0,0:0:0:0:
329,192,82847,1,0,0:0:0:0:
182,192,83019,1,0,0:0:0:0:
402,192,83190,1,0,0:0:0:0:
256,192,83361,1,0,0:0:0:0:
36,192,83533,1,0,0:0:0:0:
329,192,83704,1,0,0:0:0:0:
109,192,83876,1,0,0:0:0:0:
475,192,84047,1,0,0:0:0:0:
329,192,84219,1,0,0:0:0:0:
109,192,84390,1,0,0:0:0:0:
402,192,84561,1,0,0:0:0:0:
182,192,84733,1,0,0:0:0:0:
329,192,84904,1,0,0:0:0:0:
329,192,85076,1,0,0:0:0:0:
329,192,85247,1,0,0:0:0:0:
109,192,85590,1,0,0:0:0:0:
109,192,85761,1,0,0:0:0:0:
109,192,85933,1,0,0:0:0:0:
475,192,86276,1,0,0:0:0:0:
109,192,86447,1,0,0:0:0:0:
182,192,86619,1,0,0:0:0:0:
256,192,86790,1,0,0:0:0:0:
402,192,86961,1,0,0:0:0:0:
329,192,87133,1,0,0:0:0:0:
256,192,87304,1,0,0:0:0:0:
182,192,87476,1,0,0:0:0:0:
109,192,87647,1,0,0:0:0:0:
329,192,87819,1,0,0:0:0:0:
109,192,87990,1,0,0:0:0:0:
329,192,88161,1,0,0:0:0:0:
182,192,88333,1,0,0:0:0:0:
402,192,88504,1,0,0:0:0:0:
182,192,88676,1,0,0:0:0:0:
402,192,88847,1,0,0:0:0:0:
475,192,89019,1,0,0:0:0:0:
109,192,89190,1,0,0:0:0:0:
256,192,89361,1,0,0:0:0:0:
402,192,89533,1,0,0:0:0:0:
182,192,89704,1,0,0:0:0:0:
329,192,89876,1,0,0:0:0:0:
36,192,90047,1,0,0:0:0:0:
182,192,90219,1,0,0:0:0:0:
402,192,90390,1,0,0:0:0:0:
402,192,90561,1,0,0:0:0:0:
402,192,90733,1,0,0:0:0:0:
182,192,91076,1,0,0:0:0:0:
182,192,91247,1,0,0:0:0:0:
182,192,91419,1,0,0:0:0:0:
329,192,91761,1,0,0:0:0:0:
329,192,91933,1,0,0:0:0:0:
256,192,92104,1,0,0:0:0:0:
182,192,92276,1,0,0:0:0:0:
36,192,92447,1,0,0:0:0:0:
109,192,92619,1,0,0:0:0:0:
182,192,92790,1,0,0:0:0:0:
329,192,92961,1,0,0:0:0:0:
475,192,93133,1,0,0:0:0:0:
36,192,93304,1,0,0:0:0:0:
402,192,93476,1,0,0:0:0:0:
109,192,93647,1,0,0:0:0:0:
329,192,93819,1,0,0:0:0:0:
182,192,93990,1,0,0:0:0:0:
402,192,94161,1,0,0:0:0:0:
256,192,94333,1,0,0:0:0:0:
36,192,94504,1,0,0:0:0:0:
329,192,94676,1,0,0:0:0:0:
109,192,94847,1,0,0:0:0:0:
475,192,95019,1,0,0:0:0:0:
329,192,95190,1,0,0:0:0:0:
109,192,95361,1,0,0:0:0:0:
402,192,95533,1,0,0:0:0:0:
182,192,95704,1,0,0:0:0:0:
329,192,95876,1,0,0:0:0:0:
329,192,96047,1,0,0:0:0:0:
329,192,96219,1,0,0:0:0:0:
109,192,96561,1,0,0:0:0:0:
109,192,96733,1,0,0:0:0:0:
109,192,96904,1,0,0:0:0:0:
475,192,97247,1,0,0:0:0:0:
109,192,97419,1,0,0:0:0:0:
182,192,97590,1,0,0:0:0:0:
256,192,97761,1,0,0:0:0:0:
402,192,97933,1,0,0:0:0:0:
329,192,98104,1,0,0:0:0:0:
109,192,98276,1,0,0:0:0:0:
182,192,98447,1,0,0:0:0:0:
402,192,98619,1,0,0:0:0:0:
182,192,98790,1,0,0:0:0:0:
402,192,98961,1,0,0:0:0:0:
182,192,99133,1,0,0:0:0:0:
329,192,99304,1,0,0:0:0:0:
109,192,99476,1,0,0:0:0:0:
329,192,99647,1,0,0:0:0:0:
109,192,99819,1,0,0:0:0:0:
256,192,99990,128,0,101361:0:0:0:0:
402,192,100676,128,0,101361:0:0:0:0:
109,192,101361,1,0,0:0:0:0:
402,192,101876,1,0,0:0:0:0:
109,192,102390,1,0,0:0:0:0:
256,192,102733,1,0,0:0:0:0:
475,192,102733,1,0,0:0:0:0:
402,192,103761,1,0,0:0:0:0:
109,192,103761,1,0,0:0:0:0:
475,192,104104,1,0,0:0:0:0:
256,192,104104,1,0,0:0:0:0:
109,192,105133,1,0,0:0:0:0:
402,192,105133,1,0,0:0:0:0:
256,192,105476,1,0,0:0:0:0:
475,192,105476,1,0,0:0:0:0:
109,192,106161,1,0,0:0:0:0:
329,192,106161,1,0,0:0:0:0:
256,192,106847,1,0,0:0:0:0:
402,192,106847,1,0,0:0:0:0:
182,192,107190,1,0,0:0:0:0:
36,192,107190,1,0,0:0:0:0:
256,192,107533,1,0,0:0:0:0:
109,192,107533,1,0,0:0:0:0:
182,192,107876,1,0,0:0:0:0:
402,192,107876,1,0,0:0:0:0:
256,192,108219,1,0,0:0:0:0:
475,192,108219,1,0,0:0:0:0:
109,192,109247,1,0,0:0:0:0:
402,192,109247,1,0,0:0:0:0:
475,192,109590,1,0,0:0:0:0:
256,192,109590,1,0,0:0:0:0:
402,192,110619,1,0,0:0:0:0:
109,192,110619,1,0,0:0:0:0:
475,192,110961,1,0,0:0:0:0:
256,192,110961,1,0,0:0:0:0:
109,192,111647,1,0,0:0:0:0:
329,192,111647,128,0,112290:0:0:0:0:
475,192,113704,1,0,0:0:0:0:
109,192,113704,1,0,0:0:0:0:
