osu file format v13

[General]
AudioFilename: Sakuzyo - Imprinting.mp3
AudioLeadIn: 0
PreviewTime: 79419
Countdown: 0
SampleSet: Soft
StackLeniency: 0.7
Mode: 3
LetterboxInBreaks: 0
SpecialStyle: 0
WidescreenStoryboard: 1

[Editor]
DistanceSpacing: 0.6
BeatDivisor: 8
GridSize: 8
TimelineZoom: 1

[Metadata]
Title:Imprinting
TitleUnicode:Imprinting
Artist:Sakuzyo
ArtistUnicode:削除
Creator:asd123iii
Version:Hard
Source:
Tags:fairythm C87
BeatmapID:585177
BeatmapSetID:255239

[Difficulty]
HPDrainRate:8
CircleSize:7
OverallDifficulty:8
ApproachRate:5
SliderMultiplier:1.4
SliderTickRate:1

[Events]
//Background and Video events
//Break Periods
//Storyboard Layer 0 (Background)
//Storyboard Layer 1 (Fail)
//Storyboard Layer 2 (Pass)
//Storyboard Layer 3 (Foreground)
//Storyboard Sound Samples

[TimingPoints]
2619,342.857142857143,4,2,1,0,1,0

[HitObjects]
329,192,2618,5,0,0:0:0:0:
256,192,2618,1,0,0:0:0:0:
475,192,2618,1,0,0:0:0:0:
182,192,2790,1,0,0:0:0:0:
329,192,2961,1,0,0:0:0:0:
475,192,3133,1,0,0:0:0:0:
329,192,3304,1,0,0:0:0:0:
182,192,3476,1,0,0:0:0:0:
109,192,3647,1,0,0:0:0:0:
402,192,3647,1,0,0:0:0:0:
36,192,3733,1,0,0:0:0:0:
109,192,3819,1,0,0:0:0:0:
182,192,3904,1,0,0:0:0:0:
329,192,3990,1,0,0:0:0:0:
256,192,3990,1,0,0:0:0:0:
475,192,3990,1,0,0:0:0:0:
182,192,4161,1,0,0:0:0:0:
329,192,4333,1,0,0:0:0:0:
475,192,4504,1,0,0:0:0:0:
329,192,4676,1,0,0:0:0:0:
182,192,4847,1,0,0:0:0:0:
402,192,5019,1,0,0:0:0:0:
109,192,5019,1,0,0:0:0:0:
36,192,5104,1,0,0:0:0:0:
109,192,5190,1,0,0:0:0:0:
182,192,5276,1,0,0:0:0:0:
329,192,5361,1,0,0:0:0:0:
256,192,5361,1,0,0:0:0:0:
475,192,5361,1,0,0:0:0:0:
182,192,5533,1,0,0:0:0:0:
329,192,5704,1,0,0:0:0:0:
475,192,5876,1,0,0:0:0:0:
109,192,6047,1,0,0:0:0:0:
329,192,6047,1,0,0:0:0:0:
256,192,6219,1,0,0:0:0:0:
402,192,6390,1,0,0:0:0:0:
182,192,6561,1,0,0:0:0:0:
109,192,6733,1,0,0:0:0:0:
182,192,6819,1,0,0:0:0:0:
256,192,6904,1,0,0:0:0:0:
329,192,6990,1,0,0:0:0:0:
475,192,7076,1,0,0:0:0:0:
402,192,7161,1,0,0:0:0:0:
329,192,7247,1,0,0:0:0:0:
256,192,7333,1,0,0:0:0:0:
36,192,7419,1,0,0:0:0:0:
109,192,7504,1,0,0:0:0:0:
182,192,7590,1,0,0:0:0:0:
256,192,7676,1,0,0:0:0:0:
402,192,7761,1,0,0:0:0:0:
329,192,7847,1,0,0:0:0:0:
256,192,7933,1,0,0:0:0:0:
182,192,8019,1,0,0:0:0:0:
329,192,8104,1,0,0:0:0:0:
475,192,8104,1,0,0:0:0:0:
182,192,8276,1,0,0:0:0:0:
329,192,8447,1,0,0:0:0:0:
475,192,8619,1,0,0:0:0:0:
329,192,8790,1,0,0:0:0:0:
182,192,8961,1,0,0:0:0:0:
109,192,9133,1,0,0:0:0:0:
402,192,9133,1,0,0:0:0:0:
36,192,9219,1,0,0:0:0:0:
109,192,9304,1,0,0:0:0:0:
182,192,9390,1,0,0:0:0:0:
329,192,9476,1,0,0:0:0:0:
256,192,9476,1,0,0:0:0:0:
475,192,9476,1,0,0:0:0:0:
182,192,9647,1,0,0:0:0:0:
329,192,9819,1,0,0:0:0:0:
475,192,9990,1,0,0:0:0:0:
329,192,10161,1,0,0:0:0:0:
182,192,10333,1,0,0:0:0:0:
109,192,10504,1,0,0:0:0:0:
402,192,10504,1,0,0:0:0:0:
36,192,10590,1,0,0:0:0:0:
109,192,10676,1,0,0:0:0:0:
182,192,10761,1,0,0:0:0:0:
329,192,10847,1,0,0:0:0:0:
256,192,10847,1,0,0:0:0:0:
475,192,10847,1,0,0:0:0:0:
182,192,11019,1,0,0:0:0:0:
329,192,11190,1,0,0:0:0:0:
475,192,11361,1,0,0:0:0:0:
182,192,11533,1,0,0:0:0:0:
36,192,11533,1,0,0:0:0:0:
402,192,11704,1,0,0:0:0:0:
256,192,11876,1,0,0:0:0:0:
109,192,12047,1,0,0:0:0:0:
475,192,12219,1,0,0:0:0:0:
402,192,12304,1,0,0:0:0:0:
329,192,12390,1,0,0:0:0:0:
402,192,12476,1,0,0:0:0:0:
329,192,12561,1,0,0:0:0:0:
256,192,12647,1,0,0:0:0:0:
329,192,12733,1,0,0:0:0:0:
256,192,12819,1,0,0:0:0:0:
182,192,12904,1,0,0:0:0:0:
256,192,12990,1,0,0:0:0:0:
182,192,13076,1,0,0:0:0:0:
109,192,13161,1,0,0:0:0:0:
182,192,13247,1,0,0:0:0:0:
36,192,13333,1,0,0:0:0:0:
109,192,13419,1,0,0:0:0:0:
182,192,13504,1,0,0:0:0:0:
329,192,13590,1,0,0:0:0:0:
475,192,13590,1,0,0:0:0:0:
109,192,13761,1,0,0:0:0:0:
329,192,13933,1,0,0:0:0:0:
475,192,13933,1,0,0:0:0:0:
109,192,14104,1,0,0:0:0:0:
329,192,14276,1,0,0:0:0:0:
475,192,14276,1,0,0:0:0:0:
109,192,14447,1,0,0:0:0:0:
256,192,14619,1,0,0:0:0:0:
402,192,14619,1,0,0:0:0:0:
402,192,14790,1,0,0:0:0:0:
36,192,14961,1,0,0:0:0:0:
182,192,14961,1,0,0:0:0:0:
402,192,15133,1,0,0:0:0:0:
36,192,15304,1,0,0:0:0:0:
182,192,15304,1,0,0:0:0:0:
402,192,15476,1,0,0:0:0:0:
36,192,15647,1,0,0:0:0:0:
182,192,15647,1,0,0:0:0:0:
402,192,15819,1,0,0:0:0:0:
109,192,15990,1,0,0:0:0:0:
256,192,15990,1,0,0:0:0:0:
109,192,16161,1,0,0:0:0:0:
329,192,16333,1,0,0:0:0:0:
402,192,16333,1,0,0:0:0:0:
182,192,16504,1,0,0:0:0:0:
329,192,16676,1,0,0:0:0:0:
402,192,16676,1,0,0:0:0:0:
182,192,16847,1,0,0:0:0:0:
329,192,17019,1,0,0:0:0:0:
402,192,17019,1,0,0:0:0:0:
182,192,17190,1,0,0:0:0:0:
402,192,17361,1,0,0:0:0:0:
256,192,17361,1,0,0:0:0:0:
256,192,17533,1,0,0:0:0:0:
109,192,17704,1,0,0:0:0:0:
182,192,17704,1,0,0:0:0:0:
329,192,17876,1,0,0:0:0:0:
109,192,18047,1,0,0:0:0:0:
182,192,18047,1,0,0:0:0:0:
329,192,18219,1,0,0:0:0:0:
109,192,18390,1,0,0:0:0:0:
182,192,18390,1,0,0:0:0:0:
329,192,18561,1,0,0:0:0:0:
109,192,18733,1,0,0:0:0:0:
182,192,18733,1,0,0:0:0:0:
475,192,18904,1,0,0:0:0:0:
329,192,18990,1,0,0:0:0:0:
182,192,19076,1,0,0:0:0:0:
36,192,19076,1,0,0:0:0:0:
329,192,19247,1,0,0:0:0:0:
256,192,19333,1,0,0:0:0:0:
182,192,19419,1,0,0:0:0:0:
109,192,19504,1,0,0:0:0:0:
475,192,19590,1,0,0:0:0:0:
402,192,19676,1,0,0:0:0:0:
329,192,19761,1,0,0:0:0:0:
329,192,19933,1,0,0:0:0:0:
329,192,20104,1,0,0:0:0:0:
36,192,20104,1,0,0:0:0:0:
475,192,20104,1,0,0:0:0:0:
109,192,20190,1,0,0:0:0:0:
182,192,20276,1,0,0:0:0:0:
256,192,20361,1,0,0:0:0:0:
329,192,20447,1,0,0:0:0:0:
109,192,20447,1,0,0:0:0:0:
475,192,20619,1,0,0:0:0:0:
329,192,20704,1,0,0:0:0:0:
182,192,20790,1,0,0:0:0:0:
402,192,20876,1,0,0:0:0:0:
256,192,20961,1,0,0:0:0:0:
109,192,21047,1,0,0:0:0:0:
36,192,21133,1,0,0:0:0:0:
329,192,21304,1,0,0:0:0:0:
182,192,21476,1,0,0:0:0:0:
402,192,21476,1,0,0:0:0:0:
109,192,21819,1,0,0:0:0:0:
182,192,21819,1,0,0:0:0:0:
329,192,21819,1,0,0:0:0:0:
402,192,22161,1,0,0:0:0:0:
256,192,22161,1,0,0:0:0:0:
329,192,22504,1,0,0:0:0:0:
36,192,22504,1,0,0:0:0:0:
182,192,22504,1,0,0:0:0:0:
182,192,22847,1,0,0:0:0:0:
329,192,22847,1,0,0:0:0:0:
475,192,22847,1,0,0:0:0:0:
109,192,23190,1,0,0:0:0:0:
256,192,23190,1,0,0:0:0:0:
402,192,23190,1,0,0:0:0:0:
36,192,23533,128,0,24561:0:0:0:0:
329,192,24561,5,0,0:0:0:0:
256,192,24561,1,0,0:0:0:0:
475,192,24561,1,0,0:0:0:0:
182,192,24733,1,0,0:0:0:0:
329,192,24904,1,0,0:0:0:0:
475,192,25076,1,0,0:0:0:0:
329,192,25247,1,0,0:0:0:0:
182,192,25419,1,0,0:0:0:0:
402,192,25590,1,0,0:0:0:0:
109,192,25590,1,0,0:0:0:0:
36,192,25676,1,0,0:0:0:0:
109,192,25761,1,0,0:0:0:0:
182,192,25847,1,0,0:0:0:0:
329,192,25933,5,0,0:0:0:0:
475,192,25933,1,0,0:0:0:0:
256,192,25933,1,0,0:0:0:0:
182,192,26104,1,0,0:0:0:0:
329,192,26276,1,0,0:0:0:0:
475,192,26447,1,0,0:0:0:0:
329,192,26619,1,0,0:0:0:0:
182,192,26790,1,0,0:0:0:0:
109,192,26961,1,0,0:0:0:0:
402,192,26961,1,0,0:0:0:0:
36,192,27047,1,0,0:0:0:0:
109,192,27133,1,0,0:0:0:0:
182,192,27219,1,0,0:0:0:0:
329,192,27304,1,0,0:0:0:0:
475,192,27304,1,0,0:0:0:0:
256,192,27304,1,0,0:0:0:0:
182,192,27476,1,0,0:0:0:0:
329,192,27647,1,0,0:0:0:0:
475,192,27819,1,0,0:0:0:0:
329,192,27990,1,0,0:0:0:0:
109,192,27990,1,0,0:0:0:0:
256,192,28161,1,0,0:0:0:0:
402,192,28333,1,0,0:0:0:0:
182,192,28504,1,0,0:0:0:0:
109,192,28676,1,0,0:0:0:0:
182,192,28761,1,0,0:0:0:0:
256,192,28847,1,0,0:0:0:0:
329,192,28933,1,0,0:0:0:0:
475,192,29019,1,0,0:0:0:0:
402,192,29104,1,0,0:0:0:0:
329,192,29190,1,0,0:0:0:0:
256,192,29276,1,0,0:0:0:0:
36,192,29361,1,0,0:0:0:0:
109,192,29447,1,0,0:0:0:0:
182,192,29533,1,0,0:0:0:0:
256,192,29619,1,0,0:0:0:0:
402,192,29704,1,0,0:0:0:0:
329,192,29790,1,0,0:0:0:0:
256,192,29876,1,0,0:0:0:0:
182,192,29961,1,0,0:0:0:0:
329,192,30047,1,0,0:0:0:0:
475,192,30047,1,0,0:0:0:0:
182,192,30219,1,0,0:0:0:0:
329,192,30390,1,0,0:0:0:0:
475,192,30561,1,0,0:0:0:0:
329,192,30733,1,0,0:0:0:0:
182,192,30904,1,0,0:0:0:0:
109,192,31076,1,0,0:0:0:0:
402,192,31076,1,0,0:0:0:0:
36,192,31161,1,0,0:0:0:0:
109,192,31247,1,0,0:0:0:0:
182,192,31333,1,0,0:0:0:0:
475,192,31419,1,0,0:0:0:0:
329,192,31419,1,0,0:0:0:0:
256,192,31419,1,0,0:0:0:0:
182,192,31590,1,0,0:0:0:0:
329,192,31761,1,0,0:0:0:0:
475,192,31933,1,0,0:0:0:0:
329,192,32104,1,0,0:0:0:0:
182,192,32276,1,0,0:0:0:0:
402,192,32447,1,0,0:0:0:0:
109,192,32447,1,0,0:0:0:0:
36,192,32533,1,0,0:0:0:0:
109,192,32619,1,0,0:0:0:0:
182,192,32704,1,0,0:0:0:0:
256,192,32790,1,0,0:0:0:0:
329,192,32790,1,0,0:0:0:0:
475,192,32790,1,0,0:0:0:0:
182,192,32961,1,0,0:0:0:0:
329,192,33133,1,0,0:0:0:0:
475,192,33304,1,0,0:0:0:0:
329,192,33476,1,0,0:0:0:0:
109,192,33476,1,0,0:0:0:0:
256,192,33647,1,0,0:0:0:0:
402,192,33819,1,0,0:0:0:0:
182,192,33990,1,0,0:0:0:0:
475,192,34161,1,0,0:0:0:0:
402,192,34247,1,0,0:0:0:0:
329,192,34333,1,0,0:0:0:0:
256,192,34419,1,0,0:0:0:0:
329,192,34504,1,0,0:0:0:0:
256,192,34590,1,0,0:0:0:0:
182,192,34676,1,0,0:0:0:0:
109,192,34761,1,0,0:0:0:0:
182,192,34847,1,0,0:0:0:0:
109,192,34933,1,0,0:0:0:0:
36,192,35019,1,0,0:0:0:0:
256,192,35190,128,0,35361:0:0:0:0:
36,192,35533,1,0,0:0:0:0:
109,192,35533,1,0,0:0:0:0:
329,192,35704,1,0,0:0:0:0:
36,192,35876,1,0,0:0:0:0:
109,192,35876,1,0,0:0:0:0:
329,192,36047,1,0,0:0:0:0:
109,192,36219,1,0,0:0:0:0:
182,192,36219,1,0,0:0:0:0:
402,192,36390,1,0,0:0:0:0:
109,192,36561,1,0,0:0:0:0:
182,192,36561,1,0,0:0:0:0:
402,192,36733,1,0,0:0:0:0:
182,192,36904,1,0,0:0:0:0:
256,192,36904,1,0,0:0:0:0:
475,192,37076,1,0,0:0:0:0:
182,192,37247,1,0,0:0:0:0:
256,192,37247,1,0,0:0:0:0:
475,192,37419,1,0,0:0:0:0:
256,192,37590,1,0,0:0:0:0:
329,192,37590,1,0,0:0:0:0:
36,192,37761,1,0,0:0:0:0:
256,192,37933,1,0,0:0:0:0:
329,192,37933,1,0,0:0:0:0:
36,192,38104,1,0,0:0:0:0:
402,192,38276,1,0,0:0:0:0:
329,192,38276,1,0,0:0:0:0:
109,192,38447,1,0,0:0:0:0:
329,192,38619,1,0,0:0:0:0:
402,192,38619,1,0,0:0:0:0:
109,192,38790,1,0,0:0:0:0:
402,192,38961,1,0,0:0:0:0:
475,192,38961,1,0,0:0:0:0:
182,192,39133,1,0,0:0:0:0:
402,192,39304,1,0,0:0:0:0:
475,192,39304,1,0,0:0:0:0:
182,192,39476,1,0,0:0:0:0:
329,192,39647,1,0,0:0:0:0:
329,192,39819,1,0,0:0:0:0:
109,192,39990,1,0,0:0:0:0:
182,192,39990,1,0,0:0:0:0:
329,192,40161,1,0,0:0:0:0:
182,192,40333,1,0,0:0:0:0:
182,192,40504,1,0,0:0:0:0:
402,192,40676,1,0,0:0:0:0:
329,192,40676,1,0,0:0:0:0:
182,192,40847,1,0,0:0:0:0:
256,192,41019,1,0,0:0:0:0:
402,192,41019,1,0,0:0:0:0:
329,192,41190,1,0,0:0:0:0:
256,192,41276,1,0,0:0:0:0:
182,192,41361,1,0,0:0:0:0:
109,192,41447,1,0,0:0:0:0:
475,192,41533,1,0,0:0:0:0:
402,192,41619,1,0,0:0:0:0:
329,192,41704,1,0,0:0:0:0:
329,192,41876,1,0,0:0:0:0:
329,192,42047,1,0,0:0:0:0:
36,192,42047,1,0,0:0:0:0:
109,192,42133,1,0,0:0:0:0:
182,192,42219,1,0,0:0:0:0:
256,192,42304,1,0,0:0:0:0:
402,192,42390,1,0,0:0:0:0:
402,192,42561,1,0,0:0:0:0:
329,192,42647,1,0,0:0:0:0:
256,192,42733,1,0,0:0:0:0:
182,192,42819,1,0,0:0:0:0:
256,192,42904,1,0,0:0:0:0:
182,192,42990,1,0,0:0:0:0:
109,192,43076,1,0,0:0:0:0:
402,192,43247,1,0,0:0:0:0:
402,192,43419,1,0,0:0:0:0:
256,192,43419,1,0,0:0:0:0:
329,192,43761,1,0,0:0:0:0:
109,192,43761,1,0,0:0:0:0:
182,192,43761,1,0,0:0:0:0:
402,192,44104,1,0,0:0:0:0:
329,192,44104,1,0,0:0:0:0:
36,192,44447,1,0,0:0:0:0:
256,192,44447,1,0,0:0:0:0:
109,192,44447,1,0,0:0:0:0:
182,192,44790,1,0,0:0:0:0:
329,192,44790,1,0,0:0:0:0:
475,192,45133,1,0,0:0:0:0:
402,192,45133,1,0,0:0:0:0:
256,192,45133,1,0,0:0:0:0:
182,192,45476,1,0,0:0:0:0:
182,192,45819,1,0,0:0:0:0:
402,192,46076,1,0,0:0:0:0:
256,192,46333,1,0,0:0:0:0:
182,192,46504,1,0,0:0:0:0:
402,192,46504,1,0,0:0:0:0:
36,192,46676,1,0,0:0:0:0:
329,192,46847,1,0,0:0:0:0:
109,192,46847,1,0,0:0:0:0:
402,192,47019,1,0,0:0:0:0:
475,192,47190,1,0,0:0:0:0:
256,192,47190,1,0,0:0:0:0:
182,192,47533,1,0,0:0:0:0:
109,192,47704,1,0,0:0:0:0:
36,192,47876,1,0,0:0:0:0:
329,192,47876,1,0,0:0:0:0:
109,192,48047,1,0,0:0:0:0:
182,192,48219,1,0,0:0:0:0:
402,192,48219,1,0,0:0:0:0:
256,192,48390,1,0,0:0:0:0:
109,192,48561,1,0,0:0:0:0:
329,192,48561,1,0,0:0:0:0:
182,192,48733,1,0,0:0:0:0:
475,192,48904,1,0,0:0:0:0:
256,192,48904,1,0,0:0:0:0:
329,192,49076,1,0,0:0:0:0:
182,192,49247,1,0,0:0:0:0:
402,192,49247,1,0,0:0:0:0:
109,192,49419,1,0,0:0:0:0:
36,192,49590,1,0,0:0:0:0:
256,192,49590,1,0,0:0:0:0:
109,192,49761,1,0,0:0:0:0:
402,192,49933,1,0,0:0:0:0:
256,192,49933,1,0,0:0:0:0:
182,192,50276,1,0,0:0:0:0:
329,192,50276,1,0,0:0:0:0:
256,192,50447,1,0,0:0:0:0:
475,192,50619,1,0,0:0:0:0:
109,192,50619,1,0,0:0:0:0:
402,192,50790,1,0,0:0:0:0:
329,192,50961,1,0,0:0:0:0:
36,192,50961,1,0,0:0:0:0:
256,192,51133,1,0,0:0:0:0:
182,192,51304,1,0,0:0:0:0:
329,192,51304,1,0,0:0:0:0:
182,192,51647,1,0,0:0:0:0:
256,192,51990,1,0,0:0:0:0:
402,192,51990,1,0,0:0:0:0:
182,192,52161,1,0,0:0:0:0:
109,192,52333,1,0,0:0:0:0:
475,192,52333,1,0,0:0:0:0:
36,192,52504,1,0,0:0:0:0:
329,192,52676,1,0,0:0:0:0:
182,192,52676,1,0,0:0:0:0:
329,192,53019,1,0,0:0:0:0:
182,192,53190,1,0,0:0:0:0:
109,192,53361,1,0,0:0:0:0:
329,192,53361,1,0,0:0:0:0:
182,192,53533,1,0,0:0:0:0:
475,192,53704,1,0,0:0:0:0:
256,192,53704,1,0,0:0:0:0:
329,192,53876,1,0,0:0:0:0:
36,192,54047,1,0,0:0:0:0:
402,192,54047,1,0,0:0:0:0:
109,192,54219,1,0,0:0:0:0:
182,192,54390,1,0,0:0:0:0:
329,192,54390,1,0,0:0:0:0:
256,192,54561,1,0,0:0:0:0:
329,192,54733,1,0,0:0:0:0:
475,192,54733,1,0,0:0:0:0:
182,192,54904,1,0,0:0:0:0:
109,192,54990,1,0,0:0:0:0:
36,192,55076,1,0,0:0:0:0:
329,192,55161,1,0,0:0:0:0:
256,192,55247,1,0,0:0:0:0:
182,192,55333,1,0,0:0:0:0:
109,192,55419,1,0,0:0:0:0:
329,192,55590,1,0,0:0:0:0:
475,192,55590,1,0,0:0:0:0:
329,192,55761,1,0,0:0:0:0:
475,192,55761,1,0,0:0:0:0:
329,192,55933,1,0,0:0:0:0:
475,192,55933,1,0,0:0:0:0:
329,192,56104,1,0,0:0:0:0:
109,192,56104,1,0,0:0:0:0:
475,192,56104,1,0,0:0:0:0:
256,192,56276,1,0,0:0:0:0:
182,192,56361,1,0,0:0:0:0:
109,192,56447,1,0,0:0:0:0:
475,192,56533,1,0,0:0:0:0:
402,192,56619,1,0,0:0:0:0:
329,192,56704,1,0,0:0:0:0:
256,192,56790,1,0,0:0:0:0:
36,192,56961,1,0,0:0:0:0:
182,192,56961,1,0,0:0:0:0:
36,192,57133,1,0,0:0:0:0:
182,192,57133,1,0,0:0:0:0:
36,192,57304,1,0,0:0:0:0:
182,192,57304,1,0,0:0:0:0:
475,192,57476,1,0,0:0:0:0:
182,192,57819,1,0,0:0:0:0:
329,192,58076,1,0,0:0:0:0:
182,192,58161,1,0,0:0:0:0:
109,192,58333,1,0,0:0:0:0:
256,192,58504,1,0,0:0:0:0:
329,192,58676,1,0,0:0:0:0:
475,192,58847,1,0,0:0:0:0:
182,192,59190,1,0,0:0:0:0:
475,192,59533,1,0,0:0:0:0:
256,192,59876,1,0,0:0:0:0:
109,192,60219,128,0,60904:0:0:0:0:
256,192,60219,1,0,0:0:0:0:
329,192,60904,128,0,61333:0:0:0:0:
182,192,61333,1,0,0:0:0:0:
36,192,61461,1,0,0:0:0:0:
182,192,61590,128,0,62276:0:0:0:0:
475,192,62276,128,0,62619:0:0:0:0:
329,192,62704,1,0,0:0:0:0:
256,192,62833,1,0,0:0:0:0:
182,192,62961,128,0,63647:0:0:0:0:
329,192,63219,1,0,0:0:0:0:
475,192,63304,1,0,0:0:0:0:
402,192,63561,1,0,0:0:0:0:
36,192,63647,128,0,64333:0:0:0:0:
256,192,63647,1,0,0:0:0:0:
329,192,63904,1,0,0:0:0:0:
475,192,63990,1,0,0:0:0:0:
182,192,64333,128,0,65019:0:0:0:0:
402,192,64333,1,0,0:0:0:0:
475,192,64590,1,0,0:0:0:0:
329,192,64676,1,0,0:0:0:0:
402,192,65019,128,0,65704:0:0:0:0:
109,192,65019,1,0,0:0:0:0:
182,192,65704,1,0,0:0:0:0:
109,192,65704,128,0,66390:0:0:0:0:
329,192,66390,128,0,66819:0:0:0:0:
182,192,66819,1,0,0:0:0:0:
36,192,66947,1,0,0:0:0:0:
182,192,67076,128,0,67761:0:0:0:0:
475,192,67761,128,0,68104:0:0:0:0:
329,192,68190,1,0,0:0:0:0:
256,192,68319,1,0,0:0:0:0:
182,192,68447,128,0,69133:0:0:0:0:
402,192,68704,1,0,0:0:0:0:
329,192,68790,1,0,0:0:0:0:
402,192,69047,1,0,0:0:0:0:
475,192,69133,1,0,0:0:0:0:
109,192,69304,128,0,69819:0:0:0:0:
329,192,69390,1,0,0:0:0:0:
256,192,69476,1,0,0:0:0:0:
329,192,69819,128,0,70504:0:0:0:0:
36,192,69819,1,0,0:0:0:0:
475,192,70504,128,0,71190:0:0:0:0:
182,192,71190,128,0,71876:0:0:0:0:
256,192,71190,1,0,0:0:0:0:
402,192,71876,128,0,72219:0:0:0:0:
256,192,72304,1,0,0:0:0:0:
109,192,72433,1,0,0:0:0:0:
256,192,72561,128,0,73247:0:0:0:0:
402,192,73247,128,0,73590:0:0:0:0:
329,192,73676,1,0,0:0:0:0:
182,192,73804,1,0,0:0:0:0:
36,192,73933,128,0,74619:0:0:0:0:
329,192,74190,1,0,0:0:0:0:
402,192,74276,1,0,0:0:0:0:
256,192,74533,1,0,0:0:0:0:
182,192,74619,128,0,75304:0:0:0:0:
329,192,74619,1,0,0:0:0:0:
402,192,74876,1,0,0:0:0:0:
475,192,74961,1,0,0:0:0:0:
256,192,75304,128,0,75990:0:0:0:0:
36,192,75304,1,0,0:0:0:0:
402,192,75990,128,0,76676:0:0:0:0:
182,192,76676,128,0,78047:0:0:0:0:
36,192,78047,1,0,0:0:0:0:
475,192,78390,1,0,0:0:0:0:
329,192,78733,1,0,0:0:0:0:
109,192,78904,1,0,0:0:0:0:
182,192,79076,1,0,0:0:0:0:
256,192,79247,1,0,0:0:0:0:
329,192,79419,1,0,0:0:0:0:
402,192,79419,1,0,0:0:0:0:
329,192,79590,1,0,0:0:0:0:
402,192,79590,1,0,0:0:0:0:
329,192,79761,1,0,0:0:0:0:
402,192,79761,1,0,0:0:0:0:
182,192,79933,1,0,0:0:0:0:
329,192,80019,1,0,0:0:0:0:
109,192,80104,1,0,0:0:0:0:
36,192,80104,1,0,0:0:0:0:
36,192,80276,1,0,0:0:0:0:
109,192,80276,1,0,0:0:0:0:
36,192,80447,1,0,0:0:0:0:
109,192,80447,1,0,0:0:0:0:
256,192,80619,1,0,0:0:0:0:
182,192,80704,1,0,0:0:0:0:
475,192,80790,1,0,0:0:0:0:
329,192,80790,1,0,0:0:0:0:
329,192,80961,1,0,0:0:0:0:
475,192,80961,1,0,0:0:0:0:
402,192,81133,1,0,0:0:0:0:
256,192,81133,1,0,0:0:0:0:
182,192,81304,1,0,0:0:0:0:
329,192,81304,1,0,0:0:0:0:
36,192,81476,1,0,0:0:0:0:
109,192,81647,1,0,0:0:0:0:
182,192,81819,1,0,0:0:0:0:
329,192,81990,1,0,0:0:0:0:
256,192,82161,1,0,0:0:0:0:
182,192,82247,1,0,0:0:0:0:
109,192,82333,1,0,0:0:0:0:
36,192,82419,1,0,0:0:0:0:
329,192,82504,1,0,0:0:0:0:
256,192,82590,1,0,0:0:0:0:
182,192,82676,1,0,0:0:0:0:
109,192,82761,1,0,0:0:0:0:
402,192,82847,1,0,0:0:0:0:
329,192,82933,1,0,0:0:0:0:
256,192,83019,1,0,0:0:0:0:
182,192,83104,1,0,0:0:0:0:
475,192,83190,1,0,0:0:0:0:
402,192,83276,1,0,0:0:0:0:
329,192,83361,1,0,0:0:0:0:
256,192,83447,1,0,0:0:0:0:
36,192,83533,1,0,0:0:0:0:
109,192,83619,1,0,0:0:0:0:
182,192,83704,1,0,0:0:0:0:
256,192,83790,1,0,0:0:0:0:
182,192,83876,1,0,0:0:0:0:
256,192,83961,1,0,0:0:0:0:
329,192,84047,1,0,0:0:0:0:
402,192,84133,1,0,0:0:0:0:
182,192,84219,1,0,0:0:0:0:
36,192,84390,1,0,0:0:0:0:
256,192,84561,1,0,0:0:0:0:
109,192,84733,1,0,0:0:0:0:
402,192,84904,1,0,0:0:0:0:
475,192,84904,1,0,0:0:0:0:
256,192,84904,1,0,0:0:0:0:
402,192,85076,1,0,0:0:0:0:
475,192,85076,1,0,0:0:0:0:
402,192,85247,1,0,0:0:0:0:
475,192,85247,1,0,0:0:0:0:
256,192,85419,1,0,0:0:0:0:
402,192,85504,1,0,0:0:0:0:
182,192,85590,1,0,0:0:0:0:
109,192,85590,1,0,0:0:0:0:
109,192,85761,1,0,0:0:0:0:
182,192,85761,1,0,0:0:0:0:
109,192,85933,1,0,0:0:0:0:
182,192,85933,1,0,0:0:0:0:
256,192,86104,1,0,0:0:0:0:
329,192,86190,1,0,0:0:0:0:
475,192,86276,1,0,0:0:0:0:
109,192,86447,1,0,0:0:0:0:
182,192,86619,1,0,0:0:0:0:
256,192,86790,1,0,0:0:0:0:
109,192,86961,1,0,0:0:0:0:
402,192,86961,1,0,0:0:0:0:
329,192,87133,1,0,0:0:0:0:
256,192,87304,1,0,0:0:0:0:
182,192,87476,1,0,0:0:0:0:
256,192,87647,1,0,0:0:0:0:
329,192,87733,1,0,0:0:0:0:
402,192,87819,1,0,0:0:0:0:
475,192,87904,1,0,0:0:0:0:
182,192,87990,1,0,0:0:0:0:
256,192,88076,1,0,0:0:0:0:
329,192,88161,1,0,0:0:0:0:
402,192,88247,1,0,0:0:0:0:
109,192,88333,1,0,0:0:0:0:
182,192,88419,1,0,0:0:0:0:
256,192,88504,1,0,0:0:0:0:
329,192,88590,1,0,0:0:0:0:
36,192,88676,1,0,0:0:0:0:
109,192,88761,1,0,0:0:0:0:
182,192,88847,1,0,0:0:0:0:
256,192,88933,1,0,0:0:0:0:
329,192,89019,1,0,0:0:0:0:
475,192,89019,1,0,0:0:0:0:
109,192,89190,1,0,0:0:0:0:
256,192,89361,1,0,0:0:0:0:
402,192,89533,1,0,0:0:0:0:
109,192,89704,128,0,89790:0:0:0:0:
256,192,89876,128,0,89961:0:0:0:0:
36,192,90047,128,0,90133:0:0:0:0:
182,192,90219,128,0,90304:0:0:0:0:
329,192,90390,1,0,0:0:0:0:
402,192,90390,1,0,0:0:0:0:
329,192,90561,1,0,0:0:0:0:
402,192,90561,1,0,0:0:0:0:
402,192,90733,1,0,0:0:0:0:
329,192,90733,1,0,0:0:0:0:
182,192,90904,1,0,0:0:0:0:
329,192,90990,1,0,0:0:0:0:
36,192,91076,1,0,0:0:0:0:
109,192,91076,1,0,0:0:0:0:
109,192,91247,1,0,0:0:0:0:
36,192,91247,1,0,0:0:0:0:
109,192,91419,1,0,0:0:0:0:
36,192,91419,1,0,0:0:0:0:
256,192,91590,1,0,0:0:0:0:
182,192,91676,1,0,0:0:0:0:
329,192,91761,1,0,0:0:0:0:
475,192,91761,1,0,0:0:0:0:
329,192,91933,1,0,0:0:0:0:
475,192,91933,1,0,0:0:0:0:
402,192,92104,1,0,0:0:0:0:
256,192,92104,1,0,0:0:0:0:
329,192,92276,1,0,0:0:0:0:
182,192,92276,1,0,0:0:0:0:
36,192,92447,1,0,0:0:0:0:
109,192,92619,1,0,0:0:0:0:
182,192,92790,1,0,0:0:0:0:
329,192,92961,1,0,0:0:0:0:
256,192,93133,1,0,0:0:0:0:
182,192,93219,1,0,0:0:0:0:
109,192,93304,1,0,0:0:0:0:
36,192,93390,1,0,0:0:0:0:
329,192,93476,1,0,0:0:0:0:
256,192,93561,1,0,0:0:0:0:
182,192,93647,1,0,0:0:0:0:
109,192,93733,1,0,0:0:0:0:
402,192,93819,1,0,0:0:0:0:
329,192,93904,1,0,0:0:0:0:
256,192,93990,1,0,0:0:0:0:
182,192,94076,1,0,0:0:0:0:
475,192,94161,1,0,0:0:0:0:
402,192,94247,1,0,0:0:0:0:
329,192,94333,1,0,0:0:0:0:
256,192,94419,1,0,0:0:0:0:
36,192,94504,1,0,0:0:0:0:
109,192,94590,1,0,0:0:0:0:
182,192,94676,1,0,0:0:0:0:
256,192,94761,1,0,0:0:0:0:
182,192,94847,1,0,0:0:0:0:
256,192,94933,1,0,0:0:0:0:
329,192,95019,1,0,0:0:0:0:
402,192,95104,1,0,0:0:0:0:
182,192,95190,1,0,0:0:0:0:
36,192,95361,1,0,0:0:0:0:
256,192,95533,1,0,0:0:0:0:
109,192,95704,1,0,0:0:0:0:
402,192,95876,1,0,0:0:0:0:
475,192,95876,1,0,0:0:0:0:
256,192,95876,1,0,0:0:0:0:
402,192,96047,1,0,0:0:0:0:
475,192,96047,1,0,0:0:0:0:
475,192,96219,1,0,0:0:0:0:
402,192,96219,1,0,0:0:0:0:
256,192,96390,1,0,0:0:0:0:
402,192,96476,1,0,0:0:0:0:
109,192,96561,1,0,0:0:0:0:
182,192,96561,1,0,0:0:0:0:
109,192,96733,1,0,0:0:0:0:
182,192,96733,1,0,0:0:0:0:
109,192,96904,1,0,0:0:0:0:
182,192,96904,1,0,0:0:0:0:
256,192,97076,1,0,0:0:0:0:
329,192,97161,1,0,0:0:0:0:
475,192,97247,1,0,0:0:0:0:
109,192,97419,1,0,0:0:0:0:
182,192,97590,1,0,0:0:0:0:
256,192,97761,1,0,0:0:0:0:
402,192,97933,1,0,0:0:0:0:
109,192,97933,1,0,0:0:0:0:
329,192,98104,1,0,0:0:0:0:
36,192,98276,1,0,0:0:0:0:
182,192,98447,1,0,0:0:0:0:
256,192,98619,1,0,0:0:0:0:
329,192,98704,1,0,0:0:0:0:
402,192,98790,1,0,0:0:0:0:
475,192,98876,1,0,0:0:0:0:
182,192,98961,1,0,0:0:0:0:
256,192,99047,1,0,0:0:0:0:
329,192,99133,1,0,0:0:0:0:
402,192,99219,1,0,0:0:0:0:
109,192,99304,1,0,0:0:0:0:
182,192,99390,1,0,0:0:0:0:
256,192,99476,1,0,0:0:0:0:
329,192,99561,1,0,0:0:0:0:
36,192,99647,1,0,0:0:0:0:
109,192,99733,1,0,0:0:0:0:
182,192,99819,1,0,0:0:0:0:
256,192,99904,1,0,0:0:0:0:
329,192,99990,128,0,101361:0:0:0:0:
109,192,100676,128,0,101361:0:0:0:0:
182,192,101361,128,0,101490:0:0:0:0:
182,192,101876,128,0,102004:0:0:0:0:
182,192,102390,128,0,102519:0:0:0:0:
329,192,102733,5,0,0:0:0:0:
256,192,102733,1,0,0:0:0:0:
475,192,102733,1,0,0:0:0:0:
182,192,102904,1,0,0:0:0:0:
329,192,103076,1,0,0:0:0:0:
475,192,103247,1,0,0:0:0:0:
329,192,103419,1,0,0:0:0:0:
182,192,103590,1,0,0:0:0:0:
402,192,103761,1,0,0:0:0:0:
109,192,103761,1,0,0:0:0:0:
36,192,103847,1,0,0:0:0:0:
109,192,103933,1,0,0:0:0:0:
182,192,104019,1,0,0:0:0:0:
329,192,104104,5,0,0:0:0:0:
475,192,104104,1,0,0:0:0:0:
256,192,104104,1,0,0:0:0:0:
182,192,104276,1,0,0:0:0:0:
329,192,104447,1,0,0:0:0:0:
475,192,104619,1,0,0:0:0:0:
329,192,104790,1,0,0:0:0:0:
182,192,104961,1,0,0:0:0:0:
109,192,105133,1,0,0:0:0:0:
402,192,105133,1,0,0:0:0:0:
36,192,105219,1,0,0:0:0:0:
109,192,105304,1,0,0:0:0:0:
182,192,105390,1,0,0:0:0:0:
329,192,105476,1,0,0:0:0:0:
256,192,105476,1,0,0:0:0:0:
475,192,105476,1,0,0:0:0:0:
182,192,105647,1,0,0:0:0:0:
329,192,105819,1,0,0:0:0:0:
475,192,105990,1,0,0:0:0:0:
109,192,106161,1,0,0:0:0:0:
329,192,106161,1,0,0:0:0:0:
256,192,106333,1,0,0:0:0:0:
402,192,106504,1,0,0:0:0:0:
182,192,106676,1,0,0:0:0:0:
109,192,106847,1,0,0:0:0:0:
182,192,106933,1,0,0:0:0:0:
256,192,107019,1,0,0:0:0:0:
329,192,107104,1,0,0:0:0:0:
475,192,107190,1,0,0:0:0:0:
402,192,107276,1,0,0:0:0:0:
329,192,107361,1,0,0:0:0:0:
256,192,107447,1,0,0:0:0:0:
36,192,107533,1,0,0:0:0:0:
109,192,107619,1,0,0:0:0:0:
182,192,107704,1,0,0:0:0:0:
256,192,107790,1,0,0:0:0:0:
402,192,107876,1,0,0:0:0:0:
329,192,107961,1,0,0:0:0:0:
256,192,108047,1,0,0:0:0:0:
182,192,108133,1,0,0:0:0:0:
329,192,108219,1,0,0:0:0:0:
475,192,108219,1,0,0:0:0:0:
182,192,108390,1,0,0:0:0:0:
329,192,108561,1,0,0:0:0:0:
475,192,108733,1,0,0:0:0:0:
329,192,108904,1,0,0:0:0:0:
182,192,109076,1,0,0:0:0:0:
109,192,109247,1,0,0:0:0:0:
402,192,109247,1,0,0:0:0:0:
36,192,109333,1,0,0:0:0:0:
109,192,109419,1,0,0:0:0:0:
182,192,109504,1,0,0:0:0:0:
329,192,109590,5,0,0:0:0:0:
475,192,109590,1,0,0:0:0:0:
256,192,109590,1,0,0:0:0:0:
182,192,109761,1,0,0:0:0:0:
329,192,109933,1,0,0:0:0:0:
475,192,110104,1,0,0:0:0:0:
329,192,110276,1,0,0:0:0:0:
182,192,110447,1,0,0:0:0:0:
402,192,110619,1,0,0:0:0:0:
109,192,110619,1,0,0:0:0:0:
36,192,110704,1,0,0:0:0:0:
109,192,110790,1,0,0:0:0:0:
182,192,110876,1,0,0:0:0:0:
329,192,110961,5,0,0:0:0:0:
475,192,110961,1,0,0:0:0:0:
256,192,110961,1,0,0:0:0:0:
182,192,111133,1,0,0:0:0:0:
329,192,111304,1,0,0:0:0:0:
475,192,111476,1,0,0:0:0:0:
329,192,111647,1,0,0:0:0:0:
109,192,111647,1,0,0:0:0:0:
256,192,111819,1,0,0:0:0:0:
402,192,111990,1,0,0:0:0:0:
182,192,112161,1,0,0:0:0:0:
475,192,112333,1,0,0:0:0:0:
402,192,112419,1,0,0:0:0:0:
329,192,112504,1,0,0:0:0:0:
256,192,112590,1,0,0:0:0:0:
329,192,112676,1,0,0:0:0:0:
256,192,112761,1,0,0:0:0:0:
182,192,112847,1,0,0:0:0:0:
109,192,112933,1,0,0:0:0:0:
36,192,113019,1,0,0:0:0:0:
109,192,113104,1,0,0:0:0:0:
182,192,113190,1,0,0:0:0:0:
256,192,113276,1,0,0:0:0:0:
182,192,113361,1,0,0:0:0:0:
256,192,113447,1,0,0:0:0:0:
329,192,113533,1,0,0:0:0:0:
402,192,113619,1,0,0:0:0:0:
475,192,113704,1,0,0:0:0:0:
109,192,113704,1,0,0:0:0:0:
