osu file format v14

[General]
AudioFilename: 02. Imprinting.mp3
AudioLeadIn: 0
PreviewTime: -1
Countdown: 0
SampleSet: Normal
StackLeniency: 0.2
Mode: 0
LetterboxInBreaks: 1
WidescreenStoryboard: 1

[Editor]
Bookmarks: 87808
DistanceSpacing: 0.8
BeatDivisor: 4
GridSize: 4
TimelineZoom: 1

[Metadata]
Title:Imprinting
TitleUnicode:Imprinting
Artist:Sakuzyo
ArtistUnicode:Sakuzyo
Creator:HerzaIsAPanda
Version:Melodia Orquestal
Source:
Tags:
BeatmapID:939392
BeatmapSetID:436085

[Difficulty]
HPDrainRate:7
CircleSize:4
OverallDifficulty:8
ApproachRate:9.6
SliderMultiplier:1.4
SliderTickRate:1

[Events]
//Background and Video events
0,0,"Pixiv.Id.5646193.full.1495776.jpg",0,0
//Break Periods
//Storyboard Layer 0 (Background)
//Storyboard Layer 1 (Fail)
//Storyboard Layer 2 (Pass)
//Storyboard Layer 3 (Foreground)
//Storyboard Sound Samples

[TimingPoints]
2780,342.857142857143,4,1,0,100,1,0
2780,-66.6666666666667,4,1,0,100,0,0
23694,-200,4,1,0,21,0,0
24637,-66.6666666666667,4,1,0,100,0,0
29008,-100,4,1,0,100,0,0
30122,-66.6666666666667,4,1,0,100,0,0
34322,-66.6666666666667,4,3,0,19,0,0
35694,-66.6666666666667,4,1,0,100,0,1
41180,-66.6666666666667,4,1,0,100,0,0
43580,-100,4,3,0,19,0,0
44180,-66.6666666666667,4,3,0,19,0,0
45294,-66.6666666666667,4,1,0,100,0,0
45380,-66.6666666666667,4,3,0,20,0,0
45551,-66.6666666666667,4,1,0,100,0,0
46665,-66.6666666666667,4,1,0,100,0,1
55065,-66.6666666666667,4,1,0,100,0,0
59094,-66.6666666666667,4,3,0,5,0,0
59265,-66.6666666666667,4,1,0,100,0,0
60380,-66.6666666666667,4,1,0,100,0,1
69034,-66.6666666666667,4,3,0,100,0,0
69208,-66.6666666666667,4,1,0,100,0,0
69380,-66.6666666666667,4,3,0,100,0,0
69465,-66.6666666666667,4,3,0,100,0,0
69551,-66.6666666666667,4,1,0,100,0,0
69808,-66.6666666666667,4,3,0,100,0,0
69980,-66.6666666666667,4,1,0,100,0,0
79580,-66.6666666666667,4,1,0,100,0,1
89180,-66.6666666666667,4,1,0,100,0,0
90551,-66.6666666666667,4,1,0,100,0,1
100494,-66.6666666666667,4,3,0,19,0,1
101351,-66.6666666666667,4,1,0,100,0,1
102894,-66.6666666666667,4,1,0,100,0,0

[Colours]
Combo1 : 108,217,0
Combo2 : 0,210,210
Combo3 : 225,225,225

[HitObjects]
268,320,2780,5,0,0:0:0:0:
172,232,2951,1,0,0:0:0:0:
356,172,3122,1,0,0:0:0:0:
176,92,3294,1,0,0:0:0:0:
356,172,3465,1,0,0:0:0:0:
172,232,3637,1,0,0:0:0:0:
120,168,3808,1,0,0:0:0:0:
148,144,3894,1,0,0:0:0:0:
184,136,3979,1,0,0:0:0:0:
220,144,4065,1,0,0:0:0:0:
248,168,4151,2,0,L|376:160,1,105.000004005432
432,328,4494,5,0,0:0:0:0:
340,184,4665,1,0,0:0:0:0:
304,300,4837,5,0,0:0:0:0:
212,156,5008,1,0,0:0:0:0:
76,296,5180,5,0,0:0:0:0:
104,320,5265,1,0,0:0:0:0:
140,328,5351,1,0,0:0:0:0:
176,324,5437,1,0,0:0:0:0:
208,304,5522,2,0,P|264:264|288:216,1,105.000004005432
168,112,5865,5,0,0:0:0:0:
376,148,6037,1,0,0:0:0:0:
192,196,6208,5,0,0:0:0:0:
400,232,6380,1,0,0:0:0:0:
272,96,6551,5,0,0:0:0:0:
160,256,6722,1,0,0:0:0:0:
268,320,6894,1,0,0:0:0:0:
316,300,6979,1,0,0:0:0:0:
354,264,7065,1,0,0:0:0:0:
376,217,7151,5,0,0:0:0:0:
380,165,7236,1,0,0:0:0:0:
364,115,7322,1,0,0:0:0:0:
332,74,7408,1,0,0:0:0:0:
286,48,7493,1,0,0:0:0:0:
235,40,7579,5,0,0:0:0:0:
184,52,7665,1,0,0:0:0:0:
141,81,7751,1,0,0:0:0:0:
111,124,7836,1,0,0:0:0:0:
99,175,7922,1,0,0:0:0:0:
106,227,8008,5,0,0:0:0:0:
132,272,8093,1,0,0:0:0:0:
172,312,8180,1,0,0:0:0:0:
216,340,8265,2,0,P|268:352|328:332,1,105.000004005432
368,220,8608,1,0,0:0:0:0:
488,100,8780,1,0,0:0:0:0:
268,176,8951,1,0,0:0:0:0:
352,60,9122,1,0,0:0:0:0:
348,288,9294,5,0,0:0:0:0:
352,292,9380,1,0,0:0:0:0:
356,296,9465,1,0,0:0:0:0:
360,300,9551,1,0,0:0:0:0:
364,304,9637,1,0,0:0:0:0:
292,160,9808,5,0,0:0:0:0:
152,284,9980,1,0,0:0:0:0:
312,320,10151,1,0,0:0:0:0:
139,99,10322,5,0,0:0:0:0:
243,287,10494,1,0,0:0:0:0:
316,60,10665,1,0,0:0:0:0:
355,83,10751,1,0,0:0:0:0:
396,118,10837,1,0,0:0:0:0:
421,167,10922,1,0,0:0:0:0:
421,221,11008,2,0,P|374:265|300:285,1,105.000004005432
240,68,11351,5,0,0:0:0:0:
192,304,11522,1,0,0:0:0:0:
304,208,11694,1,0,0:0:0:0:
56,216,11865,1,0,0:0:0:0:
152,104,12037,1,0,0:0:0:0:
312,296,12208,1,0,0:0:0:0:
96,328,12380,5,0,0:0:0:0:
124,296,12465,1,0,0:0:0:0:
160,276,12551,1,0,0:0:0:0:
200,264,12637,1,0,0:0:0:0:
240,264,12722,1,0,0:0:0:0:
276,288,12808,1,0,0:0:0:0:
308,312,12894,1,0,0:0:0:0:
348,324,12980,1,0,0:0:0:0:
384,304,13065,5,0,0:0:0:0:
396,264,13151,1,0,0:0:0:0:
392,224,13237,1,0,0:0:0:0:
376,188,13322,1,0,0:0:0:0:
352,152,13408,1,0,0:0:0:0:
316,132,13494,1,0,0:0:0:0:
272,132,13580,1,0,0:0:0:0:
236,148,13665,1,0,0:0:0:0:
200,172,13751,2,0,B|154:225|92:199,1,105.000004005432
76,104,14094,5,0,0:0:0:0:
130,323,14265,1,0,0:0:0:0:
24,212,14437,1,0,0:0:0:0:
200,54,14609,1,0,0:0:0:0:
256,236,14780,1,0,0:0:0:0:
404,124,14951,1,0,0:0:0:0:
396,304,15122,1,0,0:0:0:0:
276,124,15294,1,0,0:0:0:0:
95,143,15465,2,0,P|96:195|115:244,1,105.000004005432
411,191,15808,2,0,P|409:243|390:291,1,105.000004005432
101,191,16151,2,0,P|102:243|121:291,1,105.000004005432
404,136,16494,5,0,0:0:0:0:
268,256,16665,1,0,0:0:0:0:
168,160,16837,1,0,0:0:0:0:
416,280,17008,1,0,0:0:0:0:
340,88,17180,5,0,0:0:0:0:
336,300,17351,1,0,0:0:0:0:
168,200,17522,1,0,0:0:0:0:
392,204,17694,1,0,0:0:0:0:
216,332,17865,5,0,0:0:0:0:
140,160,18037,1,0,0:0:0:0:
104,284,18208,5,0,0:0:0:0:
248,192,18380,1,0,0:0:0:0:
112,108,18551,1,0,0:0:0:0:
228,288,18722,5,0,0:0:0:0:
84,196,18894,1,0,0:0:0:0:
220,112,19065,1,0,0:0:0:0:
136,304,19237,1,0,0:0:0:0:
422,210,19408,1,0,0:0:0:0:
412,160,19494,1,0,0:0:0:0:
376,120,19580,1,0,0:0:0:0:
332,96,19665,1,0,0:0:0:0:
280,88,19751,1,0,0:0:0:0:
228,96,19837,1,0,0:0:0:0:
188,128,19922,2,0,P|160:168|76:204,1,105.000004005432
184,280,20265,5,0,0:0:0:0:
236,264,20351,1,0,0:0:0:0:
288,260,20437,1,0,0:0:0:0:
336,280,20522,1,0,0:0:0:0:
384,304,20608,2,0,P|444:288|472:248,1,105.000004005432
328,104,20865,5,0,0:0:0:0:
276,120,20951,1,0,0:0:0:0:
224,124,21037,1,0,0:0:0:0:
176,104,21122,1,0,0:0:0:0:
128,80,21208,1,0,0:0:0:0:
88,48,21294,2,0,P|37:57|2:96,1,105.000004005432
352,352,21637,5,0,0:0:0:0:
420,20,21980,5,0,0:0:0:0:
136,328,22322,5,0,0:0:0:0:
472,156,22665,5,0,0:0:0:0:
68,188,23008,5,0,0:0:0:0:
448,296,23351,5,0,0:0:0:0:
232,92,23694,6,0,B|179:82|161:41|118:122|37:61,1,192.5
24,32,24722,5,0,0:0:0:0:
184,288,24894,1,0,0:0:0:0:
320,88,25065,1,0,0:0:0:0:
132,176,25237,1,0,0:0:0:0:
352,180,25408,1,0,0:0:0:0:
80,296,25580,1,0,0:0:0:0:
256,185,25751,1,0,0:0:0:0:
308,196,25837,1,0,0:0:0:0:
360,205,25923,1,0,0:0:0:0:
412,217,26009,1,0,0:0:0:0:
464,225,26094,1,0,0:0:0:0:
92,180,26265,5,0,0:0:0:0:
336,272,26437,1,0,0:0:0:0:
208,84,26608,1,0,0:0:0:0:
168,328,26780,1,0,0:0:0:0:
332,144,26951,1,0,0:0:0:0:
357,279,27122,1,0,0:0:0:0:
305,268,27208,1,0,0:0:0:0:
253,259,27294,1,0,0:0:0:0:
201,247,27380,1,0,0:0:0:0:
149,239,27465,1,0,0:0:0:0:
248,100,27637,5,0,0:0:0:0:
276,328,27808,1,0,0:0:0:0:
424,184,27980,1,0,0:0:0:0:
272,208,28151,1,0,0:0:0:0:
336,64,28322,1,0,0:0:0:0:
356,240,28494,1,0,0:0:0:0:
152,144,28665,1,0,0:0:0:0:
376,276,28837,1,0,0:0:0:0:
356,240,28922,1,0,0:0:0:0:
332,224,29008,1,0,0:0:0:0:
304,216,29094,5,0,0:0:0:0:
276,212,29180,1,0,0:0:0:0:
248,208,29266,1,0,0:0:0:0:
220,200,29352,1,0,0:0:0:0:
196,188,29438,1,0,0:0:0:0:
180,164,29523,1,0,0:0:0:0:
188,136,29609,1,0,0:0:0:0:
208,120,29694,1,0,0:0:0:0:
236,116,29780,1,0,0:0:0:0:
264,116,29865,5,0,0:0:0:0:
292,112,29951,1,0,0:0:0:0:
316,100,30037,1,0,0:0:0:0:
348,76,30122,1,0,0:0:0:0:
344,36,30208,2,0,P|296:20|232:28,1,105.000004005432
96,168,30551,5,0,0:0:0:0:
192,340,30722,1,0,0:0:0:0:
292,272,30894,1,0,0:0:0:0:
56,280,31065,1,0,0:0:0:0:
304,72,31237,5,0,0:0:0:0:
268,60,31322,1,0,0:0:0:0:
232,60,31408,1,0,0:0:0:0:
196,72,31494,1,0,0:0:0:0:
168,96,31580,1,0,0:0:0:0:
112,320,31751,5,0,0:0:0:0:
264,248,31922,1,0,0:0:0:0:
112,320,32094,1,0,0:0:0:0:
336,200,32265,1,0,0:0:0:0:
112,96,32437,1,0,0:0:0:0:
184,268,32608,1,0,0:0:0:0:
216,252,32694,1,0,0:0:0:0:
244,228,32780,1,0,0:0:0:0:
264,196,32865,1,0,0:0:0:0:
280,164,32951,1,0,0:0:0:0:
240,336,33122,5,0,0:0:0:0:
104,232,33294,1,0,0:0:0:0:
244,104,33465,2,0,P|296:80|352:92,1,105.000004005432
312,216,33808,1,0,0:0:0:0:
440,104,33980,1,0,0:0:0:0:
216,216,34151,1,0,0:0:0:0:
88,96,34322,5,0,0:0:0:0:
144,80,34408,1,0,0:0:0:0:
192,112,34494,1,0,0:0:0:0:
248,108,34580,1,0,0:0:0:0:
304,116,34665,1,0,0:0:0:0:
348,144,34751,1,0,0:0:0:0:
400,112,34837,1,0,0:0:0:0:
372,68,34922,1,0,0:0:0:0:
316,56,35008,1,0,0:0:0:0:
268,48,35094,1,0,0:0:0:0:
220,72,35180,5,0,0:0:0:0:
208,128,35265,2,0,L|234:173,4,52.5000020027161
216,280,35694,1,0,0:0:0:0:
88,96,35865,1,0,0:0:0:0:
296,280,36037,1,0,0:0:0:0:
424,96,36208,1,0,0:0:0:0:
128,208,36380,1,0,0:0:0:0:
408,208,36551,1,0,0:0:0:0:
256,32,36722,5,0,0:0:0:0:
144,176,36894,1,0,0:0:0:0:
352,280,37065,1,0,0:0:0:0:
308,112,37237,1,0,0:0:0:0:
88,288,37408,5,0,0:0:0:0:
248,148,37580,1,0,0:0:0:0:
284,328,37751,1,0,0:0:0:0:
104,240,37922,1,0,0:0:0:0:
204,76,38094,1,0,0:0:0:0:
160,248,38265,5,0,0:0:0:0:
392,176,38437,1,0,0:0:0:0:
144,256,38608,5,0,0:0:0:0:
408,168,38780,1,0,0:0:0:0:
104,168,38951,5,0,0:0:0:0:
368,256,39123,1,0,0:0:0:0:
120,176,39294,5,0,0:0:0:0:
352,248,39466,1,0,0:0:0:0:
248,344,39637,5,0,0:0:0:0:
168,184,39808,1,0,0:0:0:0:
248,344,39980,1,0,0:0:0:0:
312,88,40151,1,0,0:0:0:0:
248,344,40322,1,0,0:0:0:0:
152,96,40494,1,0,0:0:0:0:
368,224,40665,5,0,0:0:0:0:
104,232,40837,1,0,0:0:0:0:
248,344,41008,1,0,0:0:0:0:
248,104,41180,1,0,0:0:0:0:
408,72,41351,5,0,0:0:0:0:
392,96,41436,1,0,0:0:0:0:
368,128,41522,1,0,0:0:0:0:
344,160,41608,1,0,0:0:0:0:
320,192,41694,1,0,0:0:0:0:
296,224,41779,1,0,0:0:0:0:
272,256,41865,1,0,0:0:0:0:
256,44,42037,1,0,0:0:0:0:
120,96,42208,5,0,0:0:0:0:
144,128,42294,1,0,0:0:0:0:
168,160,42380,1,0,0:0:0:0:
192,192,42466,1,0,0:0:0:0:
216,224,42551,1,0,0:0:0:0:
328,72,42722,5,0,0:0:0:0:
368,80,42808,1,0,0:0:0:0:
400,96,42893,1,0,0:0:0:0:
432,120,42979,1,0,0:0:0:0:
456,144,43065,1,0,0:0:0:0:
472,168,43151,1,0,0:0:0:0:
480,200,43237,1,0,0:0:0:0:
472,296,43408,5,0,0:0:0:0:
376,304,43580,2,0,P|328:288|296:244,1,105
300,108,43922,2,0,P|348:124|380:168,1,105
184,200,44265,2,0,P|136:184|104:140,1,105
132,0,44522,2,0,P|180:16|212:60,1,105
188,144,44865,2,0,P|216:196|258:222,1,105.000004005432
332,212,45294,2,0,P|374:241|397:288,1,105.000004005432
56,220,45637,5,0,0:0:0:0:
408,216,45980,1,0,0:0:0:0:
208,336,46237,1,0,0:0:0:0:
208,84,46494,1,0,0:0:0:0:
112,248,46665,5,0,0:0:0:0:
280,120,46837,1,0,0:0:0:0:
372,212,47008,1,0,0:0:0:0:
140,148,47180,1,0,0:0:0:0:
344,280,47351,1,0,0:0:0:0:
168,216,47522,6,0,P|112:236|80:276,1,105.000004005432
280,64,47865,1,0,0:0:0:0:
152,272,48037,1,0,0:0:0:0:
376,148,48208,5,0,0:0:0:0:
84,208,48380,1,0,0:0:0:0:
304,320,48551,1,0,0:0:0:0:
160,84,48722,1,0,0:0:0:0:
424,104,48894,1,0,0:0:0:0:
208,288,49065,1,0,0:0:0:0:
128,152,49237,5,0,0:0:0:0:
324,256,49408,1,0,0:0:0:0:
296,56,49580,1,0,0:0:0:0:
392,172,49751,1,0,0:0:0:0:
296,56,49922,1,0,0:0:0:0:
240,204,50094,6,0,L|132:228,1,105.000004005432
312,48,50437,1,0,0:0:0:0:
136,128,50608,1,0,0:0:0:0:
344,208,50780,2,0,L|472:204,1,105.000004005432
480,172,51122,1,0,0:0:0:0:
204,224,51294,1,0,0:0:0:0:
400,52,51465,2,0,B|376:108|412:160|412:160|372:208|388:248,1,210.000008010865
424,320,51980,5,0,0:0:0:0:
128,332,52151,5,0,0:0:0:0:
76,136,52322,1,0,0:0:0:0:
248,200,52494,1,0,0:0:0:0:
232,48,52665,1,0,0:0:0:0:
80,248,52837,1,0,0:0:0:0:
232,148,53008,2,0,L|344:140,1,105.000004005432
408,100,53351,5,0,0:0:0:0:
152,184,53522,1,0,0:0:0:0:
360,240,53694,1,0,0:0:0:0:
136,232,53865,1,0,0:0:0:0:
196,52,54037,1,0,0:0:0:0:
264,160,54208,1,0,0:0:0:0:
188,260,54380,1,0,0:0:0:0:
272,348,54551,1,0,0:0:0:0:
448,344,54722,1,0,0:0:0:0:
448,144,54894,1,0,0:0:0:0:
352,208,55065,5,0,0:0:0:0:
296,208,55151,1,0,0:0:0:0:
248,208,55237,1,0,0:0:0:0:
200,208,55322,1,0,0:0:0:0:
144,208,55408,1,0,0:0:0:0:
96,208,55494,1,0,0:0:0:0:
52,208,55580,1,0,0:0:0:0:
268,124,55751,5,0,0:0:0:0:
152,328,55922,1,0,0:0:0:0:
344,236,56094,1,0,0:0:0:0:
152,160,56265,1,0,0:0:0:0:
352,32,56436,1,0,0:0:0:0:
352,76,56522,1,0,0:0:0:0:
352,120,56608,1,0,0:0:0:0:
352,164,56694,1,0,0:0:0:0:
352,204,56779,1,0,0:0:0:0:
352,248,56865,1,0,0:0:0:0:
352,292,56951,1,0,0:0:0:0:
200,312,57122,5,0,0:0:0:0:
200,100,57294,1,0,0:0:0:0:
424,96,57465,1,0,0:0:0:0:
424,316,57637,1,0,0:0:0:0:
252,64,57980,1,0,0:0:0:0:
80,240,58237,1,0,0:0:0:0:
64,192,58322,1,0,0:0:0:0:
320,272,58494,1,0,0:0:0:0:
408,80,58666,1,0,0:0:0:0:
132,224,58837,1,0,0:0:0:0:
432,184,59008,1,0,0:0:0:0:
216,108,59351,5,0,0:0:0:0:
212,356,59694,1,0,0:0:0:0:
216,40,60037,1,0,0:0:0:0:
416,132,60380,6,0,P|392:184|344:224,1,105.000004005432
192,240,60722,1,0,0:0:0:0:
404,296,60894,1,0,0:0:0:0:
288,176,61065,2,0,L|180:168,1,105.000004005432
96,328,61408,1,0,0:0:0:0:
336,164,61580,1,0,0:0:0:0:
344,204,61665,1,0,0:0:0:0:
328,244,61751,1,0,0:0:0:0:
124,168,61922,6,0,P|112:120|110:63,1,105.000004005432
228,212,62265,1,0,0:0:0:0:
444,96,62437,1,0,0:0:0:0:
416,244,62608,1,0,0:0:0:0:
236,104,62780,1,0,0:0:0:0:
392,292,62952,5,0,0:0:0:0:
352,300,63037,1,0,0:0:0:0:
312,288,63122,1,0,0:0:0:0:
108,168,63294,2,0,B|148:160|148:160|176:180|220:164,1,105.000004005432
372,32,63637,6,0,B|404:36|452:48|452:48|420:60,1,105.000004005432
276,176,63980,2,0,B|244:172|196:160|196:160|228:148,1,105.000004005432
444,84,64322,2,0,B|448:128|452:172|452:172|420:148,1,105.000004005432
260,112,64665,5,0,0:0:0:0:
384,288,64837,1,0,0:0:0:0:
384,116,65008,1,0,0:0:0:0:
264,292,65180,1,0,0:0:0:0:
248,104,65351,5,0,0:0:0:0:
392,296,65523,1,0,0:0:0:0:
392,108,65694,1,0,0:0:0:0:
248,304,65865,2,0,B|211:295|192:296|192:296|168:264|200:256,1,105.000004005432
444,188,66208,5,0,0:0:0:0:
256,272,66380,1,0,0:0:0:0:
436,144,66551,2,0,L|300:144,1,105.000004005432
216,144,66894,1,0,0:0:0:0:
96,304,67065,1,0,0:0:0:0:
136,292,67151,1,0,0:0:0:0:
176,300,67237,1,0,0:0:0:0:
336,208,67408,5,0,0:0:0:0:
100,192,67580,1,0,0:0:0:0:
360,144,67751,1,0,0:0:0:0:
72,248,67922,1,0,0:0:0:0:
304,160,68094,1,0,0:0:0:0:
36,208,68265,1,0,0:0:0:0:
244,88,68437,5,0,0:0:0:0:
284,72,68522,1,0,0:0:0:0:
324,76,68608,1,0,0:0:0:0:
100,240,68780,1,0,0:0:0:0:
260,236,68951,2,0,P|308:212|280:244,1,105.000004005432
440,48,69294,2,0,B|440:80|464:116|464:116|392:100|392:100,1,105.000004005432
216,148,69637,2,0,B|184:148|172:144|136:112|136:112|92:152,1,105.000004005432
332,304,69980,2,0,B|376:268|376:268|324:216,1,105.000004005432
244,52,70322,5,0,0:0:0:0:
192,280,70494,1,0,0:0:0:0:
324,92,70665,1,0,0:0:0:0:
360,272,70837,1,0,0:0:0:0:
144,136,71008,1,0,0:0:0:0:
292,300,71180,1,0,0:0:0:0:
68,172,71351,2,0,L|120:68,1,105.000004005432
320,216,71694,5,0,0:0:0:0:
156,200,71865,1,0,0:0:0:0:
380,48,72037,2,0,L|384:160,1,105.000004005432
136,212,72380,1,0,0:0:0:0:
276,88,72551,1,0,0:0:0:0:
292,120,72637,1,0,0:0:0:0:
308,152,72722,2,0,L|420:172,1,105.000004005432
192,312,73065,1,0,0:0:0:0:
320,284,73237,5,0,0:0:0:0:
200,88,73408,2,0,L|92:140,1,105.000004005432
264,268,73751,1,0,0:0:0:0:
280,64,73922,1,0,0:0:0:0:
316,60,74008,1,0,0:0:0:0:
352,56,74094,2,0,L|468:48,1,105.000004005432
200,180,74437,6,0,P|168:236|128:264,1,105.000004005432
360,152,74780,2,0,L|476:144,1,105.000004005432
92,92,75122,2,0,P|100:148|132:204,1,105.000004005432
440,304,75465,2,0,P|388:312|336:304,1,105.000004005432
144,104,75809,1,0,0:0:0:0:
344,308,75980,1,0,0:0:0:0:
188,36,76151,2,0,P|244:68|296:80,1,105.000004005432
412,188,76494,5,0,0:0:0:0:
296,292,76666,1,0,0:0:0:0:
204,148,76837,1,0,0:0:0:0:
464,296,77008,1,0,0:0:0:0:
88,248,77180,2,0,B|64:132|156:144|228:52|228:52|244:88|220:156|360:148|248:224|288:256|264:308|236:336|208:352|136:352,1,630.000024032594
72,268,78551,5,0,0:0:0:0:
456,140,78894,1,0,0:0:0:0:
200,176,79065,1,0,0:0:0:0:
336,88,79237,1,0,0:0:0:0:
360,304,79408,1,0,0:0:0:0:
204,64,79580,5,0,0:0:0:0:
56,344,79751,1,0,0:0:0:0:
380,252,79922,1,0,0:0:0:0:
136,176,80094,1,0,0:0:0:0:
128,140,80180,1,0,0:0:0:0:
136,104,80265,1,0,0:0:0:0:
232,352,80437,5,0,0:0:0:0:
312,32,80608,1,0,0:0:0:0:
452,216,80780,1,0,0:0:0:0:
440,252,80865,1,0,0:0:0:0:
420,280,80951,1,0,0:0:0:0:
92,272,81122,1,0,0:0:0:0:
312,76,81293,5,0,0:0:0:0:
160,304,81464,1,0,0:0:0:0:
280,272,81637,1,0,0:0:0:0:
80,204,81808,1,0,0:0:0:0:
388,160,81980,1,0,0:0:0:0:
160,112,82151,1,0,0:0:0:0:
248,220,82322,1,0,0:0:0:0:
208,224,82408,1,0,0:0:0:0:
168,216,82494,1,0,0:0:0:0:
132,196,82580,1,0,0:0:0:0:
104,160,82665,1,0,0:0:0:0:
96,116,82751,1,0,0:0:0:0:
104,76,82836,5,0,0:0:0:0:
128,44,82922,1,0,0:0:0:0:
168,28,83008,1,0,0:0:0:0:
208,32,83094,1,0,0:0:0:0:
240,56,83179,1,0,0:0:0:0:
264,92,83265,1,0,0:0:0:0:
284,128,83351,1,0,0:0:0:0:
316,156,83437,1,0,0:0:0:0:
356,160,83522,1,0,0:0:0:0:
392,140,83608,1,0,0:0:0:0:
392,104,83694,1,0,0:0:0:0:
364,72,83780,1,0,0:0:0:0:
328,56,83865,5,0,0:0:0:0:
288,40,83951,1,0,0:0:0:0:
244,40,84037,1,0,0:0:0:0:
204,56,84122,1,0,0:0:0:0:
168,76,84208,1,0,0:0:0:0:
144,112,84294,1,0,0:0:0:0:
124,148,84380,1,0,0:0:0:0:
280,312,84551,1,0,0:0:0:0:
208,264,84722,5,0,0:0:0:0:
396,132,84894,1,0,0:0:0:0:
240,136,85065,5,0,0:0:0:0:
64,324,85237,1,0,0:0:0:0:
372,224,85408,1,0,0:0:0:0:
316,52,85580,1,0,0:0:0:0:
356,56,85665,1,0,0:0:0:0:
388,84,85751,1,0,0:0:0:0:
288,304,85922,5,0,0:0:0:0:
188,48,86094,1,0,0:0:0:0:
96,144,86265,1,0,0:0:0:0:
76,180,86351,1,0,0:0:0:0:
80,220,86437,1,0,0:0:0:0:
260,300,86608,5,0,0:0:0:0:
432,100,86780,1,0,0:0:0:0:
224,124,86951,1,0,0:0:0:0:
448,316,87122,1,0,0:0:0:0:
244,244,87294,1,0,0:0:0:0:
392,208,87465,1,0,0:0:0:0:
88,320,87637,1,0,0:0:0:0:
128,200,87808,5,0,0:0:0:0:
148,164,87894,1,0,0:0:0:0:
180,136,87980,1,0,0:0:0:0:
220,120,88065,1,0,0:0:0:0:
264,116,88151,1,0,0:0:0:0:
304,128,88237,1,0,0:0:0:0:
340,152,88322,1,0,0:0:0:0:
368,180,88408,1,0,0:0:0:0:
448,240,88494,5,0,0:0:0:0:
420,268,88580,1,0,0:0:0:0:
384,292,88665,1,0,0:0:0:0:
344,304,88751,1,0,0:0:0:0:
300,300,88837,1,0,0:0:0:0:
260,284,88922,1,0,0:0:0:0:
228,256,89008,1,0,0:0:0:0:
208,220,89094,1,0,0:0:0:0:
212,176,89180,1,0,0:0:0:0:
452,64,89351,5,0,0:0:0:0:
268,192,89522,1,0,0:0:0:0:
492,248,89694,1,0,0:0:0:0:
260,80,89865,2,0,L|152:164,1,105.000004005432
96,296,90208,1,0,0:0:0:0:
376,204,90380,1,0,0:0:0:0:
248,324,90551,5,0,0:0:0:0:
76,216,90722,1,0,0:0:0:0:
412,156,90894,1,0,0:0:0:0:
177,144,91065,1,0,0:0:0:0:
172,192,91151,1,0,0:0:0:0:
188,236,91237,1,0,0:0:0:0:
320,308,91408,1,0,0:0:0:0:
56,144,91580,1,0,0:0:0:0:
216,292,91751,5,0,0:0:0:0:
264,284,91836,1,0,0:0:0:0:
304,260,91922,1,0,0:0:0:0:
200,72,92094,5,0,0:0:0:0:
72,264,92265,1,0,0:0:0:0:
304,248,92437,1,0,0:0:0:0:
200,72,92608,1,0,0:0:0:0:
304,248,92780,1,0,0:0:0:0:
72,264,92951,1,0,0:0:0:0:
304,248,93122,1,0,0:0:0:0:
160,208,93294,6,0,L|212:172,1,52.5000020027161
276,232,93465,2,0,L|230:259,1,52.5000020027161
224,168,93637,6,0,L|276:132,1,52.5000020027161
340,192,93808,2,0,L|294:219,1,52.5000020027161
284,124,93980,6,0,L|336:88,1,52.5000020027161
400,148,94151,2,0,L|354:175,1,52.5000020027161
348,84,94323,6,0,L|400:48,1,52.5000020027161
464,108,94494,2,0,L|418:135,1,52.5000020027161
280,84,94665,5,0,0:0:0:0:
232,64,94751,1,0,0:0:0:0:
184,84,94837,1,0,0:0:0:0:
156,128,94922,1,0,0:0:0:0:
160,180,95008,1,0,0:0:0:0:
192,224,95094,1,0,0:0:0:0:
244,236,95180,1,0,0:0:0:0:
288,212,95265,1,0,0:0:0:0:
316,168,95351,1,0,0:0:0:0:
244,28,95522,5,0,0:0:0:0:
124,264,95694,1,0,0:0:0:0:
412,128,95865,1,0,0:0:0:0:
188,116,96037,1,0,0:0:0:0:
188,116,96208,1,0,0:0:0:0:
432,324,96380,1,0,0:0:0:0:
404,68,96551,1,0,0:0:0:0:
356,48,96637,1,0,0:0:0:0:
304,48,96722,1,0,0:0:0:0:
192,212,96894,5,0,0:0:0:0:
468,112,97065,1,0,0:0:0:0:
80,188,97237,1,0,0:0:0:0:
72,240,97323,1,0,0:0:0:0:
92,288,97408,1,0,0:0:0:0:
400,184,97580,1,0,0:0:0:0:
172,312,97751,1,0,0:0:0:0:
172,88,97922,1,0,0:0:0:0:
340,320,98094,1,0,0:0:0:0:
420,124,98265,5,0,0:0:0:0:
168,92,98437,1,0,0:0:0:0:
456,40,98608,1,0,0:0:0:0:
332,208,98780,1,0,0:0:0:0:
296,248,98865,1,0,0:0:0:0:
252,276,98951,1,0,0:0:0:0:
200,284,99037,1,0,0:0:0:0:
148,272,99122,1,0,0:0:0:0:
104,244,99208,1,0,0:0:0:0:
76,200,99294,5,0,0:0:0:0:
76,148,99380,1,0,0:0:0:0:
116,104,99465,1,0,0:0:0:0:
164,84,99551,1,0,0:0:0:0:
216,100,99637,1,0,0:0:0:0:
236,148,99722,1,0,0:0:0:0:
228,200,99808,1,0,0:0:0:0:
180,220,99894,1,0,0:0:0:0:
132,204,99980,1,0,0:0:0:0:
100,164,100065,6,0,B|64:140|64:140|40:128|76:100|76:100|16:116|16:116|48:84|96:52|-4:-4,2,315.000012016297
100,164,101180,2,0,B|192:160|192:160|224:104,1,157.500006008148
264,72,101522,1,0,0:0:0:0:
408,264,101694,5,0,0:0:0:0:
408,264,101780,1,0,0:0:0:0:
408,264,101866,1,0,0:0:0:0:
384,124,102037,5,0,0:0:0:0:
208,276,102208,5,0,0:0:0:0:
180,252,102294,1,0,0:0:0:0:
168,216,102380,1,0,0:0:0:0:
172,180,102465,1,0,0:0:0:0:
188,148,102551,2,0,B|260:112|260:112|124:124,1,210.000008010865
100,200,103065,1,0,0:0:0:0:
212,312,103237,1,0,0:0:0:0:
304,124,103408,1,0,0:0:0:0:
212,312,103580,1,0,0:0:0:0:
56,172,103751,1,0,0:0:0:0:
232,52,103922,5,0,0:0:0:0:
276,52,104008,1,0,0:0:0:0:
320,52,104094,1,0,0:0:0:0:
364,52,104180,1,0,0:0:0:0:
404,52,104265,2,0,L|512:52,1,105.000004005432
476,252,104608,5,0,0:0:0:0:
180,280,104780,1,0,0:0:0:0:
328,136,104951,5,0,0:0:0:0:
500,348,105123,1,0,0:0:0:0:
256,304,105295,5,0,0:0:0:0:
256,264,105380,1,0,0:0:0:0:
256,220,105466,1,0,0:0:0:0:
256,176,105552,1,0,0:0:0:0:
256,136,105637,2,0,L|256:24,1,105.000004005432
408,124,105980,5,0,0:0:0:0:
172,188,106151,1,0,0:0:0:0:
416,72,106322,1,0,0:0:0:0:
168,192,106494,2,0,P|240:248|272:256,1,105.000004005432
172,80,106837,1,0,0:0:0:0:
300,200,107008,5,0,0:0:0:0:
332,216,107094,1,0,0:0:0:0:
368,228,107179,1,0,0:0:0:0:
404,228,107265,1,0,0:0:0:0:
440,224,107351,1,0,0:0:0:0:
472,208,107436,5,0,0:0:0:0:
492,180,107522,1,0,0:0:0:0:
500,144,107608,1,0,0:0:0:0:
492,108,107694,1,0,0:0:0:0:
468,80,107780,1,0,0:0:0:0:
432,68,107865,5,0,0:0:0:0:
396,68,107951,1,0,0:0:0:0:
360,80,108037,1,0,0:0:0:0:
336,108,108122,1,0,0:0:0:0:
320,140,108208,1,0,0:0:0:0:
320,184,108294,5,0,0:0:0:0:
340,216,108380,1,0,0:0:0:0:
144,288,108551,1,0,0:0:0:0:
124,120,108722,1,0,0:0:0:0:
348,264,108894,1,0,0:0:0:0:
80,204,109065,1,0,0:0:0:0:
336,108,109237,1,0,0:0:0:0:
176,232,109408,5,0,0:0:0:0:
220,260,109494,1,0,0:0:0:0:
272,272,109580,1,0,0:0:0:0:
324,264,109665,1,0,0:0:0:0:
376,252,109751,1,0,0:0:0:0:
224,56,109922,1,0,0:0:0:0:
104,296,110094,1,0,0:0:0:0:
96,88,110265,1,0,0:0:0:0:
340,128,110437,1,0,0:0:0:0:
56,204,110608,1,0,0:0:0:0:
208,108,110780,5,0,0:0:0:0:
260,96,110866,1,0,0:0:0:0:
312,88,110951,1,0,0:0:0:0:
364,100,111037,1,0,0:0:0:0:
408,128,111123,1,0,0:0:0:0:
400,224,111294,5,0,0:0:0:0:
96,268,111466,1,0,0:0:0:0:
424,160,111637,1,0,0:0:0:0:
68,324,111808,1,0,0:0:0:0:
368,176,111980,1,0,0:0:0:0:
32,284,112151,1,0,0:0:0:0:
284,156,112322,1,0,0:0:0:0:
240,268,112494,1,0,0:0:0:0:
189,270,112580,1,0,0:0:0:0:
146,233,112665,1,0,0:0:0:0:
120,181,112751,1,0,0:0:0:0:
124,123,112837,1,0,0:0:0:0:
154,73,112922,5,0,0:0:0:0:
205,43,113008,1,0,0:0:0:0:
262,54,113094,1,0,0:0:0:0:
300,98,113180,1,0,0:0:0:0:
309,154,113265,1,0,0:0:0:0:
276,201,113351,1,0,0:0:0:0:
221,216,113437,1,0,0:0:0:0:
166,201,113522,1,0,0:0:0:0:
119,168,113608,1,0,0:0:0:0:
120,110,113694,1,0,0:0:0:0:
161,78,113779,1,0,0:0:0:0:
213,73,113865,1,0,0:0:0:0:
