osu file format v14

[General]
AudioFilename: carte.mp3
AudioLeadIn: 0
PreviewTime: 40840
Countdown: 0
SampleSet: Soft
StackLeniency: 0.7
Mode: 0
LetterboxInBreaks: 0
WidescreenStoryboard: 0

[Editor]
DistanceSpacing: 1.3
BeatDivisor: 6
GridSize: 32
TimelineZoom: 1.1

[Metadata]
Title:Fukashigi no Carte (TV Size)
TitleUnicode:不可思議のカルテ (TV Size)
Artist:Sakurajima Mai (CV: Seto Asami)
ArtistUnicode:桜島麻衣(CV:瀬戸麻沙美)
Creator:Underforest
Version:Hard
Source:青春ブタ野郎はバニーガール先輩の夢を見ない
Tags:Seishun Buta Yarō Yarou wa Yumemiru Shōjo Shoujo no Yume o Minai ao-buta Puberty Syndrome: Abnormal experiences during adolescence due to sensitivity and instability. Rascal Does Not Dream of Bunny Girl Senpai Banii Gaaru Ending
BeatmapID:1811529
BeatmapSetID:866086

[Difficulty]
HPDrainRate:5
CircleSize:4
OverallDifficulty:6
ApproachRate:7
SliderMultiplier:2.5
SliderTickRate:1

[Events]
//Background and Video events
0,0,"bg.jpg",0,0
//Break Periods
//Storyboard Layer 0 (Background)
//Storyboard Layer 1 (Fail)
//Storyboard Layer 2 (Pass)
//Storyboard Layer 3 (Foreground)
//Storyboard Sound Samples

[TimingPoints]
945,625,4,2,1,40,1,0
945,-133.333333333333,4,2,1,40,0,0
1570,625,4,2,1,40,1,0
1570,-133.333333333333,4,2,1,40,0,0
9070,-133.333333333333,4,2,1,40,0,0
11570,-133.333333333333,4,2,1,50,0,0
19070,-133.333333333333,4,2,1,40,0,0
20788,-100,4,2,1,60,0,0
29070,625,4,2,1,60,1,0
39590,-100,4,2,1,60,0,0
41570,625,4,2,1,70,1,1
41570,-90.9090909090909,4,2,1,70,0,1
59070,625,4,2,1,60,1,0
59070,-90.9090909090909,4,2,1,60,0,0

[Colours]
Combo1 : 196,236,244
Combo2 : 145,116,203
Combo3 : 47,140,255
Combo4 : 243,194,1
SliderTrackOverride : 30,30,30
SliderBorder : 255,255,250

[HitObjects]
83,168,945,6,0,L|75:259,2,62.5000023841859,0|0|0,0:0|0:0|0:0,0:0:0:0:
92,80,1570,1,2,0:0:0:0:
166,198,2195,6,0,L|158:289,2,62.5000023841859,0|0|0,0:0|0:0|0:0,0:0:0:0:
175,110,2820,1,2,0:0:0:0:
249,229,3445,6,0,L|241:320,2,62.5000023841859,0|0|0,0:0|0:0|0:0,0:0:0:0:
258,141,4070,2,0,B|361:111|354:178|457:146,2,187.500007152558,2|0|2,0:0|0:0|0:0,0:0:0:0:
300,280,5945,6,0,P|314:239|305:199,2,62.5000023841859,0|0|0,0:0|0:0|0:0,0:0:0:0:
258,357,6570,1,2,0:0:0:0:
232,228,7195,6,0,P|200:215|167:213,2,62.5000023841859,0|0|0,0:0|0:0|0:0,0:0:0:0:
182,300,7820,2,0,P|94:262|94:166,1,187.500007152558,2|0,0:0|0:0,0:0:0:0:
335,60,9070,6,0,B|375:99|434:63|434:63|369:199|414:236|451:237|451:237|480:202|476:159,1,375.000014305115,2|0,0:0|0:0,0:0:0:0:
325,235,10945,6,0,L|336:324,2,62.5000023841859,0|0|0,0:0|0:0|0:0,0:0:0:0:
230,196,11570,6,0,L|25:225,1,187.500007152558,2|0,0:0|0:0,0:0:0:0:
63,202,12820,2,0,L|263:174,1,187.500007152558,2|0,0:0|0:0,0:0:0:0:
272,162,14070,2,0,L|71:189,2,187.500007152558,2|2|2,0:0|0:0|0:0,0:0:0:0:
407,123,15945,6,0,P|418:165|404:203,2,62.5000023841859,2|0|0,0:0|0:0|0:0,0:0:0:0:
388,37,16569,1,2,0:0:0:0:
328,165,17194,6,0,P|286:176|243:163,2,62.5000023841859,0|0|0,0:0|0:0|0:0,0:0:0:0:
287,86,17820,1,2,0:0:0:0:
287,86,18445,1,0,0:0:0:0:
151,175,19070,5,2,0:0:0:0:
256,192,19174,12,8,20945,0:0:0:0:
99,93,21570,6,0,L|231:81,1,125,0|2,0:0|0:0,0:0:0:0:
373,145,22195,2,0,P|388:183|365:267,1,125,8|2,0:0|0:0,0:0:0:0:
278,321,22715,1,0,0:0:0:0:
278,321,22820,2,0,L|187:329,1,83.3333333333333,0|0,0:0|0:0,0:0:0:0:
147,353,23132,2,0,L|56:361,1,83.3333333333333,2|0,0:0|0:0,0:0:0:0:
31,316,23445,2,0,P|9:248|27:189,1,125,8|2,0:0|0:0,0:0:0:0:
88,112,23965,1,0,0:0:0:0:
88,112,24070,6,0,B|126:106|126:106|172:119|172:119|210:113,1,125,0|2,0:0|0:0,0:0:0:0:
332,220,24695,2,0,B|294:214|294:214|248:227|248:227|210:221,1,125,8|2,0:0|0:0,0:0:0:0:
95,336,25320,2,0,L|222:356,1,125,0|2,0:0|0:0,0:0:0:0:
323,331,25840,1,0,0:0:0:0:
323,331,25945,2,0,P|408:308|424:268,1,125,8|2,0:0|0:0,0:0:0:0:
463,180,26465,1,0,0:0:0:0:
463,180,26570,6,0,B|478:104|478:104|447:45,1,125,0|2,0:0|0:0,0:0:0:0:
293,53,27195,2,0,P|223:33|173:58,1,125,8|2,0:0|0:0,0:0:0:0:
88,111,27715,1,0,0:0:0:0:
88,111,27820,2,0,L|95:193,1,83.3333333333333,0|0,0:0|0:0,0:0:0:0:
126,238,28132,2,0,L|133:320,1,83.3333333333333,2|0,0:0|0:0,0:0:0:0:
179,350,28445,2,0,P|241:368|296:340,1,125,8|2,0:0|0:0,0:0:0:0:
418,239,29070,6,0,L|428:114,1,125,0|2,0:0|0:0,0:0:0:0:
324,2,29694,2,0,L|314:127,1,125,8|2,0:0|0:0,0:0:0:0:
207,149,30215,1,0,0:0:0:0:
207,149,30320,2,0,P|160:133|110:146,1,83.3333333333333,0|0,0:0|0:0,0:0:0:0:
88,175,30632,2,0,L|93:258,1,83.3333333333333,2|0,0:0|0:0,0:0:0:0:
117,307,30945,2,0,P|176:329|248:316,1,125,8|2,0:0|0:0,0:0:0:0:
319,252,31465,1,0,0:0:0:0:
319,252,31570,6,0,L|329:115,1,125,0|2,0:0|0:0,0:0:0:0:
178,62,32195,2,0,L|168:186,1,125,8|2,0:0|0:0,0:0:0:0:
226,338,32820,2,0,L|349:326,1,83.3333333333333,0|0,0:0|0:0,0:0:0:0:
363,328,33132,1,2,0:0:0:0:
454,193,33445,2,0,L|331:181,1,83.3333333333333,8|0,0:0|0:0,0:0:0:0:
317,180,33757,1,2,0:0:0:0:
254,91,33965,1,0,0:0:0:0:
254,91,34070,6,0,P|308:67|375:89,1,125,0|2,0:0|0:0,0:0:0:0:
238,181,34695,2,0,P|184:205|117:183,1,125,8|2,0:0|0:0,0:0:0:0:
23,230,35215,1,0,0:0:0:0:
23,230,35320,2,0,L|36:314,1,83.3333333333333,2|0,0:0|0:0,0:0:0:0:
68,355,35632,2,0,P|103:335|154:339,1,83.3333333333333,0|8,0:0|0:0,0:0:0:0:
193,360,35945,1,10,0:0:0:0:
331,274,36257,1,0,3:0:0:0:
189,193,36570,6,0,L|66:157,1,125,2|0,0:0|0:0,0:0:0:0:
217,90,37195,2,0,L|336:125,1,125,8|0,0:0|0:0,0:0:0:0:
180,209,37820,6,0,L|57:173,1,125,2|0,0:0|0:0,0:0:0:0:
229,79,38445,2,0,L|348:114,1,125,8|8,0:0|0:0,0:0:0:0:
450,150,38965,1,0,0:0:0:0:
450,150,39070,5,4,0:3:0:0:
256,192,39174,12,6,40945,3:0:0:0:
398,75,41570,6,0,P|346:45|260:58,1,137.500004196167,6|0,0:0|0:0,0:0:0:0:
51,66,42195,2,0,L|62:169,1,91.6666694641114,10|0,0:0|0:0,0:0:0:0:
72,229,42507,2,0,L|62:320,1,91.6666694641114,2|0,0:0|0:0,0:0:0:0:
125,357,42820,2,0,P|192:365|251:334,1,137.500004196167,2|0,0:0|0:0,0:0:0:0:
402,171,43445,2,0,B|357:158|357:158|312:171,1,91.6666694641114,10|0,0:0|0:0,0:0:0:0:
316,243,43757,2,0,B|361:256|361:256|406:243,1,91.6666694641114,2|0,0:0|0:0,0:0:0:0:
470,210,44070,6,0,L|480:109,1,91.6666694641114,10|8,0:0|0:0,0:0:0:0:
450,51,44382,1,8,0:0:0:0:
230,29,44695,2,0,L|218:169,1,137.500004196167,10|0,0:0|0:0,0:0:0:0:
87,343,45320,2,0,P|143:377|204:373,1,91.6666694641114,0|8,0:0|0:0,0:0:0:0:
239,364,45632,1,10,0:0:0:0:
457,337,45945,2,0,B|470:292|470:292|457:247,1,91.6666694641114,10|0,0:0|0:0,0:0:0:0:
421,185,46257,2,0,B|408:140|408:140|421:95,1,91.6666694641114,2|0,0:0|0:0,0:0:0:0:
466,39,46570,6,0,L|314:58,1,137.500004196167,2|0,0:0|0:0,0:0:0:0:
116,111,47195,2,0,L|212:121,1,91.6666694641114,10|0,0:0|0:0,0:0:0:0:
226,191,47507,2,0,L|129:201,1,91.6666694641114,2|0,0:0|0:0,0:0:0:0:
73,242,47820,6,0,P|59:284|73:332,1,91.6666694641114,2|8,0:0|0:0,0:0:0:0:
133,367,48132,1,8,0:0:0:0:
335,281,48445,2,0,L|474:267,1,137.500004196167,10|0,0:0|0:0,0:0:0:0:
370,71,49070,6,0,L|268:83,1,91.6666694641114,2|8,0:0|0:0,0:0:0:0:
206,89,49382,1,8,0:0:0:0:
92,278,49695,2,0,P|154:304|227:288,1,137.500004196167,8|8,0:0|0:0,0:0:0:0:
346,216,50215,1,0,0:0:0:0:
346,216,50320,2,0,L|354:310,1,91.6666694641114,8|8,0:0|0:0,0:0:0:0:
422,280,50632,2,0,L|414:188,1,91.6666694641114,10|0,0:0|0:0,0:0:0:0:
356,142,50945,2,0,L|348:50,1,91.6666694641114,10|0,0:0|0:0,0:0:0:0:
277,69,51257,2,0,L|284:160,1,91.6666694641114,2|8,0:0|0:0,0:0:0:0:
219,194,51570,6,0,P|150:177|83:205,1,137.500004196167,2|0,0:0|0:0,0:0:0:0:
252,347,52195,2,0,P|317:364|381:341,1,137.500004196167,10|0,0:0|0:0,0:0:0:0:
463,220,52715,1,8,0:0:0:0:
463,220,52820,2,0,B|482:154|482:154|463:88,1,137.500004196167,2|0,0:0|0:0,0:0:0:0:
244,120,53445,2,0,B|224:185|224:185|244:251,1,137.500004196167,10|0,0:0|0:0,0:0:0:0:
332,135,53965,1,8,0:0:0:0:
332,135,54070,6,0,P|314:72|234:34,1,137.500004196167,10|0,0:0|0:0,0:0:0:0:
75,163,54695,2,0,P|93:226|173:264,1,137.500004196167,10|0,0:0|0:0,0:0:0:0:
279,332,55215,1,8,0:0:0:0:
279,332,55320,2,0,L|427:315,1,137.500004196167,10|0,0:0|0:0,0:0:0:0:
473,103,55945,2,0,L|379:113,1,91.6666694641114,10|8,0:0|0:0,0:0:0:0:
315,142,56257,2,0,L|221:152,1,91.6666694641114,2|8,0:0|0:0,0:0:0:0:
156,182,56570,6,0,L|19:197,1,137.500004196167,6|0,0:0|0:0,0:0:0:0:
191,335,57195,2,0,P|238:346|294:318,1,91.6666694641114,10|0,0:0|0:0,0:0:0:0:
334,285,57507,2,0,P|381:274|437:302,1,91.6666694641114,2|0,0:0|0:0,0:0:0:0:
463,227,57820,2,0,L|470:126,1,91.6666694641114,10|8,0:0|0:0,0:0:0:0:
401,106,58132,2,0,L|394:197,1,91.6666694641114,8|8,0:0|0:0,0:0:0:0:
320,202,58445,2,0,L|327:101,1,91.6666694641114,10|8,0:0|0:0,0:0:0:0:
258,81,58757,2,0,L|251:172,1,91.6666694641114,8|8,0:0|0:0,0:0:0:0:
262,245,59070,5,4,0:0:0:0:
