osu file format v5

[General]
AudioFilename: Nursery Rhyme OP-true my heart.mp3
AudioLeadIn: 0
PreviewTime: -1
Countdown: 1
SampleSet: Normal
StackLeniency: 0.7
Mode: 0
LetterboxInBreaks: 1
EditorBookmarks: 47064,51072,52448,56097

[Metadata]
Title:True My Heart
Artist:Sakura Saori
Creator:Satuna
Version:Hard
Source:
Tags:

[Difficulty]
HPDrainRate:6
CircleSize:4
OverallDifficulty:4
SliderMultiplier:1.6
SliderTickRate:2

[Events]
//Background and Video events
0,0,"Nursery Rhyme.jpg"
//Break Periods
2,19722,32092
//Storyboard Layer 0 (Background)
//Storyboard Layer 1 (Failing)
//Storyboard Layer 2 (Passing)
//Storyboard Layer 3 (Foreground)
//Storyboard Sound Samples
//Background Colour Transformations
3,100,163,162,255

[TimingPoints]
690,444.444444444444,4,1,0,100,1

[Colours]
Combo1 : 88,83,18
Combo2 : 254,248,1
Combo3 : 64,200,45
Combo4 : 0,128,128

[HitObjects]
256,224,3190,2,2,B|256:128,1,80
256,96,3633,1,0
192,96,3856,1,0
64,64,4300,2,2,B|64:160,1,80
64,192,4745,1,0
64,320,5189,1,0
128,320,5411,1,0
256,320,5856,2,2,B|256:141,1,160
160,96,6745,5,0
64,96,7078,1,0
64,192,7411,2,2,B|64:288,1,80
192,256,8078,1,0
320,288,8522,2,2,B|320:128,1,140
416,64,9189,2,2,B|448:96,2,40
192,64,10300,5,0
128,64,10522,1,0
128,128,10745,1,0
128,192,10967,1,0
256,192,11411,2,2,B|352:192,1,80
384,192,11856,1,0
416,288,12300,1,0
352,288,12522,1,0
288,288,12745,1,0
256,96,13856,5,0
128,256,14300,5,0
352,256,14745,5,0
160,96,15411,2,2,B|192:128,2,40
128,160,15967,2,2,B|128:288,1,120
352,256,17189,5,0
416,256,17411,1,0
416,160,17856,1,0
352,160,18078,1,0
288,160,18300,1,0
224,160,18522,1,0
224,96,18745,2,2,B|128:96,1,80
128,160,19189,1,0
128,224,19411,2,2,B|96:256,1,40
64,128,33412,6,0,B|209:128,1,140
288,128,34078,1,0
416,128,34523,1,0
384,256,34912,2,0,B|128:256,1,240
192,96,36245,5,0
256,96,36467,1,0
256,160,36689,1,0
160,224,37356,1,0
160,288,37578,2,0,B|324:288,1,160
448,288,38523,1,0
448,160,39134,1,0
384,160,39356,1,0
224,160,40078,5,0
224,256,40523,1,0
128,256,40967,2,0,B|32:256,1,80
96,128,41856,5,0
256,128,42319,1,0
256,288,42967,2,0,B|256:120,1,160
320,128,43634,1,0
384,128,43856,1,0
384,256,44301,2,0,B|288:256,1,80
416,160,45634,5,0
352,160,45857,1,0
288,160,46079,1,0
224,160,46301,2,0,B|128:160,1,80
96,96,47634,5,0
96,224,48078,1,0
160,224,48300,1,0
288,224,48745,1,0
416,224,49189,1,0
288,320,50523,5,0
288,256,50745,1,0
288,192,50968,1,0
384,64,51578,2,0,B|281:64,1,100
160,64,52245,1,0
160,192,52690,1,0
224,128,52912,2,0,B|224:224,1,80
288,128,53356,2,0,B|288:224,1,80
352,128,53801,2,0,B|352:224,1,80
352,256,54245,5,0
224,224,54745,1,0
224,128,55189,1,0
288,128,55412,1,0
352,256,56078,2,0,B|352:88,1,160
224,96,57134,2,0,B|32:128|32:256,1,260
64,256,58078,1,0
192,256,58523,1,0
256,256,58745,1,0
352,288,59856,5,0
352,224,60078,5,0
416,224,60300,5,0
416,288,60522,5,0
352,288,60744,5,0
352,224,60967,5,8
416,224,61189,5,8
416,288,61411,5,8
352,288,61633,5,8
352,288,61856,6,8,B|352:256|512:288|256:128,1,240
160,256,63134,1,8
160,192,63356,1,8
160,128,63578,2,8,B|160:96|160:64|192:64,1,80
256,64,64023,1,8
320,64,64245,1,8
384,192,64689,5,8
320,192,64911,5,8
32,128,65356,6,8,B|0:192|224:288,1,260
224,96,66690,1,8
352,96,67134,2,8,B|384:224|224:320,1,260
448,96,68745,5,0
384,96,68967,1,0
320,96,69189,1,0
256,96,69412,1,0
192,96,69634,1,0
32,96,70078,2,2,B|199:96,1,160
64,256,71190,5,0
128,256,71412,1,0
192,256,71634,1,0
256,256,71857,1,0
320,256,72079,1,0
384,256,72301,1,0
384,128,72745,2,2,B|288:128,1,80
256,192,74023,12,4,75356
320,256,76078,5,0
256,256,76300,1,0
256,192,76522,1,0
320,192,76745,1,0
224,96,77189,2,2,B|388:97,1,160
448,256,78078,1,0
384,256,78301,1,0
320,256,78523,1,0
256,256,78745,1,0
64,256,79189,1,0
160,256,79634,6,2,B|160:111,1,140
256,128,80301,1,0
320,128,80523,1,0
224,128,80967,1,0
160,128,81412,2,2,B|160:297,1,160
224,288,82078,1,0
288,288,82301,1,0
96,128,83189,5,0
96,192,83411,1,0
96,256,83633,1,0
96,320,83856,1,0
224,320,84301,1,0
288,320,84523,1,0
352,320,84746,1,0
352,192,85190,2,2,B|352:96,1,80
256,96,85634,2,2,B|256:192,1,80
160,160,86301,1,0
64,64,86745,2,2,B|64:231,1,160
192,224,87634,1,0
320,224,88078,5,0
448,224,88523,2,2,B|448:96,1,120
352,96,89190,1,0
288,96,89412,1,0
256,224,90301,6,0,B|256:128,1,80
192,128,90744,1,0
128,128,90967,1,0
32,224,91411,2,2,B|32:320,1,80
96,288,91856,1,0
224,288,92300,1,0
288,288,92522,1,0
416,288,92967,2,2,B|416:107,1,160
288,96,93856,5,0
192,96,94189,1,0
96,96,94522,2,2,B|96:192,1,80
224,192,95189,1,0
224,288,95633,2,2,B|224:128,1,140
288,128,96300,2,2,B|320:160,2,40
96,64,97411,5,0
96,128,97633,1,0
96,192,97856,1,0
96,256,98078,1,0
224,256,98522,2,2,B|320:256,1,80
320,192,98967,1,0
448,192,99411,1,0
448,128,99633,1,0
384,128,99856,1,0
256,96,100967,5,0
128,256,101411,5,0
352,256,101856,5,0
160,96,102522,2,2,B|192:128,2,40
128,160,103078,2,2,B|128:288,1,120
352,256,104300,5,0
416,256,104522,1,0
416,128,104967,1,0
352,128,105189,1,0
288,128,105411,1,0
224,128,105633,1,0
160,128,105856,2,2,B|64:128,1,80
96,192,106300,1,0
96,256,106522,2,2,B|64:288,1,40
