osu file format v6

[General]
AudioFilename: PARTY PLAY.mp3
AudioLeadIn: 0
PreviewTime: -1
Countdown: 1
SampleSet: Normal
StackLeniency: 0.7
Mode: 0
LetterboxInBreaks: 1

[Editor]
DistanceSpacing: 0.800000011920929
BeatDivisor: 6
GridSize: 8

[Metadata]
Title:Party Play
Artist:Sakura Nogawa
Creator:whdenska
Version:Normal
Source:
Tags:

[Difficulty]
HPDrainRate:4
CircleSize:4
OverallDifficulty:4
SliderMultiplier:1.4
SliderTickRate:1

[Events]
//Background and Video events
Video,0,"Party Call!.flv"
//Break Periods
2,44219,51916
2,70364,77218
//Storyboard Layer 0 (Background)
//Storyboard Layer 1 (Fail)
//Storyboard Layer 2 (Pass)
//Storyboard Layer 3 (Foreground)
//Storyboard Sound Samples
//Background Colour Transformations
3,100,163,162,255

[TimingPoints]
9622.42497261774,722.89156626506,4,1,0,41,1,0
21386,-100,4,1,0,58,0,0
26438,-100,4,1,0,68,0,0
42993,-50,4,1,0,68,0,0
43643,-100,4,1,0,84,0,0
53074,-50,4,1,0,100,0,0
77972,-200,4,1,0,100,0,1

[Colours]
Combo1 : 255,255,255
Combo2 : 0,0,255
Combo3 : 255,0,0
Combo4 : 255,128,0
Combo5 : 255,0,255

[HitObjects]
128,136,15947,2,2,B|64:176|136:224,1,93.3333333333333
144,288,16851,2,2,B|160:320|232:352|312:336|336:280,1,210
352,224,18477,2,8,B|352:160|384:120|440:128,1,140
432,192,19923,2,8,B|440:256|432:304|392:320,1,140
72,288,21730,6,4,B|152:352|288:344,1,210
352,296,23357,1,2
480,288,23718,1,2
424,192,24321,2,8,B|384:104|304:104|272:120,1,163.333333333333
224,128,25526,2,2,B|152:128|120:192|192:208|240:208|256:208|240:224|208:224,1,186.666666666667
144,208,27152,5,4
200,328,27513,1,0
304,328,27875,1,2
352,216,28236,1,2
312,88,28598,1,2
200,88,28959,1,2
160,160,29321,1,2
192,256,29682,1,2
304,256,30044,1,2
344,160,30405,1,2
304,136,30767,1,4
256,80,30947,1,2
208,136,31128,1,2
256,192,31309,1,8
384,320,32393,5,4
344,336,32574,1,4
304,320,32754,1,4
344,272,33116,2,2,B|360:256|344:240,1,35
344,160,33658,1,8
344,160,33839,1,8
344,160,34020,1,8
344,160,34200,1,4
304,80,34742,2,0,B|256:72|216:96,1,70
192,160,35465,1,2
144,240,35827,2,8,B|152:272|184:288|216:288|248:240|272:224|296:240|304:280|320:288|400:280|392:240,1,280
400,192,38176,6,4,B|432:144|384:112,1,70
336,72,38899,2,0,B|272:80|240:120,1,105
296,184,39983,1,4
408,240,40345,1,8
328,304,40706,1,8
272,344,40887,1,8
216,312,41068,1,8
272,264,41429,2,8,B|272:240|240:200|264:176,1,70
272,152,41971,1,8
320,96,42333,1,4
216,96,42694,1,4
64,16,43116,2,2,B|424:16,1,350
168,336,53236,5,0
344,328,53598,1,0
256,272,53959,2,2,B|296:224|224:160|264:136,1,140
320,64,54682,6,4,B|392:64|400:176,1,140
448,264,55405,2,2,B|400:288|312:248,1,140
296,184,56128,2,0,B|240:176|136:216,1,140
128,272,56851,2,0,B|136:304|224:328|272:304,1,140
320,288,57574,2,4,B|352:248|272:152|328:104,1,186.666666666667
400,64,58779,6,8,B|408:144,4,70
384,176,60224,6,8,B|344:256,4,70
280,288,61309,1,0
208,240,61670,1,4
160,208,61911,2,2,B|128:176|192:144,3,70
248,112,62995,5,2
304,160,63357,1,2
360,176,63477,1,2
296,280,63718,1,4
104,112,64742,6,2,B|96:264,3,140
408,112,66188,2,2,B|416:264,3,140
352,304,67634,2,2,B|304:320|224:352|56:272,1,297.5
40,208,68538,2,0,B|32:168|64:152,2,46.6666666666667
80,208,68779,2,8,B|128:264|168:256,1,93.3333333333333
176,216,69140,2,10,B|200:248|280:256|344:184|304:128,1,210
208,56,69803,2,4,B|128:88|136:168,1,140
232,280,78538,6,4,B|288:256|240:224|232:200|240:192|272:152,1,140
304,144,80194,1,2
400,200,80465,1,0
416,256,80646,1,0
336,304,81007,1,0
280,296,81188,1,2
184,120,81550,1,4
240,88,81730,1,4
296,88,81911,1,4
