osu file format v10

[General]
AudioFilename: AikotobaTV size.mp3
AudioLeadIn: 2000
PreviewTime: 58426
Countdown: 0
SampleSet: Soft
StackLeniency: 0.7
Mode: 0
LetterboxInBreaks: 1

[Editor]
Bookmarks: 22275
DistanceSpacing: 1
BeatDivisor: 2
GridSize: 4

[Metadata]
Title:Aikotoba (TV Size)
TitleUnicode:
Artist:Sakura Merry-Men
ArtistUnicode:
Creator:S h i o n
Version:Normal
Source:Sekai Ichi Hatsukoi
Tags:boys love yaoi ending kadokawa Kiiwa toejamms Megurine Luka KanaRin
BeatmapID:193048
BeatmapSetID:41164

[Difficulty]
HPDrainRate:4
CircleSize:4
OverallDifficulty:4
ApproachRate:5
SliderMultiplier:0.8
SliderTickRate:2

[Events]
//Background and Video events
0,0,"555.jpg"
Video,0,"ED.avi"
//Break Periods
//Storyboard Layer 0 (Background)
//Storyboard Layer 1 (Fail)
//Storyboard Layer 2 (Pass)
//Storyboard Layer 3 (Foreground)
//Storyboard Sound Samples
//Background Colour Transformations
3,100,163,162,255

[TimingPoints]
506,451.807228915663,4,2,1,70,1,0
7730,454.545454545455,4,2,1,70,1,0
15457,-100,4,2,2,70,0,0
15684,-100,4,2,1,70,0,0
21366,-100,4,2,2,50,0,0
21593,-100,4,2,1,70,0,0
31820,-100,4,2,1,55,0,0
32048,-100,4,2,1,70,0,0
33184,-100,4,2,1,60,0,0
33298,-100,4,2,1,70,0,0
43639,-100,4,2,2,70,0,0
43866,-100,4,2,1,70,0,0
45911,-100,4,2,1,60,0,0
46366,-100,4,2,2,70,0,0
46593,-100,4,2,1,70,0,0
47730,-100,4,2,1,60,0,0
48184,-100,4,2,2,70,0,0
48411,-100,4,2,1,70,0,0
55002,-100,4,2,1,60,0,0
55457,-100,4,2,2,70,0,0
55684,-100,4,2,1,70,0,0
55911,-100,4,2,1,55,0,0
56366,-100,4,2,1,60,0,0
56820,-100,4,2,1,80,0,0
58435,-100,4,2,1,80,0,1
58663,454.545454545455,4,2,1,70,1,1
72981,-100,4,2,1,70,0,1
82981,-100,4,2,1,60,0,1
84799,-100,4,2,1,70,0,1
87526,-125,4,2,1,50,0,1
88208,-100,4,2,1,5,0,0

[Colours]
Combo1 : 250,250,250
Combo2 : 168,81,255
Combo3 : 255,255,81
Combo4 : 213,170,255

[HitObjects]
252,104,280,2,0,B|212:128|204:180|224:216,1,120,2|0,0:0|0:0,0:0:0
252,284,1409,1,0,0:0:0
316,332,1861,2,0,B|332:280|408:256|476:296,1,160,2|0,0:0|0:0,0:0:0
472,208,3216,5,0,0:0:0
464,168,3442,1,0,0:0:0
452,132,3668,2,0,B|428:80|436:44,2,80,2|2|0,0:0|0:0|0:0,0:0:0
380,168,5024,2,0,B|344:188|292:184|264:160,2,120,0|2|2,0:0|0:0|0:0,0:0:0
364,88,6831,2,0,B|324:60,1,40,8|0,0:0|0:0,0:0:0
256,88,7509,6,0,B|220:56|160:60|120:92,1,120,4|8,0:0|0:0,0:0:0
64,76,8639,1,0,0:0:0
80,156,9093,1,8,0:0:0
104,188,9320,1,0,0:0:0
140,200,9548,2,0,B|182:196|204:172,2,60,4|2|2,0:0|0:0|0:0,0:0:0
132,280,10684,2,0,B|112:332,1,40,8|8,0:0|0:0,0:0:0
188,356,11366,6,0,B|224:364|284:336|296:292,1,120,4|2,0:0|0:0,0:0:0
328,236,12502,2,0,B|344:184|344:184,2,40,2|8|4,0:0|0:0|0:0,0:0:0
248,248,13411,1,0,0:0:0
220,220,13639,1,8,0:0:0
256,148,14093,2,8,B|288:108|264:68,1,80,0|8,0:0|0:0,0:0:0
188,56,15002,6,0,B|136:28|68:52|56:104|76:144,1,160,4|0,0:0|0:0,0:0:0
92,192,16366,1,8,0:0:0
156,240,16820,2,0,B|208:264|248:220,1,80,2|8,0:0|0:0,0:0:0
304,200,17730,1,0,0:0:0
360,140,18184,1,8,0:0:0
312,76,18639,6,0,B|277:32|224:60,2,80,2|8|0,0:0|0:0|0:0,0:0:0
360,140,20002,2,0,B|400:112|452:116|496:160,1,120,8|2,0:0|0:0,0:0:0
468,220,21139,2,0,B|456:320,2,80,2|0|4,0:0|0:0|0:0,0:0:0
384,136,22730,6,0,B|336:112|308:60,1,80,8|0,0:0|0:0,0:0:0
288,156,23639,2,0,B|268:200|208:232|148:232,1,160,8|8,0:0|0:0,0:0:0
76,212,25002,1,0,0:0:0
104,136,25457,1,8,0:0:0
172,96,25911,6,0,B|200:56|168:16,2,80,2|8|0,0:0|0:0|0:0,0:0:0
204,172,27275,2,0,B|236:148|288:160,2,80,8|2|8,0:0|0:0|0:0,0:0:0
156,236,28639,1,0,0:0:0
88,276,29093,1,8,0:0:0
52,260,29320,1,0,0:0:0
32,224,29548,6,0,B|20:176|40:128,1,80,2|8,0:0|0:0,0:0:0
108,176,30457,1,0,0:0:0
100,96,30911,2,0,B|188:104|256:40,1,160,8|8,0:0|0:0,0:0:0
316,96,32275,2,0,B|372:88|392:40,2,80,0|8|6,0:0|0:0|0:0,0:0:0
260,152,33639,5,8,0:0:0
184,128,34093,1,0,0:0:0
244,72,34548,2,0,B|312:40|368:52|416:92,1,160,8|8,0:0|0:0,0:0:0
444,140,35911,1,0,0:0:0
408,212,36366,2,0,B|416:264|460:280,2,80,8|2|8,0:0|0:0|0:0,0:0:0
340,168,37729,6,0,B|296:148|256:176,1,80,0|8,0:0|0:0,0:0:0
184,148,38639,2,0,B|180:101|220:81,2,80,2|8|0,0:0|0:0|0:0,0:0:0
188,228,40002,1,8,0:0:0
264,260,40457,1,2,0:0:0
288,184,40911,1,8,0:0:0
344,128,41366,5,0,0:0:0
344,128,41593,1,0,0:0:0
344,128,41820,2,0,B|396:136|460:100|456:40,1,160,8|8,0:0|0:0,0:0:0
380,20,43184,2,0,B|360:56|268:76|216:44,1,160,0|4,0:0|0:0,0:0:0
156,28,44548,1,8,0:0:0
128,104,45002,6,0,B|92:204,1,80,0|8,0:0|0:0,0:0:0
56,244,45911,2,0,B|108:268|172:256|204:216,1,160,4|0,0:0|0:0,0:0:0
248,152,47275,1,8,0:0:0
248,152,47729,2,0,B|276:112|344:80|408:104,1,160,4|0,0:0|0:0,0:0:0
444,156,49093,1,8,0:0:0
428,236,49548,6,0,B|412:324,2,80,2|8|2,0:0|0:0|0:0,0:0:0
444,156,50911,1,8,0:0:0
436,116,51139,1,0,0:0:0
416,80,51366,6,0,B|372:88|336:64,1,80,4|8,0:0|0:0,0:0:0
260,80,52275,1,0,0:0:0
184,100,52729,1,8,0:0:0
144,104,52957,1,0,0:0:0
104,92,53184,2,0,B|52:100|28:72,2,80,2|8|2,0:0|0:0|0:0,0:0:0
184,100,54548,1,8,0:0:0
248,148,55002,6,0,B|320:200|300:292,1,160,4|8,0:0|0:0,0:0:0
224,316,56366,1,8,0:0:0
152,284,56820,2,0,B|96:216|144:128,1,160,2|8,0:0|0:0,0:0:0
196,24,58411,6,0,B|128:8|80:44,1,120,4|8,0:0|0:0,0:0:0
132,116,59572,1,2,0:0:0
116,152,59799,1,0,0:0:0
100,188,60026,2,0,B|93:227|36:260,2,80,8|2|8,0:0|0:0|0:0,0:0:0
132,116,61390,5,0,0:0:0
200,72,61844,2,0,B|268:60,1,40,8|2,0:0|0:0,0:0:0
296,120,62526,1,0,0:0:0
296,120,62753,2,0,B|344:124|400:88,1,80,8|0,0:0|0:0,0:0:0
420,168,63662,5,8,0:0:0
420,168,63890,2,0,B|386:201|336:196,1,80,2|0,0:0|0:0,0:0:0
308,200,64572,2,0,B|260:188,2,40,8|0|2,0:0|0:0|0:0,0:0:0
336,276,65481,2,0,B|384:288,2,40,8|0|4,0:0|0:0|0:0,0:0:0
268,320,66390,1,8,0:0:0
268,320,66617,2,0,B|200:288|128:312,1,120,0|8,0:0|0:0,0:0:0
72,324,67753,21,2,0:0:0
36,252,68208,1,8,0:0:0
52,216,68435,2,0,B|60:160|28:132,1,80
48,100,69117,2,0,B|88:44|144:64,1,80,8|2,0:0|0:0,0:0:0
188,88,70026,1,8,0:0:0
212,56,70253,1,2,0:0:0
292,48,70708,37,0,0:0:0
300,88,70935,1,8,0:0:0
332,112,71163,2,0,B|372:128|412:88,1,80,4|2,0:0|0:0,0:0:0
444,92,71844,1,8,0:0:0
468,124,72072,1,0,0:0:0
464,164,72299,2,0,B|484:208|440:256,1,80,4|0,0:0|0:0,0:0:0
416,256,72981,38,0,B|412:212|364:204|344:244|376:276,1,120,4|8,0:0|0:0,0:0:0
300,308,74117,1,2,0:0:0
232,268,74572,1,8,0:0:0
232,268,74799,2,0,B|172:288|84:284,1,120,0|8,0:0|0:0,0:0:0
56,228,75935,5,2,0:0:0
56,148,76390,1,8,0:0:0
56,148,76617,2,0,B|90:134|136:136,1,80,2|0,0:0|0:0,0:0:0
172,156,77299,2,0,B|204:208|256:164,1,80,8|2,0:0|0:0,0:0:0
312,204,78208,6,0,B|348:188,1,40,8|4,0:0|0:0,0:0:0
420,152,78890,1,0,0:0:0
440,116,79117,2,0,B|464:64|420:28,1,80,8|0,0:0|0:0,0:0:0
396,56,79799,2,0,B|348:8|268:36,1,120,8|4,0:0|0:0,0:0:0
216,72,80935,1,8,0:0:0
188,148,81390,5,0,0:0:0
228,160,81617,2,0,B|276:168|316:148,1,80,8|0,0:0|0:0,0:0:0
344,164,82299,2,0,B|364:172|392:156|396:124,2,60,4|8|0,0:0|0:0|0:0,0:0:0
316,240,83435,2,8,B|296:292,1,40
244,332,84117,5,4,0:0:0
176,292,84572,1,8,0:0:0
144,268,84799,2,0,B|120:216|84:216,2,80,4|8|4,0:0|0:0|0:0,0:0:0
216,232,86163,2,0,B|249:209,1,40,8|8,0:0|0:0,0:0:0
316,164,86844,5,2,0:0:0
328,124,87072,1,0,0:0:0
296,104,87299,1,2,0:0:0
264,108,87526,2,0,B|228:128|228:128|184:120|148:124,1,96
