osu file format v9

[General]
AudioFilename: Aishi o wataru wa tasogare zo.mp3
AudioLeadIn: 1004
PreviewTime: 76778
Countdown: 0
SampleSet: Soft
StackLeniency: 0.4
Mode: 0
LetterboxInBreaks: 0

[Editor]
DistanceSpacing: 0.9
BeatDivisor: 4
GridSize: 8

[Metadata]
Title:Aishi o Wataru wa Tasogare zo
Artist:Sakura Kanae, Kino Yasushi
Creator:Azure_Kite
Version:Normal
Source:Higanbana no Saku Yoru ni
Tags:dai horror VN

[Difficulty]
HPDrainRate:6
CircleSize:4
OverallDifficulty:3
ApproachRate:6
SliderMultiplier:1.6
SliderTickRate:1

[Events]
//Background and Video events
Video,0,"higan.avi"
0,0,"higanbana_usethisone.jpg"
//Break Periods
//Storyboard Layer 0 (Background)
//Storyboard Layer 1 (Fail)
//Storyboard Layer 2 (Pass)
//Storyboard Layer 3 (Foreground)
//Storyboard Sound Samples
//Background Colour Transformations
3,100,163,162,255

[TimingPoints]
10178,600,4,2,1,30,1,0
67478,-80,4,2,1,30,0,0
77378,-80,4,2,1,30,0,1
94178,-133.333333333333,4,2,1,30,0,0

[Colours]
Combo1 : 40,85,83
Combo2 : 138,0,3
Combo3 : 45,45,45
Combo4 : 62,0,85
SliderTrackOverride : 150,0,0

[HitObjects]
96,72,10178,2,0,B|168:152,1,80,0|2
280,72,11078,2,0,B|208:152,1,80,2|0
184,192,11678,2,0,B|184:256,3,40
256,312,12578,5,0
312,264,12878,1,2
376,232,13178,1,0
440,192,13478,1,2
376,152,13778,1,0
312,120,14078,1,0
256,72,14378,1,0
200,120,14678,2,0,B|160:160,2,40
256,72,15278,6,0,B|344:40|424:80,1,160,2|2
464,128,16178,1,0
416,192,16478,2,0,B|328:192,2,80
464,256,17378,1,0
408,304,17678,1,2
344,344,17978,1,0
280,304,18278,1,2
224,256,18578,2,0,B|136:208|168:112,2,160,0|0|4
360,256,20378,6,0,B|448:208|416:112,1,160,0|2
384,24,21428,2,0,B|320:32|296:88|312:112,1,120
296,176,22178,2,0,B|272:272|168:264,2,160,2|2|2
192,72,23978,5,2
120,56,24278,1,0
72,112,24578,2,0,B|32:176|64:248|144:256,1,160,4|0
176,216,25478,1,0
240,248,25778,2,0,B|283:249|315:177|275:113,1,160,2|0
224,64,26678,1,0
224,64,26978,5,2
88,112,27578,2,0,B|64:184|144:216|192:192,1,160,2|0
176,120,28478,2,0,B|192:64|120:16|72:32,1,160,2|0
88,112,29378,6,0,B|56:208|120:288,2,160,4|2|2
232,128,31178,2,0,B|296:112|352:184|288:256,2,160,0|2|2
104,192,32978,1,4
256,344,33878,5,0
312,296,34178,1,2
256,248,34478,1,2
312,200,34778,1,0
256,152,35078,1,2
200,104,35378,1,2
256,56,35678,1,0
256,192,36278,12,4,38378
192,96,39578,6,0,B|248:80|256:48|256:48|264:80|328:96,1,160,0|2
408,144,40628,2,0,B|376:216|280:200,1,120
240,200,41378,2,0,B|168:240|192:328|240:352,3,160,2|2|2|2
288,360,43478,5,0
336,304,43778,2,0,B|392:248|352:176,2,120,2|0|0
264,304,44978,2,0,B|264:144,1,160,4|0
216,88,45878,1,0
160,136,46178,6,0,B|88:184|0:136,2,160,2|0|2
216,88,47678,2,0,B|256:56,1,40,0|2
400,152,48578,6,0,B|384:248|280:248,2,160,0|2|2
360,96,50078,2,0,B|266:95|250:191,1,160
248,264,50978,2,0,B|224:320|152:320|120:304,2,120,2|2|0
256,192,52178,2,0,B|272:152|384:152|400:192,2,160,4|0|2
208,248,53678,5,0
136,248,53978,1,2
96,184,54278,1,0
136,120,54578,1,2
208,120,54878,2,0,B|304:112|320:16,1,160,2|0
256,192,55778,12,4,58178
120,192,58778,6,0,B|120:136|176:112,2,80,0|0|2
256,240,59978,2,0,B|256:152,1,80,0|2
256,88,60578,2,0,B|344:88|376:184,1,160
392,248,61478,1,0
336,296,61778,1,2
272,328,62078,1,2
200,328,62378,1,0
136,296,62678,1,2
80,248,62978,1,4
136,200,63278,6,0,B|184:184|192:128,3,80,0|2|0|0
192,72,64478,2,0,B|192:24,1,40,0|2
280,88,65078,5,0
336,136,65378,1,2
280,184,65678,1,0
336,232,65978,2,0,B|344:280|400:280,2,80,2|2|2
256,112,67178,5,4
96,192,67778,5,2
256,272,68378,2,0,B|256:216,2,49.999999254942,2|0|0
328,328,68978,2,0,B|416:296|416:200|360:152,1,199.999997019768,2|2
304,112,69878,1,0
216,88,70178,6,0,B|144:80|104:136,1,99.9999985098839,2|0
64,184,70778,2,0,B|24:232,2,49.999999254942,2|0|0
120,112,71378,2,0,B|160:192|240:192|288:160,2,199.999997019768,2|2|2
192,64,72878,5,0
280,40,73178,1,2
368,64,73478,1,0
424,136,73778,2,0,B|432:192|384:240,3,99.9999985098839,2|0|2|0
328,288,74978,6,0,B|264:208,1,99.9999985098839,6|0
192,264,75578,2,0,B|88:224,1,99.9999985098839,2|0
72,312,76178,2,0,B|-16:272|-8:192|32:136,1,199.999997019768,4|0
224,64,77378,6,0,B|144:144,2,99.9999985098839,4|0|0
280,136,78278,1,0
328,208,78578,2,4,B|312:272|224:272|216:192,2,149.999997764826,4|4|4
336,120,79778,5,0
352,32,80078,2,0,B|400:43|448:80|424:152,2,149.999997764826,2|2|4
184,96,81578,5,0
256,152,81878,1,2
328,96,82178,2,0,B|392:144|368:240,2,149.999997764826,2|2|0
304,184,83378,2,0,B|256:248|160:224,2,149.999997764826,2|2|0
216,160,84578,2,0,B|152:112|176:16,2,149.999997764826,4|4|2
304,128,85778,2,0,B|378:191|332:266|283:302|200:299|154:206,1,299.999995529652,4|0
160,144,86978,6,0,B|86:127|29:206|92:279,1,199.999997019768,2|2
176,288,87878,1,0
216,208,88178,1,2
248,128,88478,2,0,B|296:56|376:64,2,149.999997764826,2|2|4
80,192,89978,5,0
144,256,90278,1,2
208,192,90578,1,2
256,272,90878,1,0
304,192,91178,1,2
368,256,91478,1,2
432,192,91778,2,0,B|440:104|376:56|280:64,1,199.999997019768,4|4
256,136,92678,5,0
208,56,92978,1,2
128,96,93278,1,0
48,136,93578,1,2
120,192,93878,1,2
48,248,94178,2,0,B|48:320|128:344,2,119.999996423721,2|2|4
256,192,96878,12,0,103928
