osu file format v9

[General]
AudioFilename: Aishi o wataru wa tasogare zo.mp3
AudioLeadIn: 1004
PreviewTime: 76778
Countdown: 0
SampleSet: Soft
StackLeniency: 0.4
Mode: 0
LetterboxInBreaks: 0

[Editor]
DistanceSpacing: 1
BeatDivisor: 4
GridSize: 8

[Metadata]
Title:Aishi o Wataru wa Tasogare zo
Artist:Sakura Kanae, Kino Yasushi
Creator:Azure_Kite
Version:Easy
Source:Higanbana no Saku Yoru ni
Tags:dai horror VN

[Difficulty]
HPDrainRate:3
CircleSize:3
OverallDifficulty:2
ApproachRate:5
SliderMultiplier:1.3
SliderTickRate:1

[Events]
//Background and Video events
Video,0,"higan.avi"
0,0,"higanbana_usethisone.jpg"
//Break Periods
//Storyboard Layer 0 (Background)
//Storyboard Layer 1 (Fail)
//Storyboard Layer 2 (Pass)
//Storyboard Layer 3 (Foreground)
//Storyboard Sound Samples
//Background Colour Transformations
3,100,163,162,255

[TimingPoints]
10178,600,4,2,1,30,1,0
67478,-80,4,2,1,30,0,0
77378,-80,4,2,1,30,0,1
94178,-133.333333333333,4,2,1,30,0,0

[Colours]
Combo1 : 40,85,83
Combo2 : 138,0,3
Combo3 : 45,45,45
Combo4 : 62,0,85
SliderTrackOverride : 150,0,0

[HitObjects]
80,80,10178,1,0
152,272,11378,1,2
256,248,11978,1,0
360,272,12578,1,0
432,80,13778,1,2
348,192,14978,6,0,B|332:272|252:296|172:271|164:172,2,260,0|2|0
256,144,17978,1,0
166,90,18578,2,0,B|182:10|262:-14|342:11|350:110,2,260,0|2|0
256,152,21578,5,0
160,192,22178,2,0,B|152:264|232:312,2,130,0|0|2
368,192,24578,6,0,B|360:120|280:96,2,130,0|0|2
256,368,26978,2,0,B|256:232,1,130
256,136,28178,1,2
256,136,28478,1,0
112,80,29378,6,0,B|40:120|64:200,2,130,0|0|2
192,152,31178,2,0,B|288:248,1,130
360,312,32378,2,0,B|432:272|408:192,2,130,0|2|0
256,288,34178,6,0,B|168:288,2,65
256,184,35378,2,0,B|256:112,1,65,0|2
256,192,36578,12,4,38978
192,104,39578,6,0,B|352:104,2,130
152,144,41078,1,0
112,184,41378,2,0,B|104:272|192:304,3,130,2|2|0|2
272,288,43778,6,0,B|360:288|376:216,2,130,0|2|4
280,184,45578,1,0
288,80,46178,2,0,B|200:80|184:152,2,130,2|0|0
392,96,47978,1,4
440,192,48578,6,0,B|400:256|320:256,3,130,0|2|2|0
228,255,50978,1,0
144,192,51578,1,2
144,192,51878,1,0
144,192,52178,1,4
352,192,53378,5,2
256,144,53978,1,2
160,192,54578,1,2
256,192,55778,12,4,58178
256,192,59378,5,2
72,104,60578,5,0
128,192,61178,1,0
72,280,61778,1,2
168,320,62378,1,0
256,256,62978,5,0
344,320,63578,2,0,B|408:296|424:216,1,130,0|2
424,120,64778,1,0
328,72,65378,5,0
256,152,65978,1,0
256,152,66278,1,0
256,152,66578,1,2
256,256,67178,1,4
144,192,67778,5,2
144,64,68378,2,0,B|184:32|224:64,2,81.2499987892807,2|0|2
144,192,69578,1,2
272,192,70178,1,2
400,192,70778,2,0,B|432:232|400:272,2,81.2499987892807,2|0|2
272,192,71978,1,2
272,320,72578,5,2
168,248,73178,1,2
64,320,73778,1,2
40,192,74378,1,2
160,232,74978,2,0,B|248:200,4,81.2499987892807,4|0|4|0|4
416,192,77378,5,4
336,88,77978,1,2
256,192,78578,1,4
176,88,79178,1,2
96,192,79778,2,0,B|104:280|208:304,3,162.499997578561,2|2|4|2
329,301,82178,5,2
408,192,82778,1,0
329,83,83378,1,2
256,192,83978,1,0
184,80,84578,1,4
104,192,85178,2,0,B|104:280|200:312,2,162.499997578561,4|4|2
172,81,86978,6,0,B|348:81,2,162.499997578561,4|0|2
192,208,88778,1,0
256,208,89078,1,2
320,208,89378,2,0,B|488:208,2,162.499997578561,4|0|2
256,320,91178,2,0,B|168:320,1,81.2499987892807,2|0
112,320,91778,2,0,B|24:264|48:160,3,162.499997578561,4|0|2|2
144,184,94178,6,0,B|256:184,2,97.4999970942737,2|2|4
256,192,95978,12,0,103928
