osu file format v9

[General]
AudioFilename: Realize.mp3
AudioLeadIn: 0
PreviewTime: 65382
Countdown: 0
SampleSet: Soft
StackLeniency: 0.4
Mode: 0
LetterboxInBreaks: 1

[Editor]
DistanceSpacing: 1.2
BeatDivisor: 4
GridSize: 4

[Metadata]
Title:Realize
Artist:Sakura Fumi
Creator:Snowy Dream
Version:Scarlet
Source:Touhou
Tags:flandre scarlet re:alize karenying OnosakiHito paranoia paradox

[Difficulty]
HPDrainRate:6
CircleSize:4
OverallDifficulty:7
ApproachRate:7
SliderMultiplier:1.4
SliderTickRate:2

[Events]
//Background and Video events
0,0,"BG.jpg"
//Break Periods
2,87324,97071
2,141561,148597
//Storyboard Layer 0 (Background)
//Storyboard Layer 1 (Fail)
//Storyboard Layer 2 (Pass)
//Storyboard Layer 3 (Foreground)
//Storyboard Sound Samples
//Background Colour Transformations
3,100,163,162,255

[TimingPoints]
11192,338.983050847458,4,2,0,80,1,0
65427,-100,4,2,0,80,0,1
87122,-100,4,2,0,80,0,0
119240,-100,4,2,0,5,0,0
119664,-100,4,2,0,80,0,1
141359,-100,4,2,0,80,0,0
150591,-100,4,2,0,5,0,0
150760,-100,4,2,0,80,0,0
163047,338.983050847458,5,2,0,80,1,0
176604,338.983050847458,4,2,0,80,1,0
198298,-100,4,2,0,80,0,1
219988,338.983050847458,5,2,0,80,1,0

[Colours]
Combo1 : 255,154,2
Combo2 : 0,240,240
Combo3 : 255,0,50
Combo4 : 255,55,255

[HitObjects]
104,104,11191,6,0,B|48:152|40:228,2,140,2|8|0
260,164,12208,1,8
340,140,12378,1,0
260,164,12547,1,0
328,316,12886,1,8
160,316,13225,2,0,B|172:280|208:268,2,70,0|0|8
424,244,13903,6,0,B|464:176|424:112,2,140,0|8|0
256,224,14920,2,0,B|216:224|188:200,1,70,8|0
216,124,15259,2,0,B|181:104|169:69,1,70
252,48,15598,2,0,B|286:68|298:102,1,70,8|0
368,52,15937,2,0,B|387:86|381:122,2,70,0|0|8
108,328,16615,5,4
56,168,16954,2,0,B|80:136|116:132,1,70,8|0
352,216,17463,2,0,B|328:248|292:252,1,70,0|8
128,236,17971,1,0
212,252,18141,2,0,B|216:272|232:288,2,35,0|0|8
256,180,18480,2,0,B|280:148|320:140,1,70
388,104,18819,1,0
448,164,18988,1,8
176,72,19327,6,0,B|148:136|180:212,1,140,0|8
236,132,19836,2,0,B|172:160|96:128,1,140
24,168,20344,2,0,B|20:248|64:304,1,140,8|0
120,360,20853,2,0,B|108:376|92:384,2,35,0|0|8
196,320,21191,1,0
280,308,21361,2,0,B|316:300|356:276,2,70,0|0|8
316,52,22039,6,0,B|348:120,1,70,4|0
196,320,22547,2,0,B|164:252,1,70,2|0
420,272,23056,1,2
420,272,23225,1,0
192,160,23564,1,2
124,108,23734,2,0,B|92:132|72:160,2,70,8|0|0
292,92,24412,1,8
360,324,24751,5,2
360,324,24920,1,0
212,248,25259,2,0,B|180:272|144:284,2,70,2|0|0
260,180,25768,1,8
428,172,26107,2,0,B|468:164|500:144,2,70,0|2|8
352,132,26615,1,0
404,68,26785,2,0,B|372:40,4,35,2|0|0|0|8
56,240,27463,5,2
56,240,27632,1,0
204,324,27971,2,0,B|232:300|240:264,1,70,2|0
220,96,28480,2,0,B|192:120|184:156,1,70,8|0
348,192,28988,1,2
400,260,29158,1,8
348,192,29327,1,0
392,120,29497,1,0
348,192,29666,1,0
264,192,29836,2,0,B|232:208|196:192,2,70,8|0|2
308,120,30344,5,0
144,76,30683,1,2
72,124,30853,1,0
108,288,31192,1,2
108,288,31361,1,0
280,300,31700,2,0,B|320:304|360:296,2,70,2|8|0
324,228,32208,5,0
368,156,32378,1,0
312,92,32547,1,8
232,124,32717,1,0
236,208,32886,1,4
121,89,33225,5,8
121,89,33395,1,0
49,133,33564,2,0,B|25:165|29:201,2,70,0|0|8
105,197,34073,1,0
105,197,34242,1,0
228,320,34581,1,8
396,320,34920,2,0,B|428:300|436:264,2,70,0|0|8
328,268,35429,1,0
328,268,35598,1,0
364,104,35937,6,0,B|388:72|384:36,2,70,8|0|0
196,124,36615,1,8
56,316,36954,1,0
68,232,37124,1,0
136,296,37293,1,8
192,236,37463,1,0
216,316,37632,2,0,B|284:292|360:316,2,140,0|8|4
244,44,38649,5,8
396,120,38988,1,0
396,120,39158,1,0
396,120,39327,1,8
304,260,39666,2,0,B|292:296|264:320,1,70
216,252,40005,2,0,B|187:277|154:283,1,70,8|0
140,200,40344,2,0,B|102:207|70:196,2,70,0|0|8
272,100,41022,6,0,B|344:80|412:112,1,140,0|8
300,240,41700,2,0,B|228:260|160:228,1,140,0|8
120,68,42378,1,0
256,192,42547,12,4,43734
184,252,44073,6,0,B|176:288|192:324,2,70,8|0|0
296,128,44751,1,8
456,180,45090,1,0
456,264,45259,1,0
384,224,45429,2,0,B|368:256|368:292,1,70,8|0
284,288,45768,1,0
208,320,45937,1,0
132,280,46107,1,8
204,76,46446,6,0,B|236:140|212:216,1,140,0|8
296,216,46954,1,0
352,280,47124,1,0
460,152,47463,1,0
316,64,47802,5,0
268,132,47971,1,0
260,216,48141,1,8
288,296,48310,1,0
360,340,48480,1,0
360,340,48819,1,0
436,192,49158,5,4
296,96,49497,1,8
244,160,49666,1,0
268,240,49836,1,0
116,316,50175,2,0,B|80:300|56:268,2,70,8|0|0
284,336,50853,1,8
160,224,51191,1,0
160,224,51361,1,0
160,224,51530,1,8
56,92,51869,6,0,B|28:64|32:24,2,70,0|0|8
332,160,52547,2,0,B|360:188|356:228,2,70,0|0|8
196,60,53225,1,0
232,136,53395,1,2
224,304,53734,1,0
180,232,53903,1,2
332,160,54242,2,0,B|312:192|280:208,2,70,8|0|0
80,100,54920,5,8
156,64,55090,1,0
232,100,55259,1,0
360,208,55598,2,0,B|392:184|412:144,2,70,8|0|0
192,208,56276,1,8
332,116,56615,1,0
284,184,56785,1,0
300,268,56954,1,8
120,320,57293,1,0
96,152,57632,6,0,B|60:168|24:152,2,70,8|0|0
248,76,58310,1,8
328,224,58649,1,0
372,152,58819,1,0
452,168,58988,1,8
464,252,59158,1,0
388,284,59327,1,0
236,208,59666,6,0,B|260:276|228:344,2,140,8|4|8
96,112,60683,1,0
260,80,61022,1,8
368,208,61361,1,0
288,228,61530,2,0,B|276:264|288:304,1,70,0|8
204,308,61869,2,0,B|172:332|136:324,1,70
64,284,62208,2,0,B|40:252|40:212,1,70,0|8
312,152,62717,5,0
56,88,63056,1,8
56,88,63225,1,0
56,88,63395,1,0
220,60,63734,1,8
376,120,64073,2,0,B|408:168|400:228,1,105
436,240,64412,2,0,B|439:297|402:345,1,105,8|0
372,352,64751,5,0
340,364,64836,1,0
304,364,64920,1,0
272,352,65005,1,0
244,332,65090,1,0
212,320,65175,1,0
176,324,65259,1,0
144,340,65344,1,0
128,372,65429,1,4
264,100,65768,6,0,B|232:76|224:32,2,70,2|0|0
352,244,66446,1,8
440,108,66785,1,0
432,192,66954,1,0
364,144,67124,1,2
440,108,67293,1,0
428,280,67463,2,0,B|448:312|448:348,2,70,0|0|8
184,288,68141,5,0
72,340,68310,2,0,B|32:340|4:332,2,70,0|2|0
140,232,68819,1,0
256,284,68988,1,0
256,284,69073,1,0
256,284,69158,1,8
376,120,69327,6,0,B|392:84|380:44,2,70
380,204,69836,2,0,B|419:199|447:169,2,70,2|0|0
344,280,70344,1,0
268,320,70514,2,0,B|236:300|172:336|128:320,1,140,8|4
80,160,71192,5,8
380,96,71530,1,0
208,80,71869,1,8
236,244,72208,2,0,B|300:280|344:284,1,105
368,280,72547,1,2
392,200,72717,1,0
308,188,72886,2,0,B|296:152|312:116,2,70,0|0|8
88,124,73564,6,0,B|124:124|156:144,1,70
184,264,73903,2,0,B|148:264|116:244,1,70,2|0
16,172,74242,2,0,B|8:212|20:248,1,70
20,280,74497,1,0
36,312,74581,2,0,B|56:340|96:356,1,70,8|0
312,324,74920,6,0,B|356:352|404:352|444:324,1,140,0|8
464,244,75429,1,0
380,260,75598,2,0,B|336:232|288:232|248:260,1,140,0|8
220,340,76107,1,0
220,340,76276,1,4
224,72,76615,5,2
148,220,76954,1,0
128,52,77293,1,8
244,172,77632,1,0
80,144,77971,1,2
80,144,78141,1,0
80,144,78310,1,0
40,216,78480,1,0
76,292,78649,2,0,B|128:336|204:352,1,140,8|0
328,340,79158,5,0
436,276,79327,1,2
432,148,79497,1,0
328,80,79666,1,0
328,208,79836,1,0
328,208,79920,1,0
328,208,80005,1,8
224,208,80175,1,0
196,60,80344,6,0,B|156:68|136:96,1,70
156,176,80683,1,8
28,80,80853,2,0,B|20:116|28:152,1,70
80,216,81192,1,0
80,216,81361,1,8
376,300,81700,6,0,B|412:312|436:344,2,70,4|0|8
280,160,82378,2,0,B|308:134|348:130,2,70,0|0|8
112,152,83056,1,0
108,236,83225,1,0
176,288,83395,1,8
108,236,83564,1,0
112,152,83734,2,0,B|92:120|56:112,2,70,0|0|8
260,72,84412,5,0
412,336,84751,1,8
452,264,84920,1,0
400,200,85090,1,0
324,232,85259,1,0
324,232,85344,1,0
324,232,85429,1,8
328,316,85598,1,0
248,284,85768,5,0
228,312,85853,1,0
200,336,85937,1,0
164,336,86022,1,0
132,320,86107,1,0
120,288,86192,1,0
128,256,86276,1,0
144,224,86361,1,0
168,200,86446,5,0
188,172,86530,1,0
180,136,86615,1,0
168,104,86700,1,0
140,84,86785,1,0
104,88,86869,1,0
84,116,86954,1,0
88,152,87039,1,0
116,172,87124,1,4
120,128,97971,6,0,B|192:104|260:124,1,140,4|8
284,204,98480,1,0
200,184,98649,2,0,B|176:112|196:44,1,140,0|8
280,40,99158,1,0
352,80,99327,2,0,B|388:92|416:116,1,70
372,188,99666,2,0,B|388:221|391:258,1,70,8|0
312,280,100005,2,0,B|300:316|276:344,2,70,0|0|8
140,156,100683,6,0,B|100:84|20:88,2,140,0|8|0
304,196,101700,1,8
256,128,101869,1,0
340,120,102039,2,0,B|392:128|396:184|456:196,2,140,0|8|0
220,204,102886,1,0
272,272,103056,1,8
456,252,103395,6,0,B|448:292|464:328,2,70,4|0|8
344,124,104073,2,0,B|352:84|336:48,2,70,0|0|8
176,152,104751,2,0,B|124:200|140:284,1,140,0|8
224,300,105259,1,0
280,240,105429,1,0
280,240,105598,1,0
348,288,105768,2,0,B|420:324|484:284,2,140,8|0|8
408,228,106615,6,0,B|420:192|408:160,2,70
336,184,107124,2,0,B|316:104|240:84,2,140,8|0|8
252,176,107971,1,0
168,172,108141,1,0
156,204,108225,1,0
156,240,108310,1,0
168,272,108395,1,0
196,292,108480,2,0,B|220:308,8,17.5,0|0|0|0|0|0|0|0|4
356,292,109158,6,0,B|388:272|396:236,2,70,8|0|0
476,172,109836,1,8
308,176,110175,1,0
368,116,110344,1,0
452,112,110514,2,0,B|448:68|424:40,1,70,8|0
344,48,110853,2,0,B|310:19|273:16,1,70
256,96,111192,2,0,B|184:120|160:196,1,140,8|0
60,56,111869,6,0,B|96:64|120:96,2,70,8|0|0
56,228,112547,1,8
172,352,112886,2,0,B|240:340|280:344,2,105,0|0|0
212,276,113564,2,2,B|264:216|264:144,1,140,2|8
432,156,114242,5,4
296,56,114581,1,2
324,220,114920,1,0
324,220,115090,1,0
324,220,115259,1,8
436,344,115598,2,0,B|412:372|372:376,1,70
256,300,115937,2,0,B|280:328|320:332,1,70,8|0
132,292,116276,2,0,B|156:264|196:260,1,70
260,212,116615,1,8
172,68,116954,6,0,B|208:112|264:92|296:136,2,140,2|8|0
336,20,117971,1,8
372,96,118141,1,0
368,180,118310,2,0,B|376:172|376:172|384:180|384:180|392:172|392:172|400:180|400:180|408:172|408:172|416:180|416:180|424:172|424:172|432:180|432:180|440:172|440:172|448:180|448:180|456:172|456:172|464:180|464:180|472:172|472:172|480:180,1,140,2|0
420,248,118819,1,0
376,320,118988,2,0,B|316:364|244:360,1,140
256,192,119666,5,4
104,120,120005,1,8
120,288,120344,1,0
288,288,120683,2,0,B|264:320|232:336,2,70,8|0|0
452,244,121361,1,8
440,160,121530,1,0
384,96,121700,2,0,B|360:68|320:68,2,70,0|0|8
372,264,122378,6,0,B|368:304|340:328,1,70
264,212,122717,2,0,B|267:251|293:273,1,70,8|0
312,136,123056,1,0
228,132,123225,2,0,B|216:120|192:124,2,35,0|0|8
216,48,123564,1,0
132,44,123734,2,0,B|96:60|80:96,1,70
96,176,124073,2,0,B|81:212|96:249,1,70,8|0
180,248,124412,2,0,B|195:284|231:300,2,70,0|0|8
464,160,125090,6,0,B|480:124|476:84,2,70,4|0|8
296,136,125768,2,0,B|280:172|284:212,2,70,0|0|8
388,276,126446,1,0
320,324,126615,2,0,B|340:356|384:360,2,70,0|8|0
268,260,127124,1,0
204,316,127293,2,0,B|180:340,2,35,0|0|8
76,176,127802,6,0,B|72:136|84:108,1,70
160,148,128141,2,0,B|164:188|152:216,1,70,8|0
80,260,128480,1,0
132,324,128649,1,0
132,324,128734,1,0
132,324,128819,1,8
204,284,128988,1,0
276,244,129158,6,0,B|312:264|340:240|380:260,2,105,2|2|0
324,172,129836,2,0,B|340:136|336:100,2,70,2|0|8
172,96,130514,6,0,B|136:116|136:116|108:100|76:116|76:116|40:96,1,140,4|8
152,228,131192,2,0,B|144:268|112:288,2,70,0|0|8
296,316,131869,2,0,B|360:352|432:340,1,140,0|8
428,256,132378,1,0
368,196,132547,2,0,B|336:216|324:248,2,70,0|0|8
476,68,133225,6,0,B|412:36,1,70,0|0
356,100,133564,2,0,B|296:139,1,70,8|0
228,92,133903,1,0
152,132,134073,2,0,B|120:112,2,35,0|0|8
228,168,134412,1,0
228,252,134581,2,0,B|228:320,2,70,0|0|8
308,280,135090,1,0
368,220,135259,2,0,B|416:268,2,70,0|0|8
104,212,135937,6,0,B|68:204|40:176,2,70,4|0|8
232,324,136615,2,0,B|224:360|196:388,2,70,0|0|8
292,168,137293,1,0
368,132,137463,2,0,B|400:148,2,35,0|0|8
296,84,137802,2,0,B|256:80|220:88,2,70
376,56,138310,1,8
368,224,138649,6,0,B|396:288,1,70
312,284,138988,2,0,B|304:353,1,70,8|0
232,312,139327,1,0
148,304,139497,2,0,B|128:332,2,35,0|0|8
196,236,139836,1,0
132,180,140005,2,0,B|104:128|52:116,2,105,2|2|0
56,216,140683,2,0,B|48:252|56:288,2,70,2|0|8
188,112,141361,5,4
256,192,149497,12,0,150683
380,156,150853,6,0,B|416:144,2,35,0|0|0
320,96,151192,2,0,B|340:56,2,35,8|0|0
236,92,151530,1,0
208,68,151615,1,0
172,60,151700,1,0
140,72,151785,1,0
116,96,151869,1,8
76,260,152208,6,0,B|56:300|12:328,2,93.3333333333333,2|0|0
184,296,152886,1,8
256,252,153056,1,0
256,252,153141,1,0
256,252,153225,1,0
332,288,153395,1,0
372,364,153564,6,0,B|412:332|420:284,2,93.3333333333333,2|0|0
264,332,154242,2,0,B|236:356|200:360,1,70,8|0
328,208,154581,2,0,B|356:184|392:180,1,70,8|0
420,100,154920,5,4
344,68,155090,1,0
344,68,155175,1,0
344,68,155259,1,8
268,100,155429,1,0
184,104,155598,2,0,B|192:160|240:180,2,93.3333333333333,8|0|0
88,160,156276,6,0,B|44:220,1,70,2|0
112,272,156615,2,0,B|123:345,1,70,8|0
196,304,156954,2,0,B|288:360,2,105,2|0|0
264,252,157632,6,0,B|232:212|180:220,2,93.3333333333333,4|0|0
376,268,158310,2,0,B|396:220|452:224|464:152,1,140,8|0
380,148,158819,1,0
380,148,158903,1,0
380,148,158988,1,2
316,92,159158,1,0
232,108,159327,1,8
316,92,159497,1,0
296,172,159666,2,0,B|280:204|244:216,2,70,0|0|8
132,208,160344,6,0,B|136:256|168:296,2,93.3333333333333,2|0|0
44,136,161022,1,0
88,64,161192,1,0
160,104,161361,1,8
160,104,161530,1,0
212,168,161700,6,0,B|244:220|296:232,1,105,2|0
320,240,162039,1,8
384,184,162208,1,0
428,256,162378,2,0,B|432:296|468:320,2,70,0|0|8
400,92,163047,5,0
380,92,163131,1,0
360,92,163216,1,0
340,92,163301,1,0
320,92,163385,1,0
300,92,163470,1,0
280,92,163555,5,0
260,92,163640,1,0
240,92,163724,1,0
220,92,163809,1,0
200,92,163894,1,0
180,92,163979,1,0
160,92,164063,1,4
104,156,164318,1,4
164,212,164572,1,4
128,288,164741,6,0,B|160:312,3,35
196,316,165080,2,0,B|235:320,3,35
272,320,165419,2,0,B|308:304,3,35
336,280,165758,2,0,B|368:232|348:176,2,105,4|4|4
272,224,166436,5,0
252,212,166521,1,0
240,196,166606,1,0
236,176,166691,1,0
240,156,166775,1,0
252,140,166860,1,0
268,128,166945,5,0
288,120,167030,1,0
300,104,167114,1,0
304,84,167199,1,0
304,64,167284,1,0
292,48,167369,1,0
272,40,167453,1,4
152,84,167708,1,4
152,84,167962,1,4
104,156,168131,6,0,B|72:184,3,35
72,220,168470,2,0,B|58:260,3,35
76,292,168809,2,0,B|84:333,3,35
112,356,169148,2,0,B|164:376|224:364,2,105,4|4|4
156,284,169826,5,0
176,276,169911,1,0
196,272,169996,1,0
216,276,170080,1,0
236,280,170165,1,0
256,288,170250,1,0
276,296,170335,5,0
296,300,170419,1,0
316,300,170504,1,0
336,296,170589,1,0
356,288,170674,1,0
376,280,170758,1,0
396,280,170843,1,4
479,185,171097,1,4
400,88,171352,1,4
316,92,171521,6,0,B|304:128,3,35
292,164,171860,2,0,B|263:189,3,35
236,220,172199,2,0,B|198:227,3,35
160,232,172538,2,0,B|104:232|60:188,2,105,4|4|4
140,152,173216,5,0
144,132,173301,1,0
156,116,173385,1,0
172,100,173470,1,0
192,92,173555,1,0
212,84,173640,1,0
232,80,173724,5,0
252,80,173809,1,0
272,84,173894,1,0
292,92,173979,1,0
312,100,174063,1,0
324,116,174148,1,0
336,136,174233,1,4
428,220,174487,1,4
308,260,174741,1,4
224,268,174911,6,0,B|232:308,3,35
188,308,175250,2,0,B|174:346,3,35
136,328,175589,2,0,B|105:354,3,35
80,324,175928,2,0,B|36:292|28:236,2,105,4|4|4
120,252,176604,6,0,B|128:208|120:176,1,70,4|0
196,144,176942,2,0,B|188:188|196:220,1,70,8|0
268,172,177281,2,0,B|304:164|332:140,1,70
340,56,177620,2,0,B|304:64|276:88,2,70,8|0|0
408,108,178129,1,0
472,164,178298,1,8
392,192,178468,1,0
352,264,178637,2,0,B|360:304|380:336,1,70
292,324,178976,2,0,B|284:284|264:252,1,70,8|0
208,320,179315,6,0,B|132:336,1,70
92,264,179654,2,0,B|168:248,1,70,8|0
108,184,179993,2,0,B|112:148|80:116,2,70,0|0|8
184,144,180502,1,0
260,108,180671,2,0,B|308:80|348:132|400:112,2,140,0|8|0
292,188,181519,1,0
292,188,181688,1,8
416,304,182027,6,0,B|388:328|344:340,2,70,4|0|8
420,220,182536,1,0
436,136,182705,2,0,B|464:112|508:100,2,70,0|0|8
420,220,183214,1,0
336,232,183383,2,0,B|304:248|264:244,1,70
272,328,183722,2,0,B|238:316|212:285,1,70,8|0
160,352,184061,2,0,B|144:320|148:280,1,70
172,204,184400,1,8
88,216,184570,1,0
88,216,184739,5,4
52,140,184909,2,0,B|56:100|80:72,2,70,0|8|0
136,128,185417,2,0,B|164:104|200:96,1,70
276,128,185756,2,0,B|312:130|343:150,1,70,8|0
336,232,186095,2,0,B|360:288|328:336,2,105,2|2|0
420,224,186773,1,0
420,224,186942,1,0
420,224,187112,1,8
380,60,187451,6,0,B|332:120|248:120,1,140,4|8
200,60,187959,1,0
284,48,188129,2,0,B|340:100|344:180,1,140,0|8
256,224,188637,1,0
256,224,188807,1,0
188,272,188976,2,0,B|156:296|116:300,2,70,0|8|0
236,340,189485,2,0,B|304:360,1,70
360,300,189824,2,0,B|440:284,1,70,8|0
476,216,190163,5,0
412,60,190502,1,8
340,212,190841,1,0
340,212,191010,1,0
340,212,191180,1,8
212,104,191519,2,0,B|204:68|184:36,2,70,2|0|8
244,180,192027,1,0
164,212,192197,2,0,B|112:232|56:216,2,105,2|2|0
128,312,192875,6,0,B|196:336,1,70,4|0
268,296,193214,2,0,B|333:264,1,70,8|0
416,280,193553,2,0,B|444:308|456:340,2,70,0|0|8
424,196,194061,1,0
424,196,194146,1,0
424,196,194231,1,0
340,184,194400,2,0,B|304:168|276:140,2,70,0|8|0
392,116,194909,2,0,B|408:80|436:52,2,70,0|0|8
320,72,195417,1,0
320,72,195502,1,0
320,72,195587,5,0
160,120,195926,2,0,B|160:160|176:192,2,70,8|0|0
252,260,196603,2,0,B|232:292|204:308,2,70,8|0|0
292,184,197112,1,0
292,184,197197,1,0
292,184,197281,1,8
364,228,197451,1,0
328,304,197620,2,0,B|352:368,2,70,0|0|8
360,140,198298,6,0,B|456:24,1,140,4|8
284,56,198976,2,0,B|136:56,1,140,0|8
76,104,199485,1,0
76,104,199654,1,0
156,132,199824,2,0,B|160:168|180:204,2,70,0|8|0
92,184,200332,1,0
12,204,200502,1,0
12,204,200587,1,0
12,204,200671,1,8
108,340,201010,6,0,B|180:340|180:340,1,70
216,264,201349,2,0,B|288:264,1,70,8|0
328,336,201688,1,0
412,336,201858,2,0,B|436:364,2,35,0|0|8
444,260,202197,1,0
444,176,202366,2,0,B|444:104,1,70
364,136,202705,2,0,B|313:85,1,70,8|0
272,160,203044,2,0,B|128:160,1,140,0|8
272,252,203722,5,4
272,252,203892,1,0
272,252,204061,1,8
272,84,204400,1,0
272,84,204570,1,0
272,84,204739,1,8
104,80,205078,2,0,B|104:148,1,70
172,200,205417,2,0,B|172:128,1,70,8|0
244,172,205756,1,0
328,172,205926,1,0
244,172,206095,1,8
180,328,206434,6,0,B|248:304,1,70
316,256,206773,2,0,B|384:280,1,70,8|0
452,232,207112,1,0
468,148,207281,1,0
468,148,207366,1,0
468,148,207451,1,8
416,84,207620,1,0
340,48,207790,2,0,B|304:32|268:48,1,70
204,96,208129,2,0,B|171:110|135:94,1,70,8|0
56,68,208468,1,0
56,68,208553,1,0
56,68,208637,1,0
56,68,208722,1,0
56,68,208807,1,4
92,232,209146,6,0,B|80:264|48:284,2,70,4|0|8
248,296,209824,2,0,B|280:308|300:340,2,70,0|0|8
304,136,210502,2,0,B|336:152|376:156,1,70
452,176,210841,2,0,B|449:140|433:103,1,70,8|0
412,28,211180,2,0,B|382:47|358:80,2,70,0|0|8
244,56,211858,6,0,B|176:56,1,70
204,136,212197,2,0,B|204:216,1,70,8|0
120,188,212536,1,0
52,236,212705,2,0,B|20:224,2,35,0|0|8
104,304,213044,1,0
188,292,213214,2,0,B|244:344,1,70
268,260,213553,2,0,B|324:312,1,70,8|0
384,360,213892,2,0,B|396:308|440:308|456:236,1,140,0|8
480,76,214570,6,0,B|440:140|360:144,1,140,4|8
336,64,215078,1,0
280,124,215248,2,0,B|256:200|312:256,1,140,0|8
380,300,215756,1,0
380,300,215841,1,0
380,300,215926,1,0
300,324,216095,2,0,B|264:328|228:316,1,70,0|8
156,276,216434,1,0
84,236,216603,2,0,B|68:268|84:308,2,70,0|0|8
96,68,217281,6,0,B|120:136,1,70
180,88,217620,2,0,B|232:136,1,70,8|0
304,96,217959,1,0
376,136,218129,1,0
376,136,218214,1,0
376,136,218298,1,8
376,220,218468,1,0
304,180,218637,2,0,B|260:228|216:240,2,105
232,136,219315,1,0
232,136,219485,1,0
232,136,219654,1,8
84,216,219988,6,0,B|72:252,3,35,4|0|0|0
112,260,220326,2,0,B|108:296,3,35,0|0|0|0
148,288,220665,2,0,B|152:324,3,35
192,304,221004,2,0,B|240:332|296:328,2,105,4|0|0
252,248,221682,6,0,B|228:212,3,35
276,212,222021,2,0,B|260:172,3,35
304,172,222360,2,0,B|300:132,3,35
344,144,222699,2,0,B|400:128|452:132,2,105,4|0|0
388,216,223377,6,0,B|400:252,3,35
372,280,223716,2,0,B|336:272,3,35
304,296,224055,2,0,B|316:352,3,35
276,352,224394,2,0,B|228:368|168:360,2,105,4|0|0
224,288,225072,6,0,B|200:260,3,35
160,252,225411,2,0,B|136:276,3,35
92,268,225750,2,0,B|80:232,3,35
60,200,226089,2,0,B|36:144|52:96,2,105,4|0|4
124,144,226767,6,0,B|168:144,3,35
208,92,227106,2,0,B|244:76,3,35
280,188,227445,2,0,B|324:204,3,35
372,132,227784,2,0,B|420:156|432:220,2,105,4|0|0
364,272,228462,6,0,B|332:288,3,35
296,352,228801,2,0,B|276:384,3,35
192,284,229140,2,0,B|156:284,3,35
104,348,229479,2,0,B|80:292|20:276,2,105,4|0|0
164,228,230157,6,0,B|136:192,3,35
212,160,230496,2,0,B|233:132,3,35,0|0|0|0
132,96,230835,2,0,B|104:60,3,35
188,28,231174,2,0,B|240:8|296:28,2,105,4|0|0
288,96,231852,6,0,B|309:123,3,35,0|0|0|0
248,180,232191,2,0,B|226:207,3,35,0|0|0|0
336,224,232530,2,0,B|357:251,3,35,0|0|0|0
304,324,232869,2,0,B|354:342|406:322,2,105,4|0|4
