osu file format v9

[General]
AudioFilename: Realize.mp3
AudioLeadIn: 0
PreviewTime: 65382
Countdown: 0
SampleSet: Soft
StackLeniency: 0.4
Mode: 0
LetterboxInBreaks: 1

[Editor]
DistanceSpacing: 1
BeatDivisor: 4
GridSize: 4

[Metadata]
Title:Realize
Artist:Sakura Fumi
Creator:Snowy Dream
Version:Hard
Source:Touhou
Tags:flandre scarlet re:alize karenying OnosakiHito paranoia paradox

[Difficulty]
HPDrainRate:4
CircleSize:4
OverallDifficulty:3
ApproachRate:6
SliderMultiplier:1.2
SliderTickRate:2

[Events]
//Background and Video events
0,0,"BG.jpg"
//Break Periods
2,33086,42684
2,87324,96921
2,141561,151158
//Storyboard Layer 0 (Background)
//Storyboard Layer 1 (Fail)
//Storyboard Layer 2 (Pass)
//Storyboard Layer 3 (Foreground)
//Storyboard Sound Samples
//Background Colour Transformations
3,100,163,162,255

[TimingPoints]
11192,338.983050847458,4,2,0,80,1,0
43653,-133.333333333333,4,2,0,80,0,0
65427,-100,4,2,0,80,0,1
87122,-100,4,2,0,80,0,0
119228,-100,4,2,0,5,0,0
119398,-100,4,2,0,80,0,0
119664,-100,4,2,0,80,0,1
141359,-100,4,2,0,80,0,0
163047,338.983050847458,5,2,0,80,1,0
176604,338.983050847458,4,2,0,80,1,0
198298,-100,4,2,0,80,0,1
219988,338.983050847458,5,2,0,80,1,0

[Colours]
Combo1 : 255,154,2
Combo2 : 0,240,240
Combo3 : 255,0,50
Combo4 : 255,55,255

[HitObjects]
120,96,11191,5,0
84,208,11530,2,0,B|108:268|176:288,2,120,8|0|8
204,188,12547,2,0,B|263:213|325:179,1,120,0|8
392,276,13225,2,0,B|420:260|444:232,2,60,0|0|8
400,156,13903,6,0,B|380:100|328:60,2,120,0|8|0
284,120,14920,1,8
164,108,15259,2,0,B|124:152,1,60
152,204,15598,2,0,B|154:263,1,60,8|0
208,288,15937,2,0,B|252:328,2,60,0|0|8
328,268,16615,6,0,B|344:328|308:384,2,120,0|8|0
320,148,17632,1,8
320,148,17802,1,0
320,148,17971,1,0
212,92,18310,1,8
104,140,18649,2,0,B|92:172|96:204,2,60,0|0|8
160,244,19327,6,0,B|280:244,2,120,0|8|0
236,148,20344,2,0,B|260:120|288:112,2,60,8|0|0
344,200,21022,1,8
404,96,21361,2,0,B|380:124|352:132,2,60,0|0|8
292,52,22039,6,0,B|232:72|172:72,1,120,4|8
144,124,22547,2,0,B|80:136|32:172,1,120
40,232,23056,1,8
132,308,23395,2,0,B|188:336|248:336,1,120,0|8
304,228,24073,2,0,B|332:204|360:200,2,60,0|0|8
408,292,24751,6,0,B|444:244|444:180,1,120,0|8
452,120,25259,1,0
352,56,25598,1,0
352,56,25768,2,0,B|232:56,1,120,8|0
144,140,26446,1,8
180,256,26785,2,0,B|164:284|132:296,2,60,0|0|8
300,256,27463,5,0
356,152,27802,1,8
236,152,28141,1,0
300,256,28480,1,8
420,236,28819,2,0,B|404:272|376:288,2,60,0|0|8
416,356,29497,2,0,B|379:370|348:361,2,60,0|0|8
296,352,30175,5,0
176,352,30514,1,8
84,276,30853,1,0
204,268,31191,1,8
188,148,31530,2,0,B|260:164|284:224,1,120,0|8
392,168,32208,2,0,B|320:152|296:92,1,120,0|8
408,44,32886,21,4
132,112,43734,6,0,B|228:112,1,90,0|8
300,160,44412,1,0
204,312,45090,2,0,B|116:312,1,89.9999973177911,0|8
48,248,45768,1,0
224,204,46446,6,0,B|256:240|304:260,1,89.9999973177911,0|8
276,344,47124,2,0,B|324:346|372:327,1,89.9999973177911,0|8
396,248,47802,1,0
396,248,48141,1,8
440,168,48480,1,0
440,76,48819,6,0,B|400:56|352:56,1,89.9999973177911,8|0
364,144,49497,2,0,B|317:144|277:124,1,89.9999973177911,8|0
216,56,50175,2,0,B|168:60|136:92,1,89.9999973177911,8|0
164,180,50853,2,0,B|152:228|104:248,1,89.9999973177911,8|0
40,308,51530,1,8
40,308,51869,1,0
124,340,52208,6,0,B|168:368,2,44.9999986588955,8|0|0
196,284,52886,2,0,B|240:256,2,44.9999986588955,8|0|0
264,344,53564,1,8
264,344,53903,1,0
336,288,54242,1,0
420,256,54581,6,0,B|424:300|452:340,2,89.9999973177911,4|8|0
480,184,55598,2,0,B|476:140|448:100,2,89.9999973177911,8|0|8
392,164,56615,1,0
392,164,56954,1,8
228,92,57632,6,0,B|208:108|184:116,2,44.9999986588955,8|0|0
248,180,58310,1,8
276,264,58649,2,0,B|296:248|320:240,2,44.9999986588955,0|0|8
188,248,59327,1,0
188,248,59666,1,8
100,236,60005,6,0,B|100:284|136:320,1,89.9999973177911,4|8
220,340,60683,2,0,B|263:360|311:342,1,89.9999973177911,0|8
392,316,61361,2,0,B|420:272|420:272,2,44.9999986588955,0|0|8
352,236,62039,2,0,B|324:280|324:280,2,44.9999986588955,0|0|8
428,184,62717,5,0
364,120,63056,1,8
288,168,63395,2,0,B|248:156|232:188|196:176,1,89.9999973177911,0|8
256,192,63903,12,4,65429
208,80,65768,5,8
96,128,66107,2,0,B|96:252,1,120,0|8
180,332,66785,2,0,B|180:264,2,60,0|0|8
264,248,67463,2,0,B|264:316,2,60,0|0|8
384,232,68141,6,0,B|420:280|480:300,2,120,0|8|0
348,184,68988,1,0
364,124,69158,1,8
264,56,69497,2,0,B|236:112|172:128,2,120,0|8|0
264,176,70514,1,8
264,176,70853,1,4
80,296,71530,6,0,B|128:344|192:332,1,120,0|8
308,348,72208,2,0,B|340:332|356:300,2,60,0|0|8
428,336,72886,2,0,B|439:302|428:268,2,60,0|0|8
360,236,73564,6,0,B|360:172|416:136,2,120,0|8|0
248,192,74581,1,8
248,192,74920,2,0,B|204:152|136:144,2,120,0|8|0
144,252,75937,2,0,B|116:272|84:268,2,60,8|0|4
252,308,76615,5,8
252,308,76954,1,0
372,288,77293,2,0,B|424:324|488:316,2,120,8|0|8
452,196,78310,1,0
452,196,78480,1,0
452,196,78649,1,8
360,116,78988,6,0,B|344:144|316:156,2,60,0|0|8
240,104,79666,1,0
240,104,80005,1,8
120,116,80344,2,0,B|80:160|88:228,1,120,0|8
160,324,81022,2,0,B|200:280|192:212,1,120,0|8
308,248,81700,5,4
308,248,82039,1,8
408,316,82378,2,0,B|472:292|484:224,1,120,0|8
372,184,83056,2,0,B|332:140|268:132,1,120,0|8
172,56,83734,1,0
172,56,83903,1,0
172,56,84073,2,0,B|160:120|92:160,1,120,8|0
156,260,84751,5,8
260,316,85090,2,0,B|328:340|368:292,1,120,0|8
256,192,85768,12,4,87124
140,148,97971,6,0,B|116:92|52:68,1,120,4|8
48,188,98649,2,0,B|72:244|136:268,1,120,0|8
248,228,99327,1,0
248,228,99666,1,8
276,112,100005,2,0,B|304:96|340:96,2,60,0|0|8
364,196,100683,6,0,B|408:240|464:264,2,120,0|8|0
336,312,101700,2,0,B|316:340|284:352,2,60,8|0|0
248,228,102378,1,8
164,312,102717,1,0
164,312,102886,1,0
164,312,103056,1,8
84,224,103395,6,0,B|52:168|52:104,1,120,4|8
148,36,104073,1,0
148,36,104412,1,8
260,72,104751,6,0,B|320:88|380:72,1,120,0|8
468,152,105429,1,0
468,152,105598,1,0
468,152,105768,1,8
380,236,106107,6,0,B|384:304|328:344,1,120,0|8
272,340,106615,1,0
224,300,106785,2,0,B|167:337|104:308,1,120,0|8
116,192,107463,6,0,B|92:140|48:124,2,90
168,224,108141,2,0,B|228:240|288:224,1,120
348,120,108819,5,4
444,192,109158,1,8
460,72,109497,1,0
228,140,110175,5,0
128,204,110514,1,8
88,92,110853,1,0
156,328,111530,5,0
204,288,111700,1,0
200,228,111869,1,0
272,132,112208,2,0,B|220:104|152:108,2,120,0|8|0
312,244,113225,1,8
312,244,113395,1,0
312,244,113564,1,0
456,52,114242,6,0,B|492:104|488:164,2,120,4|8|0
368,132,115259,1,8
368,132,115429,1,0
368,132,115598,2,0,B|312:104|244:100,2,120,0|8|0
408,244,116615,1,8
292,256,116954,6,0,B|292:320,1,60
232,316,117293,2,0,B|232:376,1,60,8|0
172,364,117632,2,0,B|112:376|48:364,1,120,0|8
32,308,118141,1,0
72,264,118310,2,0,B|88:204|56:148,1,120,0|8
164,96,118988,2,0,B|148:156|180:212,1,120,0|0
288,160,119666,5,4
288,160,120005,1,8
372,248,120344,1,0
372,248,120683,1,8
456,164,121022,2,0,B|456:128|444:100,1,60
396,72,121361,2,0,B|336:84|276:76,1,120,8|0
276,76,121869,1,0
276,76,122039,1,8
160,56,122378,6,0,B|136:80|136:112,1,60
184,144,122717,1,8
220,260,123056,2,0,B|244:236|244:204,1,60
300,184,123395,1,8
380,272,123734,1,0
480,340,124073,1,8
476,220,124412,2,0,B|496:188|488:152,2,60,0|0|8
380,148,125090,6,0,B|356:88|300:52,1,120,4|8
296,176,125768,2,0,B|320:236|376:272,1,120,0|8
268,332,126446,1,0
156,292,126785,1,8
144,172,127124,2,0,B|124:148|92:132,2,60,0|0|8
252,116,127802,6,0,B|296:160|360:168,1,120,0|8
404,132,128310,1,0
448,172,128480,2,0,B|436:236|456:296,1,120,0|8
428,344,128988,1,0
368,340,129158,2,0,B|328:328|284:352|248:336,3,120,0|8|0|8
172,252,130514,6,0,B|104:236|96:164,1,120,4|8
116,52,131192,2,0,B|184:68|192:140,1,120,0|8
304,180,131869,2,0,B|344:156|396:152,2,90
312,240,132547,2,0,B|320:276|316:308,1,60
304,356,132886,1,8
196,304,133225,6,0,B|140:332|80:312,1,120,0|8
148,212,133903,2,0,B|176:156|156:96,1,120,0|8
196,52,134412,1,0
256,56,134581,2,0,B|288:60|312:76,2,60,0|0|8
272,176,135259,2,0,B|291:201|297:229,2,60,0|0|8
384,224,135937,6,0,B|424:220|468:260|504:256,2,120,4|8|0
304,312,136954,2,0,B|252:348|188:344,1,120,8|0
88,280,137632,1,8
96,160,137971,2,0,B|69:153|37:169,2,60,0|0|8
216,176,138649,6,0,B|248:224|320:240,1,120,0|8
368,208,139158,1,0
392,152,139327,2,0,B|436:104|500:92,2,120,0|8|0
256,192,140175,12,4,141361
124,140,152208,5,0
100,196,152378,1,0
148,232,152547,2,0,B|156:260|152:296,2,60,8|0|0
252,168,153225,1,8
312,152,153395,2,0,B|344:144|376:148,1,60
420,184,153734,1,0
440,240,153903,2,0,B|464:260|484:292,1,60,8|0
452,340,154242,2,0,B|408:368|332:360,1,120,0|8
216,344,154920,6,0,B|176:328|152:296,2,80
272,288,155598,2,0,B|328:260|344:192,1,120,0|8
344,136,156107,1,0
344,136,156276,2,0,B|368:112|368:80,1,60
328,36,156615,2,0,B|295:27|267:43,1,60,8|0
240,92,156954,2,0,B|248:132|284:168,2,80
160,76,157632,6,0,B|100:84|60:136,1,120,0|8
52,252,158310,2,0,B|52:288|72:312,2,60,0|0|8
172,252,158988,1,0
172,252,159158,1,0
228,228,159327,1,8
228,228,159497,1,0
284,248,159666,2,0,B|312:260|340:264,2,60,0|0|8
384,180,160344,6,0,B|420:128|404:64,1,120,0|8
348,44,160853,1,0
288,36,161022,2,0,B|260:24|228:36,1,60
192,80,161361,2,0,B|180:108|192:140,1,60,8|0
144,176,161700,2,0,B|128:216|88:240,2,80
100,108,162378,1,0
40,116,162547,1,0
12,168,162717,1,8
76,268,163047,6,0,B|96:296,3,30
120,304,163385,2,0,B|152:316,3,30
176,320,163724,2,0,B|212:316,3,30
236,308,164063,2,0,B|280:292|324:304,2,90,4|4|4
204,256,164741,6,0,B|192:224,3,30
196,180,165080,2,0,B|212:148,3,30
192,128,165419,2,0,B|180:96,3,30
192,72,165758,2,0,B|216:32|232:52|256:0,2,90,4|4|4
108,108,166436,6,0,B|88:132,3,30
68,156,166775,2,0,B|48:180,3,30
52,208,167114,2,0,B|80:232,3,30
100,240,167453,2,0,B|136:268|148:320,2,90,4|4|4
148,176,168131,6,0,B|172:160,3,30
204,160,168470,2,0,B|236:152,3,30
264,160,168809,2,0,B|300:164,3,30
320,176,169148,2,0,B|348:220|344:264,2,90,4|4|4
408,148,169826,6,0,B|416:116,3,30
392,96,170165,2,0,B|356:96,3,30
336,80,170504,2,0,B|324:48,3,30
296,48,170843,2,0,B|252:64|204:56,2,90,4|4|4
276,132,171521,6,0,B|284:164,3,30
276,192,171860,2,0,B|268:228,3,30
252,248,172199,2,0,B|224:268,3,30
196,272,172538,2,0,B|184:316|212:364,2,90,4|4|4
116,236,173216,6,0,B|96:212,3,30
96,184,173555,2,0,B|104:152,3,30
72,160,173894,2,0,B|40:152,3,30
56,124,174233,2,0,B|72:80|52:36,2,90,4|4|4
144,88,174911,6,0,B|136:56,3,30
168,56,175250,2,0,B|192:76,3,30
220,68,175589,2,0,B|216:104,3,30
196,120,175928,2,0,B|208:164|196:208,2,90,4|4|4
256,120,176604,6,0,B|316:128|368:172,1,120,4|8
440,260,177281,2,0,B|480:232|460:176|496:148,1,120,0|8
468,96,177790,1,0
416,64,177959,2,0,B|384:56|356:68,2,60,0|0|8
360,172,178637,2,0,B|331:188|320:217,2,60,0|0|8
240,180,179315,6,0,B|224:244|164:280,1,120,0|8
120,248,179824,1,0
164,208,179993,2,0,B|228:224|264:284,1,120,0|8
380,284,180671,5,0
464,200,181010,1,8
352,160,181349,1,0
332,104,181519,1,0
292,148,181688,1,8
180,188,182027,6,0,B|160:248|184:308,2,120,4|8|0
116,88,183044,1,8
116,88,183214,1,0
116,88,183383,2,0,B|176:68|244:80,2,120,0|8|0
60,196,184400,1,8
140,284,184739,6,0,B|136:316|120:340,2,60,0|0|8
244,220,185417,2,0,B|248:188|264:164,2,60,0|0|8
284,332,186095,1,0
404,344,186434,1,8
488,260,186773,1,0
476,140,187112,1,8
376,76,187451,6,0,B|316:56|256:76,3,120,4|8|0|8
148,120,188807,1,0
148,240,189146,1,8
244,168,189485,1,0
308,268,189824,1,8
420,224,190163,6,0,B|444:248|452:284,2,60,0|0|8
380,180,190671,1,0
328,144,190841,2,0,B|316:112|328:80,1,60
388,84,191180,2,0,B|398:57|386:25,1,60,8|0
328,20,191519,2,0,B|264:12|208:48,1,120,0|8
132,132,192197,2,0,B|196:140|252:104,1,120,0|8
176,204,192875,5,4
132,316,193214,1,8
244,276,193553,1,0
344,344,193892,1,8
412,248,194231,6,0,B|432:220|436:188,1,60
388,156,194570,2,0,B|382:122|362:96,1,60,8|0
304,96,194909,2,0,B|276:76|243:72,1,60
204,112,195248,2,0,B|192:176|148:216,1,120,8|0
28,196,195926,5,8
56,312,196265,1,0
176,332,196603,1,8
256,192,196942,12,4,198298
148,140,198637,5,8
100,252,198976,2,0,B|96:288|108:316,2,60,0|0|8
220,272,199654,2,0,B|276:248|340:268,1,120,0|8
396,288,200163,1,0
452,268,200332,2,0,B|428:208|444:140,1,120,0|8
336,92,201010,6,0,B|320:64|296:44,2,60,0|0|8
220,124,201688,2,0,B|188:115|157:118,2,60,0|0|8
212,244,202366,1,0
188,300,202536,1,0
132,320,202705,1,8
40,244,203044,1,0
96,224,203214,1,0
144,260,203383,1,8
96,152,203722,6,0,B|156:40,1,120,4|8
272,36,204400,2,0,B|212:148,1,120,0|8
332,180,205078,2,0,B|380:188|424:180,2,90
272,176,205756,2,0,B|256:236|284:292,1,120,0|8
184,228,206434,6,0,B|160:284,1,60
112,244,206773,2,0,B|55:266,1,60,8|0
36,208,207112,1,0
64,92,207451,1,8
184,92,207790,2,0,B|208:60|264:56|296:88,1,120,0|8
392,152,208468,2,0,B|368:184|312:188|280:156,1,120,0|8
180,220,209146,6,0,B|156:276|180:336,1,120,4|8
284,276,209824,2,0,B|404:276,1,120,0|8
452,168,210502,2,0,B|468:136|464:104,2,60,0|0|8
356,92,211180,2,0,B|344:58|319:38,2,60,0|0|8
248,148,211858,5,0
136,192,212197,1,8
184,304,212536,1,0
296,264,212875,1,8
180,144,213214,5,0
131,254,213553,1,8
245,299,213892,1,0
295,192,214231,1,8
368,96,214570,6,0,B|428:104|472:156,1,120,4|8
388,240,215248,1,0
280,288,215587,2,0,B|232:328|164:328,1,120,8|0
68,264,216265,2,0,B|48:240|44:208,2,60,8|0|0
164,192,216942,1,8
236,96,217281,5,0
352,128,217620,2,0,B|364:156|356:188,1,60,8|0
412,208,217959,2,0,B|400:236|372:253,1,60
392,308,218298,2,0,B|364:320|332:312,1,60,8|0
292,268,218637,2,0,B|256:252|208:280|172:268,3,120,0|8|0|8
60,228,219988,5,4
