osu file format v13

[General]
AudioFilename: Uraomote Fortune.mp3
AudioLeadIn: 0
PreviewTime: 37799
Countdown: 1
SampleSet: None
StackLeniency: 0.7
Mode: 0
LetterboxInBreaks: 1
WidescreenStoryboard: 0

[Editor]
DistanceSpacing: 1
BeatDivisor: 4
GridSize: 8
TimelineZoom: 4.099999

[Metadata]
Title:Uraomote Fortune (TV Size)
TitleUnicode:ウラオモテ・フォーチュン (TV Size)
Artist:Sakura Chiyo(Ozawa Ari)
ArtistUnicode:佐倉千代(小澤亜李)
Creator:Kotone
Version:Insane
Source:月刊少女野崎くん
Tags:Gekkan Shoujo Nozaki-kun
BeatmapID:474351
BeatmapSetID:200063

[Difficulty]
HPDrainRate:8
CircleSize:4
OverallDifficulty:7
ApproachRate:8
SliderMultiplier:1.72
SliderTickRate:1

[Events]
//Background and Video events
0,0,"bg.jpg",0,0
Video,-270,"Uraomote Fortune.avi"
//Break Periods
//Storyboard Layer 0 (Background)
//Storyboard Layer 1 (Fail)
//Storyboard Layer 2 (Pass)
//Storyboard Layer 3 (Foreground)
//Storyboard Sound Samples
//Background Colour Transformations
3,100,163,162,255

[TimingPoints]
41,454.545454545455,4,2,1,80,1,0
9131,-133.333333333333,4,2,1,80,0,0
10041,-100,4,2,1,80,0,0
40041,-100,4,2,1,80,0,1
54473,-100,4,2,1,80,0,0
54587,-100,4,2,1,80,0,1
69132,-100,4,2,1,80,0,0
78223,-100,4,2,1,80,0,1
78337,-100,4,2,1,80,0,0

[HitObjects]
29,129,950,6,0,P|92:127|159:123,1,129,2|0,3:0|0:0,0:0:0:0:
231,98,1404,2,0,L|285:93,2,43,0|0|0,0:0|0:0|0:0,0:0:0:0:
342,169,1860,6,0,P|389:163|428:150,1,86,4|0,0:0|0:0,0:0:0:0:
425,151,2315,1,0,0:0:0:0:
369,337,2541,2,0,P|340:299|309:272,1,86,0|0,0:0|0:0,0:0:0:0:
311,273,2996,1,0,0:0:0:0:
501,232,3223,2,0,P|482:275|474:315,1,86,0|0,0:0|0:0,0:0:0:0:
475,315,3677,1,2,0:0:0:0:
404,241,3905,5,0,0:0:0:0:
368,336,4132,2,0,P|327:345|284:346,1,86,0|0,0:0|0:0,0:0:0:0:
404,241,4587,1,2,0:0:0:0:
261,163,4814,2,0,P|302:154|345:154,1,86,0|2,0:0|0:0,0:0:0:0:
219,266,5269,1,0,0:0:0:0:
106,247,5496,6,0,P|76:215|57:176,1,86,2|0,0:0|0:0,0:0:0:0:
60,55,5950,1,0,0:0:0:0:
177,87,6178,1,0,0:0:0:0:
177,87,6291,1,0,0:0:0:0:
177,87,6405,2,0,P|182:130|175:173,1,86,2|0,0:0|0:0,0:0:0:0:
38,329,6860,2,0,P|33:286|40:243,1,86,2|0,0:0|0:0,0:0:0:0:
153,33,7314,6,0,P|139:96|141:161,1,129,2|0,0:0|0:0,0:0:0:0:
155,202,7769,1,0,0:0:0:0:
218,311,7996,1,0,0:0:0:0:
218,311,8110,1,0,0:0:0:0:
218,311,8223,2,0,L|324:303,1,86,0|0,0:0|0:0,0:0:0:0:
464,224,8678,1,0,0:0:0:0:
420,336,8905,1,0,0:0:0:0:
348,192,9131,6,0,P|344:139|346:105,1,64.5000024604798,0|0,0:0|0:0,0:0:0:0:
396,68,9473,2,0,L|468:59,1,64.5000024604798,0|0,0:0|0:0,0:0:0:0:
460,59,9814,1,0,0:0:0:0:
277,37,10041,6,0,L|182:48,1,86
191,46,10496,1,0,0:0:0:0:
31,164,10723,2,0,L|126:175,1,86,0|0,0:0|0:0,0:0:0:0:
116,173,11178,1,0,0:0:0:0:
279,280,11405,2,0,L|184:291,1,86,0|0,0:0|0:0,0:0:0:0:
193,289,11860,1,2,0:0:0:0:
339,151,12087,2,0,L|424:141,1,86
424,141,12541,1,0,0:0:0:0:
468,320,12769,5,2,0:0:0:0:
396,245,12996,1,0,0:0:0:0:
496,220,13223,1,2,0:0:0:0:
461,328,13450,2,0,P|413:354|301:293,1,172
203,303,14132,2,0,P|161:306|116:311,1,86,0|0,0:0|0:0,0:0:0:0:
31,190,14587,2,0,P|73:185|116:182,1,86
216,206,15041,1,0,0:0:0:0:
305,154,15269,5,0,0:0:0:0:
305,154,15382,1,0,0:0:0:0:
305,154,15496,2,0,L|309:95,2,43,2|0|2,0:0|0:0|0:0,0:0:0:0:
303,257,15950,2,0,L|311:296,2,28.6666666666667,2|0|0,0:0|0:0|0:0,0:0:0:0:
384,325,16178,2,0,L|392:364,2,28.6666666666667,2|0|0,0:0|0:0|0:0,0:0:0:0:
458,282,16405,6,0,P|466:239|472:197,1,86,2|0,0:0|0:0,0:0:0:0:
459,120,16746,1,0,0:0:0:0:
459,120,16860,2,0,P|457:69|457:28,1,86
397,174,17314,5,2,0:0:0:0:
397,174,18223,6,0,P|337:181|284:182,1,86
229,154,18678,1,0,0:0:0:0:
148,183,18905,1,0,0:0:0:0:
148,183,19019,1,0,0:0:0:0:
148,183,19132,2,0,L|136:288,1,86
224,344,19587,1,0,0:0:0:0:
148,183,21405,1,0,0:0:0:0:
148,183,21519,1,0,0:0:0:0:
148,183,21632,1,0,0:0:0:0:
148,183,21746,1,0,0:0:0:0:
148,183,21860,1,0,0:0:0:0:
148,183,22087,1,0,0:0:0:0:
148,183,22314,1,0,0:0:0:0:
148,183,22541,1,0,0:0:0:0:
148,183,22769,1,0,0:0:0:0:
148,183,22996,1,0,0:0:0:0:
148,183,23223,1,0,0:0:0:0:
148,183,23450,1,0,0:0:0:0:
148,183,23678,1,0,0:0:0:0:
148,183,23905,1,0,0:0:0:0:
148,183,24132,1,0,0:0:0:0:
148,183,24360,1,0,0:0:0:0:
148,183,24587,1,0,0:0:0:0:
148,183,24814,1,0,0:0:0:0:
148,183,25041,1,0,0:0:0:0:
148,183,25269,1,0,0:0:0:0:
148,183,25382,1,0,0:0:0:0:
148,183,25496,1,0,0:0:0:0:
148,183,25723,1,0,0:0:0:0:
148,183,25950,1,0,0:0:0:0:
148,183,26178,1,0,0:0:0:0:
148,183,26405,1,0,0:0:0:0:
148,183,26632,1,0,0:0:0:0:
148,183,26860,1,0,0:0:0:0:
148,183,27087,1,0,0:0:0:0:
148,183,27314,1,0,0:0:0:0:
148,183,27541,1,0,0:0:0:0:
148,183,27769,1,0,0:0:0:0:
148,183,27996,1,0,0:0:0:0:
148,183,28223,1,0,0:0:0:0:
148,183,28450,1,0,0:0:0:0:
148,183,28678,1,0,0:0:0:0:
148,183,28791,1,0,0:0:0:0:
148,183,28905,1,0,0:0:0:0:
148,183,29019,1,0,0:0:0:0:
148,183,29132,1,0,0:0:0:0:
148,183,29360,1,0,0:0:0:0:
148,183,29473,1,0,0:0:0:0:
148,183,29587,1,0,0:0:0:0:
148,183,29814,1,0,0:0:0:0:
148,183,30041,1,0,0:0:0:0:
148,183,30269,1,0,0:0:0:0:
148,183,30496,1,0,0:0:0:0:
148,183,30723,1,0,0:0:0:0:
148,183,30950,1,0,0:0:0:0:
148,183,31178,1,0,0:0:0:0:
148,183,31405,1,0,0:0:0:0:
148,183,31632,1,0,0:0:0:0:
148,183,31860,1,0,0:0:0:0:
148,183,32087,1,0,0:0:0:0:
148,183,32314,1,0,0:0:0:0:
148,183,32428,1,0,0:0:0:0:
148,183,32541,1,0,0:0:0:0:
148,183,32655,1,0,0:0:0:0:
148,183,32769,1,0,0:0:0:0:
148,183,33223,1,0,0:0:0:0:
148,183,33450,1,0,0:0:0:0:
148,183,33678,1,0,0:0:0:0:
148,183,33905,1,0,0:0:0:0:
148,183,34132,1,0,0:0:0:0:
148,183,34360,1,0,0:0:0:0:
148,183,34587,1,0,0:0:0:0:
148,183,35041,1,0,0:0:0:0:
148,183,35269,1,0,0:0:0:0:
148,183,35496,1,0,0:0:0:0:
148,183,35723,1,0,0:0:0:0:
148,183,35950,1,0,0:0:0:0:
148,183,36178,1,0,0:0:0:0:
122,117,36405,5,0,0:0:0:0:
122,117,36860,1,0,0:0:0:0:
122,117,37087,1,0,0:0:0:0:
122,117,37314,1,0,0:0:0:0:
122,117,37428,1,0,0:0:0:0:
122,117,37541,1,0,0:0:0:0:
122,117,37769,1,0,0:0:0:0:
122,117,37996,1,0,0:0:0:0:
122,117,38110,1,0,0:0:0:0:
122,117,38223,1,0,0:0:0:0:
122,117,38280,1,0,0:0:0:0:
122,117,38337,1,0,0:0:0:0:
122,117,38394,1,0,0:0:0:0:
122,117,38450,1,0,0:0:0:0:
122,117,38507,1,0,0:0:0:0:
122,117,38564,1,0,0:0:0:0:
122,117,38621,1,0,0:0:0:0:
122,117,38678,1,0,0:0:0:0:
122,117,38735,1,0,0:0:0:0:
122,117,38791,1,0,0:0:0:0:
122,117,38848,1,0,0:0:0:0:
122,117,38905,1,0,0:0:0:0:
122,117,38962,1,0,0:0:0:0:
122,117,39019,1,0,0:0:0:0:
122,117,39075,1,0,0:0:0:0:
122,117,39132,1,0,0:0:0:0:
122,117,39189,1,0,0:0:0:0:
122,117,39246,1,0,0:0:0:0:
122,117,39303,1,0,0:0:0:0:
122,117,39360,1,0,0:0:0:0:
122,117,39416,1,0,0:0:0:0:
122,117,39473,1,0,0:0:0:0:
122,117,39530,1,0,0:0:0:0:
122,117,39587,2,0,L|216:112,1,86
291,125,40041,2,0,P|298:179|286:228,1,86
239,276,40496,1,0,0:0:0:0:
153,278,40723,1,0,0:0:0:0:
156,235,40837,1,0,0:0:0:0:
153,278,40950,1,0,0:0:0:0:
182,210,41178,1,0,0:0:0:0:
266,195,41405,1,0,0:0:0:0:
351,197,41632,1,0,0:0:0:0:
316,170,41746,1,0,0:0:0:0:
418,144,41860,1,0,0:0:0:0:
347,94,42087,1,0,0:0:0:0:
266,122,42314,1,0,0:0:0:0:
182,210,42541,1,0,0:0:0:0:
157,174,42655,1,0,0:0:0:0:
103,173,42769,1,0,0:0:0:0:
148,100,42996,1,0,0:0:0:0:
209,160,43223,1,0,0:0:0:0:
269,205,43450,1,0,0:0:0:0:
343,160,43678,1,0,0:0:0:0:
426,182,43905,1,0,0:0:0:0:
348,246,44132,1,0,0:0:0:0:
263,318,44360,1,0,0:0:0:0:
254,227,44587,1,0,0:0:0:0:
245,135,44814,1,0,0:0:0:0:
245,135,45041,1,0,0:0:0:0:
303,123,45269,1,0,0:0:0:0:
387,110,45496,1,0,0:0:0:0:
277,135,45723,1,0,0:0:0:0:
212,150,45950,1,0,0:0:0:0:
144,166,46178,1,0,0:0:0:0:
183,183,46291,1,0,0:0:0:0:
212,114,46405,1,0,0:0:0:0:
287,73,46632,1,0,0:0:0:0:
326,54,46860,1,0,0:0:0:0:
326,54,47087,1,0,0:0:0:0:
343,93,47200,1,0,0:0:0:0:
324,139,47314,1,0,0:0:0:0:
315,228,47541,1,0,0:0:0:0:
315,228,47769,1,0,0:0:0:0:
220,245,47996,1,0,0:0:0:0:
130,264,48223,1,0,0:0:0:0:
220,245,48450,1,0,0:0:0:0:
262,240,48564,1,0,0:0:0:0:
304,236,48678,1,0,0:0:0:0:
385,235,48905,1,0,0:0:0:0:
466,150,49132,1,0,0:0:0:0:
466,150,49360,1,0,0:0:0:0:
380,159,49587,1,0,0:0:0:0:
294,161,49814,1,0,0:0:0:0:
208,168,50041,1,0,0:0:0:0:
122,179,50269,1,0,0:0:0:0:
168,106,50496,1,0,0:0:0:0:
210,180,50723,1,0,0:0:0:0:
202,264,50950,1,0,0:0:0:0:
288,262,51178,1,0,0:0:0:0:
280,219,51291,1,0,0:0:0:0:
373,260,51405,1,0,0:0:0:0:
395,190,51632,1,0,0:0:0:0:
418,115,51860,1,0,0:0:0:0:
418,115,52087,1,0,0:0:0:0:
418,115,52314,1,0,0:0:0:0:
418,115,52541,1,0,0:0:0:0:
418,115,52769,1,0,0:0:0:0:
418,115,52996,1,0,0:0:0:0:
418,115,53110,1,0,0:0:0:0:
418,115,53223,1,0,0:0:0:0:
418,115,53450,1,0,0:0:0:0:
418,115,53564,1,0,0:0:0:0:
418,115,53678,1,0,0:0:0:0:
418,115,53905,1,0,0:0:0:0:
418,115,54132,1,0,0:0:0:0:
418,115,54360,1,0,0:0:0:0:
418,115,54587,1,0,0:0:0:0:
418,115,54814,1,0,0:0:0:0:
418,115,54928,1,0,0:0:0:0:
418,115,55041,1,0,0:0:0:0:
418,115,55269,1,0,0:0:0:0:
418,115,55496,1,0,0:0:0:0:
418,115,55723,1,0,0:0:0:0:
418,115,55837,1,0,0:0:0:0:
418,115,55950,1,0,0:0:0:0:
418,115,56178,1,0,0:0:0:0:
418,115,56405,1,0,0:0:0:0:
418,115,56632,1,0,0:0:0:0:
418,115,56746,1,0,0:0:0:0:
418,115,56860,1,0,0:0:0:0:
418,115,57087,1,0,0:0:0:0:
418,115,57314,1,0,0:0:0:0:
418,115,57541,1,0,0:0:0:0:
418,115,57769,1,0,0:0:0:0:
418,115,57996,1,0,0:0:0:0:
418,115,58223,1,0,0:0:0:0:
418,115,58450,1,0,0:0:0:0:
418,115,58678,1,0,0:0:0:0:
418,115,58905,1,0,0:0:0:0:
418,115,59132,1,0,0:0:0:0:
418,115,59360,1,0,0:0:0:0:
418,115,59587,1,0,0:0:0:0:
418,115,59814,1,0,0:0:0:0:
418,115,60041,1,0,0:0:0:0:
418,115,60269,1,0,0:0:0:0:
418,115,60496,1,0,0:0:0:0:
418,115,60723,1,0,0:0:0:0:
418,115,60950,1,0,0:0:0:0:
418,115,61178,1,0,0:0:0:0:
418,115,61291,1,0,0:0:0:0:
418,115,61405,1,0,0:0:0:0:
418,115,61632,1,0,0:0:0:0:
418,115,61860,1,0,0:0:0:0:
418,115,62087,1,0,0:0:0:0:
418,115,62314,1,0,0:0:0:0:
418,115,62541,1,0,0:0:0:0:
418,115,62769,1,0,0:0:0:0:
418,115,62996,1,0,0:0:0:0:
418,115,63223,1,0,0:0:0:0:
418,115,63450,1,0,0:0:0:0:
418,115,63678,1,0,0:0:0:0:
418,115,63905,1,0,0:0:0:0:
418,115,64132,1,0,0:0:0:0:
418,115,64360,1,0,0:0:0:0:
418,115,64587,1,0,0:0:0:0:
418,115,64814,1,0,0:0:0:0:
418,115,65041,1,0,0:0:0:0:
418,115,65269,1,0,0:0:0:0:
418,115,65496,1,0,0:0:0:0:
418,115,65723,1,0,0:0:0:0:
418,115,65837,1,0,0:0:0:0:
418,115,65950,1,0,0:0:0:0:
418,115,66178,1,0,0:0:0:0:
418,115,66405,1,0,0:0:0:0:
418,115,66632,1,0,0:0:0:0:
418,115,66860,1,0,0:0:0:0:
418,115,67087,1,0,0:0:0:0:
418,115,67200,1,0,0:0:0:0:
418,115,67314,1,0,0:0:0:0:
418,115,67541,1,0,0:0:0:0:
418,115,67655,1,0,0:0:0:0:
418,115,67769,1,0,0:0:0:0:
418,115,67996,1,0,0:0:0:0:
418,115,68110,1,0,0:0:0:0:
418,115,68223,1,0,0:0:0:0:
418,115,68450,1,0,0:0:0:0:
418,115,68678,1,0,0:0:0:0:
418,115,68905,1,0,0:0:0:0:
418,115,69132,1,0,0:0:0:0:
418,115,69473,1,0,0:0:0:0:
418,115,69587,1,0,0:0:0:0:
418,115,69700,1,0,0:0:0:0:
418,115,69814,1,0,0:0:0:0:
418,115,70041,1,0,0:0:0:0:
418,115,70269,1,0,0:0:0:0:
418,115,70496,1,0,0:0:0:0:
418,115,70723,1,0,0:0:0:0:
418,115,70950,1,0,0:0:0:0:
418,115,71178,1,0,0:0:0:0:
418,115,71405,1,0,0:0:0:0:
418,115,71632,1,0,0:0:0:0:
418,115,71860,1,0,0:0:0:0:
418,115,72087,1,0,0:0:0:0:
418,115,72314,1,0,0:0:0:0:
418,115,72541,1,0,0:0:0:0:
418,115,72769,1,0,0:0:0:0:
418,115,72996,1,0,0:0:0:0:
418,115,73223,1,0,0:0:0:0:
418,115,73450,1,0,0:0:0:0:
418,115,73678,1,0,0:0:0:0:
418,115,73905,1,0,0:0:0:0:
418,115,74132,1,0,0:0:0:0:
418,115,74360,1,0,0:0:0:0:
418,115,74587,1,0,0:0:0:0:
418,115,74814,1,0,0:0:0:0:
418,115,75041,1,0,0:0:0:0:
418,115,75269,1,0,0:0:0:0:
418,115,75496,1,0,0:0:0:0:
418,115,75723,1,0,0:0:0:0:
418,115,75950,1,0,0:0:0:0:
418,115,76178,1,0,0:0:0:0:
418,115,76405,1,0,0:0:0:0:
418,115,76632,1,0,0:0:0:0:
418,115,76860,1,0,0:0:0:0:
418,115,77087,1,0,0:0:0:0:
418,115,77314,2,0,L|448:272,1,129
418,115,77769,1,0,0:0:0:0:
418,115,77882,1,0,0:0:0:0:
418,115,77996,1,0,0:0:0:0:
418,115,78223,1,0,0:0:0:0:
418,115,78450,1,0,0:0:0:0:
418,115,78678,1,0,0:0:0:0:
418,115,78905,1,0,0:0:0:0:
418,115,79132,1,0,0:0:0:0:
418,115,79359,1,0,0:0:0:0:
418,115,79586,1,0,0:0:0:0:
418,115,79814,1,0,0:0:0:0:
418,115,80041,1,0,0:0:0:0:
418,115,80269,1,0,0:0:0:0:
418,115,80496,1,0,0:0:0:0:
418,115,80723,1,0,0:0:0:0:
418,115,80950,1,0,0:0:0:0:
418,115,81178,1,0,0:0:0:0:
418,115,81405,1,0,0:0:0:0:
418,115,81632,1,0,0:0:0:0:
418,115,81860,1,0,0:0:0:0:
418,115,82087,1,0,0:0:0:0:
418,115,82200,1,0,0:0:0:0:
418,115,82314,1,0,0:0:0:0:
418,115,82541,1,0,0:0:0:0:
418,115,82655,1,0,0:0:0:0:
418,115,82769,1,0,0:0:0:0:
418,115,82996,1,0,0:0:0:0:
418,115,83223,1,0,0:0:0:0:
418,115,83337,1,0,0:0:0:0:
418,115,83450,1,0,0:0:0:0:
418,115,83564,1,0,0:0:0:0:
418,115,83678,1,0,0:0:0:0:
418,115,83905,1,0,0:0:0:0:
418,115,84132,1,0,0:0:0:0:
418,115,84246,1,0,0:0:0:0:
418,115,84360,1,0,0:0:0:0:
418,115,84473,1,0,0:0:0:0:
418,115,84587,1,0,0:0:0:0:
418,115,84700,1,0,0:0:0:0:
418,115,84814,1,0,0:0:0:0:
418,115,84928,1,0,0:0:0:0:
418,115,85041,1,0,0:0:0:0:
418,115,85155,1,0,0:0:0:0:
418,115,85269,1,0,0:0:0:0:
160,130,85950,5,2,0:0:0:0:
