osu file format v13

[General]
AudioFilename: Uraomote Fortune.mp3
AudioLeadIn: 1000
PreviewTime: 183154
Countdown: 0
SampleSet: Soft
StackLeniency: 0.7
Mode: 0
LetterboxInBreaks: 0
EpilepsyWarning: 1
WidescreenStoryboard: 0

[Editor]
DistanceSpacing: 0.7
BeatDivisor: 4
GridSize: 4
TimelineZoom: 2

[Metadata]
Title:URAOMOTE FORTUNE
TitleUnicode:ウラオモテ・フォーチュン
Artist:Sakura Chiyo (CV:Ozawa Ari)
ArtistUnicode:佐倉千代 (CV:小澤亜李)
Creator:P A N
Version:Insane
Source:GEKKAN SHOJO NOZAKI KUN
Tags:ending asagi 10nya p_a_n 月刊少女野崎くん Monthly Girls' Nozaki-kun -_t_e_n_n_y_a_-
BeatmapID:495590
BeatmapSetID:210706

[Difficulty]
HPDrainRate:6.5
CircleSize:4
OverallDifficulty:7
ApproachRate:8.3
SliderMultiplier:2
SliderTickRate:1

[Events]
//Background and Video events
0,0,"BG2.jpg",0,0
//Break Periods
2,169944,176313
//Storyboard Layer 0 (Background)
//Storyboard Layer 1 (Fail)
//Storyboard Layer 2 (Pass)
//Storyboard Layer 3 (Foreground)
Sprite,Foreground,Centre,"SB\dialog5.png",320,240 M,0,76796,,310,235 S,0,76796,,0.6283872 F,0,76796,77023,0,1 F,0,77023,80432,1 F,0,80432,80660,1,0.03380646
//Storyboard Sound Samples

[TimingPoints]
654,454.545454545455,4,2,1,30,1,0
2017,-100,4,2,3,50,0,0
2472,-100,4,2,1,80,0,1
9517,-133.333333333333,4,2,1,80,0,1
9744,-133.333333333333,4,2,1,80,0,0
10654,-100,4,2,1,80,0,1
17926,-100,4,2,1,80,0,0
18835,-133.333333333333,4,2,1,80,0,0
37699,-100,4,2,1,80,0,0
38381,-80,4,2,1,80,0,0
38835,-80,4,2,1,30,0,0
39290,-80,4,2,1,40,0,0
39744,-80,4,2,1,50,0,0
40199,-133.333333333333,4,2,1,80,0,0
40540,-133.333333333333,4,2,1,5,0,0
40654,-100,4,2,1,80,0,1
47472,-100,4,2,1,80,0,0
47926,-100,4,2,1,80,0,1
54290,-133.333333333333,4,2,1,80,0,0
54744,-100,4,2,1,80,0,0
55199,-100,4,2,1,80,0,1
62017,-100,4,2,1,80,0,0
62472,-100,4,2,1,80,0,1
69744,-100,4,2,1,80,0,0
82472,-100,4,2,1,60,0,0
83835,-133.333333333333,4,2,1,60,0,0
84176,-133.333333333333,4,2,1,5,0,0
84290,-133.333333333333,4,2,1,80,0,0
104290,-100,4,2,1,30,0,0
104744,-100,4,2,1,40,0,0
105199,-100,4,2,1,50,0,0
105654,-133.333333333333,4,2,1,80,0,0
105994,-133.333333333333,4,2,1,5,0,0
106108,-100,4,2,1,80,0,1
112926,-100,4,2,1,80,0,0
113381,-100,4,2,1,80,0,1
120199,-133.333333333333,4,2,1,80,0,0
120540,-133.333333333333,4,2,1,5,0,0
120654,-100,4,2,1,80,0,1
127472,-100,4,2,1,80,0,0
127926,-100,4,2,1,80,0,1
135199,-100,4,2,1,80,0,0
138835,-133.333333333333,4,2,2,80,0,0
153381,-100,4,2,1,80,0,1
166563,-100,4,2,1,50,0,1
167131,-100,4,2,1,80,0,1
167472,-100,4,2,1,50,0,1
167926,-100,4,2,1,80,0,0
177017,-100,4,2,1,50,0,0
180881,-100,4,2,1,55,0,0
181108,-100,4,2,1,60,0,0
181335,-100,4,2,1,65,0,0
181563,-100,4,2,1,70,0,0
181790,-100,4,2,1,75,0,0
182017,-100,4,2,1,80,0,0
182244,-100,4,2,1,85,0,0
183835,-133.333333333333,4,2,1,80,0,0
184176,-133.333333333333,4,2,1,5,0,0
184290,-100,4,2,1,80,0,1
191108,-100,4,2,1,80,0,0
191563,-100,4,2,1,80,0,1
199744,-100,4,2,1,80,0,0
206222,-100,4,2,1,50,0,0
206563,-133.333333333333,4,2,1,80,0,0
207926,-100,4,2,1,80,0,1
215199,-100,4,2,1,80,0,0

[Colours]
Combo1 : 174,255,94
Combo2 : 255,47,47
Combo3 : 255,128,64

[HitObjects]
105,79,654,5,2,0:0:0:0:
111,87,1108,1,2,0:0:0:0:
117,95,1563,6,0,L|277:83,1,150,8|8,0:0|0:0,0:0:0:0:
301,81,2017,1,4,0:3:0:0:
336,78,2131,1,4,0:3:0:0:
370,76,2244,1,4,0:3:0:0:
448,205,2472,5,4,0:0:0:0:
497,62,2699,1,2,0:0:0:0:
382,157,2926,1,8,0:0:0:0:
453,287,3154,5,2,0:0:0:0:
492,140,3381,1,2,0:3:0:0:
380,248,3608,1,2,0:0:0:0:
334,96,3835,5,8,0:0:0:0:
448,205,4063,1,2,0:0:0:0:
303,250,4290,1,2,0:3:0:0:
382,157,4517,5,2,0:0:0:0:
344,320,4744,1,8,0:0:0:0:
232,218,4972,1,2,0:0:0:0:
380,248,5199,5,2,0:3:0:0:
236,294,5426,1,2,0:0:0:0:
269,147,5654,1,8,0:0:0:0:
344,320,5881,6,0,P|399:329|440:304,1,100,2|2,0:0|0:3,0:0:0:0:
473,206,6335,1,2,0:3:0:0:
303,250,6563,1,8,0:0:0:0:
373,168,6790,1,2,0:0:0:0:
373,168,6904,1,2,0:0:0:0:
373,168,7017,1,2,0:3:0:0:
222,143,7244,1,2,0:3:0:0:
196,290,7472,1,8,0:0:0:0:
344,320,7699,6,0,P|392:330|437:302,1,100,4|8,0:3|0:0,0:0:0:0:
374,168,8154,2,0,P|326:158|281:186,1,100,2|8,0:3|0:0,0:0:0:0:
440,216,8608,2,2,P|458:168|436:112,1,100,2|8,0:3|0:0,0:3:0:0:
367,45,9063,1,2,0:3:0:0:
367,45,9176,1,2,0:3:0:0:
367,45,9290,1,8,0:0:0:0:
511,91,9517,1,2,0:3:0:0:
374,168,9744,6,0,P|339:179|301:169,1,75.0000028610231,8|0,0:0|0:0,0:0:0:0:
282,152,10085,1,8,0:0:0:0:
257,142,10199,1,2,0:3:0:0:
230,145,10313,1,2,0:3:0:0:
207,158,10426,1,2,0:3:0:0:
117,282,10654,5,4,0:0:0:0:
253,222,10881,1,2,0:0:0:0:
110,162,11108,1,8,0:0:0:0:
39,298,11335,5,2,0:0:0:0:
12,146,11563,1,2,0:3:0:0:
166,102,11790,1,2,0:0:0:0:
201,271,12017,5,8,0:0:0:0:
110,162,12244,1,2,0:0:0:0:
245,106,12472,1,2,0:3:0:0:
104,52,12699,5,2,0:0:0:0:
185,181,12926,1,8,0:0:0:0:
206,30,13154,1,2,0:0:0:0:
331,114,13381,5,2,0:3:0:0:
206,30,13608,1,2,0:0:0:0:
110,162,13835,1,8,0:0:0:0:
235,246,14063,1,2,0:0:0:0:
331,114,14290,5,2,0:3:0:0:
110,162,14744,1,8,0:0:0:0:
124,269,14972,1,2,0:3:0:0:
124,269,15085,1,2,0:3:0:0:
124,269,15199,1,2,0:3:0:0:
185,180,15426,1,2,0:3:0:0:
54,227,15654,2,0,P|41:277|65:325,1,100,8|0,0:0|0:0,0:0:0:0:
168,330,16108,5,2,0:3:0:0:
201,318,16222,2,0,P|248:308|302:326,1,100,2|2,0:0|0:0,0:0:0:0:
329,335,16563,2,0,L|348:372,6,33.3333333333333,10|2|2|2|2|2|2,0:0|0:0|0:0|0:0|0:0|0:0|0:0,0:0:0:0:
315,302,17131,6,0,P|306:258|325:200,1,100,10|2,0:0|0:3,0:0:0:0:
347,183,17472,1,8,0:0:0:0:
235,245,17699,1,8,0:0:0:0:
102,241,17926,5,2,0:0:0:0:
84,230,18040,1,2,0:0:0:0:
71,214,18154,1,2,0:0:0:0:
61,196,18267,1,2,0:0:0:0:
56,176,18381,1,2,0:0:0:0:
54,156,18494,1,2,0:0:0:0:
56,136,18608,1,2,0:0:0:0:
62,117,18722,1,2,0:0:0:0:
70,100,18835,5,4,0:0:0:0:
201,28,19063,1,0,0:0:0:0:
50,20,19290,1,8,0:0:0:0:
175,104,19517,1,0,0:0:0:0:
175,104,19631,1,0,0:0:0:0:
175,104,19744,2,0,P|225:107|256:88,1,75.0000028610231,2|0,0:3|0:0,0:0:0:0:
342,37,20199,1,8,0:0:0:0:
439,93,20426,1,0,0:0:0:0:
439,93,20654,5,2,0:3:0:0:
388,193,20881,2,0,P|349:206|305:191,1,75.0000028610231,0|8,0:0|0:0,0:0:0:0:
466,171,21335,2,0,P|470:215|449:250,1,75.0000028610231,0|2,0:0|0:3,0:0:0:0:
378,323,21790,1,0,0:0:0:0:
266,339,22017,1,10,0:0:0:0:
239,339,22131,1,0,0:0:0:0:
213,333,22244,1,0,0:0:0:0:
189,320,22358,1,0,0:0:0:0:
171,300,22472,5,2,0:3:0:0:
281,262,22699,1,0,0:0:0:0:
378,323,22926,1,8,0:0:0:0:
387,210,23154,1,0,0:0:0:0:
387,210,23267,1,0,0:0:0:0:
387,210,23381,1,2,0:3:0:0:
281,262,23608,1,0,0:0:0:0:
378,323,23835,1,8,0:0:0:0:
462,248,24063,6,0,P|471:204|454:165,1,75.0000028610231,0|2,0:0|0:3,0:0:0:0:
405,79,24517,2,0,L|328:86,1,75.0000028610231,0|8,0:0|0:0,0:0:0:0:
221,55,24972,2,0,L|146:51,1,75.0000028610231,0|2,0:0|0:3,0:0:0:0:
228,132,25426,1,0,0:0:0:0:
304,16,25654,1,8,0:0:0:0:
308,160,25881,1,2,0:0:0:0:
308,160,25994,1,2,0:0:0:0:
308,160,26108,6,0,P|259:210|173:186,1,150.000005722046,2|8,0:3|0:0,0:0:0:0:
134,85,26790,1,0,0:0:0:0:
22,99,27017,1,2,0:3:0:0:
3,209,27244,1,0,0:0:0:0:
100,265,27472,1,8,0:0:0:0:
134,85,27699,6,0,L|150:7,1,75.0000028610231,0|2,0:0|0:3,0:0:0:0:
242,115,28154,2,0,L|283:47,1,75.0000028610231,0|8,0:0|0:0,0:0:0:0:
317,187,28608,2,0,L|379:137,2,75.0000028610231,0|2|0,0:0|0:3|0:0,0:0:0:0:
221,246,29290,1,10,0:0:0:0:
199,260,29404,1,2,0:0:0:0:
177,274,29517,1,2,0:0:0:0:
155,288,29631,1,2,0:0:0:0:
132,302,29744,1,2,0:3:0:0:
21,259,29972,5,2,0:0:0:0:
15,233,30085,1,2,0:0:0:0:
10,207,30199,1,10,0:0:0:0:
6,180,30313,1,2,0:0:0:0:
1,154,30426,1,2,0:0:0:0:
100,91,30654,2,0,P|166:65|253:105,1,150.000005722046,2|8,0:3|0:0,0:0:0:0:
284,191,31335,1,0,0:0:0:0:
184,244,31563,6,0,P|167:208|172:173,1,75.0000028610231,2|0,0:3|0:0,0:0:0:0:
238,90,32017,2,0,L|317:95,1,75.0000028610231,8|0,0:0|0:0,0:0:0:0:
338,89,32358,1,2,0:3:0:0:
363,84,32472,1,2,0:3:0:0:
450,154,32699,1,2,0:3:0:0:
460,178,32813,1,2,0:3:0:0:
464,203,32926,1,8,0:0:0:0:
464,229,33040,1,2,0:3:0:0:
458,254,33154,1,2,0:3:0:0:
449,278,33267,1,2,0:3:0:0:
433,299,33381,5,4,0:0:0:0:
214,246,33835,1,8,0:0:0:0:
250,352,34063,1,0,0:0:0:0:
331,274,34290,2,0,P|335:233|318:195,1,75.0000028610231,2|2,0:3|0:3,0:0:0:0:
214,246,34744,2,0,P|166:255|139:240,1,75.0000028610231,8|0,0:0|0:0,0:0:0:0:
53,305,35199,6,0,P|33:243|65:163,1,150.000005722046,2|8,0:3|0:0,0:3:0:0:
173,145,35881,1,0,0:0:0:0:
214,246,36108,2,0,P|252:254|287:241,1,75.0000028610231,2|2,0:3|0:3,0:0:0:0:
278,90,36563,1,8,0:0:0:0:
214,247,36790,1,8,0:0:0:0:
194,70,37017,6,0,P|239:13|312:10,1,150.000005722046,4|0,0:0|0:0,0:0:0:0:
421,158,37699,6,0,P|342:176|278:87,1,200,4|0,0:0|0:0,0:0:0:0:
495,47,38381,6,0,L|496:187,1,125,4|0,0:0|0:0,0:0:0:0:
497,215,38722,1,0,0:0:0:0:
498,258,38835,2,0,L|498:296,23,31.25,8|8|8|8|8|8|8|8|8|8|8|8|8|8|8|8|8|8|8|8|8|8|8|8,0:0|0:0|0:0|0:0|0:0|0:0|0:0|0:0|0:0|0:0|0:0|0:0|0:0|0:0|0:0|0:0|0:0|0:0|0:0|0:0|0:0|0:0|0:0|0:0,0:0:0:0:
497,311,40199,6,0,P|446:331|393:311,1,112.500004291535,2|0,0:3|0:0,0:0:0:0:
374,282,40654,5,4,0:0:0:0:
311,146,40881,1,2,0:0:0:0:
265,291,41108,1,8,0:0:0:0:
379,193,41335,5,2,0:0:0:0:
233,145,41563,1,2,0:3:0:0:
265,291,41790,1,2,0:0:0:0:
311,146,42017,5,8,0:0:0:0:
457,191,42244,1,2,0:0:0:0:
306,226,42472,1,2,0:3:0:0:
270,76,42699,5,2,0:0:0:0:
228,221,42926,1,8,0:0:0:0:
337,323,43154,2,0,P|383:338|434:320,1,100,2|2,0:0|0:3,0:0:0:0:
306,226,43608,1,2,0:0:0:0:
195,329,43835,1,8,0:0:0:0:
162,177,44063,1,2,0:0:0:0:
162,177,44290,5,2,0:3:0:0:
270,76,44517,1,2,0:0:0:0:
228,222,44744,1,8,0:0:0:0:
121,110,44972,2,0,P|74:94|23:117,1,100,2|2,0:0|0:3,0:0:0:0:
112,238,45426,1,2,0:0:0:0:
199,107,45654,1,8,0:0:0:0:
306,226,45881,6,0,P|288:278|250:300,1,100,2|2,0:0|0:3,0:0:0:0:
161,178,46335,1,2,0:0:0:0:
271,76,46563,2,0,P|315:69|374:91,1,100,8|2,0:0|0:0,0:0:0:0:
306,226,47017,1,2,0:3:0:0:
306,226,47131,1,2,0:0:0:0:
306,226,47244,1,2,0:0:0:0:
472,199,47472,1,8,0:0:0:0:
464,234,47585,1,2,0:0:0:0:
446,266,47699,1,2,0:0:0:0:
424,294,47813,1,2,0:0:0:0:
396,315,47926,6,0,P|352:337|290:315,1,100,4|2,0:0|0:0,0:0:0:0:
333,178,48381,1,8,0:0:0:0:
222,275,48608,1,2,0:0:0:0:
374,245,48835,2,0,P|406:209|407:155,1,100,2|2,0:3|0:0,0:0:0:0:
280,85,49290,1,8,0:0:0:0:
282,237,49517,6,0,P|326:257|374:245,1,100,2|2,0:0|0:3,0:0:0:0:
356,94,49972,1,2,0:0:0:0:
228,176,50199,1,8,0:0:0:0:
226,25,50426,1,2,0:0:0:0:
381,19,50654,2,0,P|426:53|435:107,1,100,2|2,0:3|0:0,0:0:0:0:
355,216,51108,1,8,0:0:0:0:
281,85,51335,1,2,0:0:0:0:
281,85,51563,5,2,0:3:0:0:
133,55,51790,1,2,0:0:0:0:
228,176,52017,1,8,0:0:0:0:
225,25,52244,1,2,0:0:0:0:
149,155,52472,1,2,0:3:0:0:
305,161,52699,1,2,0:0:0:0:
182,247,52926,1,8,0:0:0:0:
206,99,53154,1,2,0:0:0:0:
366,203,53381,5,2,0:3:0:0:
239,365,53608,1,2,0:3:0:0:
87,249,53835,1,8,0:0:0:0:
206,99,54063,1,8,0:0:0:0:
206,99,54176,1,8,0:0:0:0:
206,99,54290,6,0,P|261:82|319:106,1,112.500004291535,8|0,0:0|0:0,0:0:0:0:
341,120,54744,6,0,P|414:145|481:115,1,150,4|0,0:0|0:0,0:0:0:0:
499,86,55199,5,4,0:0:0:0:
421,218,55426,1,2,0:0:0:0:
407,64,55654,1,8,0:0:0:0:
327,196,55881,5,2,0:0:0:0:
318,39,56108,1,2,0:3:0:0:
233,170,56335,1,2,0:0:0:0:
228,15,56563,5,8,0:0:0:0:
141,146,56790,1,2,0:0:0:0:
295,115,57017,1,2,0:3:0:0:
206,244,57244,5,2,0:0:0:0:
216,93,57472,1,8,0:0:0:0:
327,195,57699,2,0,P|374:208|426:190,1,100,2|2,0:0|0:3,0:0:0:0:
346,62,58154,1,2,0:0:0:0:
248,180,58381,1,8,0:0:0:0:
354,287,58608,1,2,0:0:0:0:
354,287,58835,5,2,0:3:0:0:
382,137,59063,1,2,0:0:0:0:
278,255,59290,1,8,0:0:0:0:
160,160,59517,1,2,0:0:0:0:
304,118,59744,1,2,0:3:0:0:
196,240,59972,1,2,0:0:0:0:
344,208,60199,1,8,0:0:0:0:
356,57,60426,1,2,0:0:0:0:
201,77,60654,6,0,L|94:94,1,100,2|2,0:3|0:0,0:3:0:0:
242,11,61108,1,8,0:0:0:0:
350,133,61335,2,0,P|399:123|432:77,1,100,2|2,0:0|0:3,0:0:0:0:
278,87,61790,1,2,0:0:0:0:
344,208,62017,1,8,0:0:0:0:
429,86,62244,1,2,0:0:0:0:
416,245,62472,6,0,L|410:353,1,100,4|2,0:0|0:0,0:0:0:0:
344,208,62926,1,8,0:0:0:0:
429,86,63154,2,0,P|478:92|512:132,2,100,2|2|2,0:0|0:3|0:0,0:0:0:0:
278,87,63835,1,8,0:0:0:0:
344,208,64063,2,0,P|350:259|326:305,2,100,2|2|2,0:0|0:3|0:0,0:0:0:0:
278,87,64744,1,8,0:0:0:0:
137,136,64972,2,0,P|146:185|186:214,1,100,2|2,0:0|0:3,0:0:0:0:
344,131,65426,1,2,0:0:0:0:
344,131,65654,1,8,0:0:0:0:
214,23,65881,6,0,L|109:30,1,100,2|2,0:0|0:3,0:0:0:0:
13,140,66335,1,2,0:0:0:0:
44,287,66563,2,0,P|73:329|126:340,1,100,8|2,0:0|0:0,0:0:0:0:
205,218,67017,2,0,P|176:176|123:165,1,100,2|2,0:3|0:0,0:0:0:0:
201,296,67472,2,0,P|248:288|280:244,2,100,8|2|2,0:0|0:0|0:3,0:0:0:0:
75,212,68154,5,2,0:0:0:0:
75,212,68267,1,0,0:0:0:0:
75,212,68381,1,8,0:0:0:0:
207,141,68608,1,2,0:0:0:0:
207,141,68722,1,8,0:0:0:0:
207,141,68835,1,0,0:0:0:0:
129,270,69063,1,2,0:0:0:0:
130,120,69290,1,12,0:0:0:0:
251,207,69517,1,2,0:0:0:0:
75,212,69744,5,4,0:0:0:0:
207,141,69972,1,2,0:0:0:0:
63,82,70199,1,8,0:0:0:0:
196,51,70426,5,2,0:0:0:0:
196,51,70540,1,2,0:0:0:0:
196,51,70654,1,2,0:3:0:0:
149,193,70881,1,2,0:0:0:0:
272,108,71108,5,10,0:0:0:0:
272,108,71222,1,2,0:0:0:0:
272,108,71335,1,2,0:0:0:0:
122,105,71563,1,2,0:3:0:0:
241,195,71790,5,2,0:0:0:0:
241,195,71904,1,2,0:0:0:0:
241,195,72017,1,10,0:0:0:0:
105,258,72244,1,2,0:0:0:0:
196,129,72472,5,2,0:3:0:0:
279,262,72699,1,2,0:0:0:0:
149,193,72926,1,8,0:0:0:0:
272,108,73154,1,2,0:0:0:0:
272,108,73381,5,2,0:3:0:0:
279,262,73608,2,0,P|252:313|213:326,1,100,2|8,0:3|0:0,0:0:0:0:
64,327,74063,1,2,0:3:0:0:
64,327,74176,1,0,0:0:0:0:
64,327,74290,1,2,0:3:0:0:
106,181,74517,2,0,P|153:194|184:242,1,100,2|8,0:3|0:0,0:0:0:0:
33,242,74972,1,2,0:3:0:0:
75,96,75199,5,8,0:0:0:0:
214,152,75426,1,0,0:0:0:0:
111,257,75654,1,8,0:0:0:0:
151,106,75881,2,0,L|163:51,2,50,2|2|8,0:3|0:3|0:0,0:0:0:0:
188,255,76335,2,0,L|193:305,2,50,2|2|8,0:3|0:3|0:0,0:0:0:0:
294,144,76790,1,2,0:3:0:0:
188,255,77017,5,4,0:0:0:0:
345,259,77244,1,2,0:0:0:0:
217,171,77472,1,8,0:0:0:0:
316,57,77699,5,2,0:0:0:0:
390,191,77926,1,2,0:3:0:0:
263,277,78154,1,2,0:0:0:0:
140,187,78381,5,8,0:0:0:0:
202,329,78608,1,2,0:0:0:0:
217,171,78835,1,2,0:3:0:0:
115,285,79063,5,2,0:0:0:0:
263,277,79290,1,8,0:0:0:0:
281,126,79517,1,2,0:0:0:0:
188,248,79744,5,2,0:3:0:0:
158,94,79972,1,2,0:0:0:0:
309,53,80199,1,8,0:0:0:0:
309,204,80426,1,2,0:0:0:0:
309,204,80540,1,0,0:0:0:0:
309,204,80654,6,0,P|361:208|405:177,1,100,2|0,0:3|0:0,0:0:0:0:
222,193,81108,2,0,P|229:242|263:277,1,100,8|0,0:0|0:0,0:0:0:0:
296,289,81449,1,0,0:0:0:0:
331,286,81563,1,2,0:3:0:0:
271,126,81790,1,2,0:3:0:0:
153,248,82017,1,8,0:0:0:0:
309,205,82244,1,0,0:0:0:0:
143,165,82472,5,2,0:0:0:0:
109,176,82585,2,0,P|76:209|71:268,1,100,2|2,0:0|0:0,0:0:0:0:
76,304,82926,2,0,L|53:320,4,25,2|2|2|2|2,0:0|0:0|0:0|0:0|0:0,0:0:0:0:
123,323,83267,6,0,P|170:330|228:291,1,100,2|2,0:0|0:0,0:0:0:0:
231,275,83608,1,2,0:0:0:0:
233,239,83722,1,2,0:0:0:0:
225,208,83835,2,0,P|207:153|224:102,1,112.500004291535,2|0,0:0|0:0,0:0:0:0:
243,85,84290,5,4,0:0:0:0:
328,157,84517,1,0,0:0:0:0:
355,47,84744,1,8,0:0:0:0:
432,128,84972,1,0,0:0:0:0:
443,151,85085,2,0,P|441:203|387:255,1,112.500004291535,2|0,0:3|0:0,0:0:0:0:
328,157,85654,1,8,0:0:0:0:
355,47,85881,6,0,P|386:24|426:21,1,75.0000028610231,0|2,0:0|0:3,0:0:0:0:
328,157,86335,2,0,P|290:167|248:154,1,75.0000028610231,0|8,0:0|0:0,0:0:0:0:
147,128,86790,2,0,P|107:124|70:144,1,75.0000028610231,0|2,0:0|0:3,0:0:0:0:
42,245,87244,1,0,0:0:0:0:
95,344,87472,1,10,0:0:0:0:
119,353,87585,1,2,0:0:0:0:
145,356,87699,1,2,0:0:0:0:
171,355,87813,1,2,0:0:0:0:
196,349,87926,6,0,P|234:334|254:299,2,75.0000028610231,2|0|8,0:3|0:0|0:0,0:0:0:0:
154,244,88608,1,0,0:0:0:0:
241,173,88835,1,2,0:3:0:0:
334,236,89063,1,0,0:0:0:0:
305,344,89290,1,8,0:0:0:0:
154,244,89517,6,0,L|83:202,1,75.0000028610231,0|2,0:0|0:3,0:0:0:0:
241,173,89972,2,0,L|241:91,1,75.0000028610231,0|8,0:0|0:0,0:0:0:0:
334,236,90426,2,0,L|405:194,1,75.0000028610231,0|2,0:0|0:3,0:0:0:0:
452,98,90881,1,0,0:0:0:0:
368,22,91108,1,10,0:0:0:0:
342,16,91222,1,2,0:0:0:0:
316,13,91335,1,2,0:0:0:0:
289,14,91449,1,2,0:0:0:0:
263,20,91563,6,0,P|224:33|195:68,2,75.0000028610231,2|0|8,0:3|0:0|0:0,0:0:0:0:
298,126,92244,1,0,0:0:0:0:
202,186,92472,1,2,0:3:0:0:
106,125,92699,1,0,0:0:0:0:
142,18,92926,1,8,0:0:0:0:
298,126,93154,6,0,P|337:140|386:127,1,75.0000028610231,0|2,0:0|0:3,0:0:0:0:
496,181,93608,2,0,P|464:207|451:256,1,75.0000028610231,0|8,0:0|0:0,0:0:0:0:
346,322,94063,2,0,P|338:281|302:245,1,75.0000028610231,0|2,0:0|0:3,0:0:0:0:
216,208,94517,1,0,0:0:0:0:
126,275,94744,1,10,0:0:0:0:
101,285,94858,1,2,0:0:0:0:
75,289,94972,1,2,0:0:0:0:
49,285,95085,1,2,0:0:0:0:
24,276,95199,6,0,P|22:240|50:196,1,75.0000028610231,2|0,0:3|0:0,0:3:0:0:
126,276,95654,1,8,0:0:0:0:
70,372,95881,1,0,0:0:0:0:
126,275,96108,2,0,P|166:266|198:276,1,75.0000028610231,2|2,0:3|0:3,0:0:0:0:
267,363,96563,1,8,0:0:0:0:
326,268,96790,2,0,P|332:230|320:191,1,75.0000028610231,0|2,0:0|0:3,0:0:0:0:
249,106,97244,1,0,0:0:0:0:
145,155,97472,2,0,L|103:160,1,37.5000014305115,8|0,0:0|0:0,0:0:0:0:
249,106,97813,2,0,L|291:111,1,37.5000014305115,2|0,0:3|0:0,0:0:0:0:
373,34,98154,1,2,0:3:0:0:
475,91,98381,1,10,0:0:0:0:
480,116,98494,1,2,0:0:0:0:
480,142,98608,1,2,0:0:0:0:
476,168,98722,1,2,0:0:0:0:
466,192,98835,5,8,0:0:0:0:
245,239,99290,1,8,0:0:0:0:
174,151,99517,1,0,0:0:0:0:
285,134,99744,1,8,0:0:0:0:
389,333,100199,1,8,0:0:0:0:
277,342,100426,1,0,0:0:0:0:
245,239,100654,5,8,0:0:0:0:
142,38,101108,1,8,0:0:0:0:
32,61,101335,1,0,0:0:0:0:
34,173,101563,1,8,0:0:0:0:
245,239,102017,1,8,0:0:0:0:
356,256,102244,1,0,0:0:0:0:
411,157,102472,5,8,0:0:0:0:
227,134,102699,1,8,0:0:0:0:
356,256,102926,1,8,0:0:0:0:
327,82,103154,1,8,0:0:0:0:
245,239,103381,1,8,0:0:0:0:
411,157,103608,1,8,0:0:0:0:
250,58,103835,1,8,0:0:0:0:
245,239,104063,1,8,0:0:0:0:
327,82,104290,6,0,L|347:47,23,25,8|8|8|8|8|8|8|8|8|8|8|8|8|8|8|8|8|8|8|8|8|8|8|8,0:0|0:0|0:0|0:0|0:0|0:0|0:0|0:0|0:0|0:0|0:0|0:0|0:0|0:0|0:0|0:0|0:0|0:0|0:0|0:0|0:0|0:0|0:0|0:0,0:0:0:0:
362,43,105654,6,0,P|412:26|474:53,1,112.500004291535,2|0,0:3|0:0,0:0:0:0:
491,70,106108,5,4,0:0:0:0:
399,188,106335,1,2,0:0:0:0:
254,146,106563,1,8,0:0:0:0:
363,43,106790,5,2,0:0:0:0:
399,188,107017,1,2,0:3:0:0:
286,291,107244,1,2,0:0:0:0:
254,146,107472,5,8,0:0:0:0:
399,188,107699,1,2,0:0:0:0:
437,334,107926,1,2,0:3:0:0:
286,291,108154,5,2,0:0:0:0:
399,188,108381,1,8,0:0:0:0:
354,337,108608,1,2,0:0:0:0:
354,337,108835,1,2,0:3:0:0:
317,189,109063,1,2,0:0:0:0:
206,294,109290,1,8,0:0:0:0:
359,257,109517,1,2,0:0:0:0:
359,257,109744,5,2,0:3:0:0:
246,361,109972,1,2,0:0:0:0:
196,217,110199,1,8,0:0:0:0:
95,333,110426,2,0,P|45:339|4:310,1,100,2|2,0:0|0:3,0:0:0:0:
18,158,110881,1,2,0:0:0:0:
132,261,111108,1,8,0:0:0:0:
18,158,111335,1,2,0:0:0:0:
168,117,111563,5,2,0:3:0:0:
59,225,111790,1,2,0:0:0:0:
212,262,112017,1,8,0:0:0:0:
168,117,112244,1,2,0:0:0:0:
132,261,112472,1,2,0:3:0:0:
140,294,112585,1,2,0:0:0:0:
161,321,112699,1,2,0:0:0:0:
192,337,112813,1,2,0:0:0:0:
226,340,112926,1,10,0:0:0:0:
255,157,113154,1,2,0:3:0:0:
59,225,113381,6,0,P|52:277|81:321,1,100,4|2,0:0|0:0,0:0:0:0:
212,261,113835,1,8,0:0:0:0:
111,157,114063,2,0,P|66:137|11:151,2,100,2|2|2,0:0|0:3|0:0,0:0:0:0:
212,261,114744,1,8,0:0:0:0:
337,173,114972,6,0,P|346:120|328:73,2,100,2|2|2,0:0|0:3|0:0,0:0:0:0:
212,261,115654,1,8,0:0:0:0:
111,157,115881,2,0,P|94:105|114:55,2,100,2|2|2,0:0|0:3|0:0,0:0:0:0:
212,261,116563,1,8,0:0:0:0:
337,173,116790,1,2,0:0:0:0:
337,173,117017,5,2,0:3:0:0:
199,112,117244,1,2,0:0:0:0:
212,261,117472,1,8,0:0:0:0:
362,251,117699,1,2,0:0:0:0:
362,251,117813,1,0,0:0:0:0:
362,251,117926,2,0,P|405:223|416:170,1,100,2|2,0:3|0:0,0:0:0:0:
269,137,118381,1,8,0:0:0:0:
289,288,118608,1,2,0:0:0:0:
155,334,118835,5,2,0:3:0:0:
121,340,118949,2,0,P|69:338|25:291,1,100,2|2,0:0|0:0,0:0:0:0:
12,280,119290,1,2,0:0:0:0:
3,245,119404,1,2,0:0:0:0:
5,210,119517,1,2,0:0:0:0:
13,176,119631,1,2,0:0:0:0:
110,3,119858,2,0,P|122:46|97:109,1,100,2|2,0:0|0:0,0:0:0:0:
73,126,120199,6,0,L|185:136,1,112.500004291535,4|0,0:0|0:0,0:0:0:0:
220,136,120654,5,4,0:0:0:0:
282,264,120881,1,2,0:0:0:0:
145,248,121108,1,8,0:0:0:0:
284,181,121335,5,2,0:0:0:0:
361,310,121563,1,2,0:3:0:0:
397,163,121790,1,2,0:0:0:0:
282,264,122017,5,8,0:0:0:0:
426,235,122244,1,2,0:0:0:0:
322,109,122472,1,2,0:3:0:0:
206,210,122699,5,2,0:0:0:0:
284,343,122926,1,8,0:0:0:0:
308,190,123154,2,0,P|345:162|411:169,1,100,2|2,0:0|0:3,0:0:0:0:
426,309,123608,1,2,0:0:0:0:
282,264,123835,1,8,0:0:0:0:
426,234,124063,1,2,0:0:0:0:
426,234,124290,5,2,0:3:0:0:
354,357,124517,1,2,0:0:0:0:
211,297,124744,1,8,0:0:0:0:
359,270,124972,1,2,0:0:0:0:
226,199,125199,1,2,0:3:0:0:
375,185,125426,1,2,0:0:0:0:
429,325,125654,1,8,0:0:0:0:
279,325,125881,1,2,0:0:0:0:
299,176,126108,6,0,P|320:128|368:107,1,100,2|2,0:3|0:0,0:0:0:0:
359,270,126563,1,8,0:0:0:0:
213,301,126790,2,0,P|165:286|133:236,1,100,2|2,0:0|0:3,0:0:0:0:
172,98,127244,1,2,0:0:0:0:
172,98,127358,1,0,0:0:0:0:
172,98,127472,1,12,0:0:0:0:
299,177,127699,1,0,0:3:0:0:
288,326,127926,6,0,P|254:368|199:373,1,100,4|2,0:0|0:0,0:0:0:0:
217,225,128381,1,8,0:0:0:0:
359,270,128608,1,2,0:0:0:0:
213,301,128835,2,0,P|165:286|139:235,1,100,2|2,0:3|0:0,0:0:0:0:
171,98,129290,1,8,0:0:0:0:
216,225,129517,1,2,0:0:0:0:
303,82,129744,6,0,P|350:74|398:96,1,100,2|2,0:3|0:0,0:0:0:0:
286,191,130199,1,8,0:0:0:0:
171,98,130426,2,0,P|119:84|74:103,1,100,2|2,0:0|0:3,0:0:0:0:
80,257,130881,2,0,P|132:271|177:252,1,100,2|8,0:0|0:0,0:0:0:0:
41,186,131335,2,0,P|4:223|6:284,1,100,2|2,0:0|0:3,0:0:0:0:
106,375,131790,5,2,0:0:0:0:
106,375,131904,1,2,0:0:0:0:
106,375,132017,1,8,0:0:0:0:
127,196,132244,1,2,0:0:0:0:
127,196,132358,1,2,0:0:0:0:
127,196,132472,1,2,0:3:0:0:
211,369,132699,1,2,0:0:0:0:
211,369,132813,1,2,0:0:0:0:
211,369,132926,1,8,0:0:0:0:
247,209,133154,1,2,0:0:0:0:
247,209,133267,1,2,0:0:0:0:
247,209,133381,1,2,0:3:0:0:
83,262,133608,6,0,P|53:227|52:168,1,100,2|8,0:3|0:0,0:0:0:0:
138,32,134063,2,0,L|194:37,1,50,2|8,0:3|0:0,0:0:0:0:
264,41,134290,1,2,0:3:0:0:
247,209,134517,1,0,0:0:0:0:
421,169,134744,1,2,0:3:0:0:
443,20,134972,1,2,0:3:0:0:
343,132,135199,5,2,0:3:0:0:
491,112,135426,1,0,0:0:0:0:
461,259,135654,2,0,P|412:272|364:247,1,100,8|0,0:0|0:0,0:0:0:0:
265,141,136108,5,2,0:3:0:0:
312,306,136335,1,2,0:3:0:0:
421,169,136563,2,0,P|469:158|516:179,1,100,8|0,0:0|0:0,0:0:0:0:
499,332,137017,5,2,0:3:0:0:
382,236,137244,1,0,0:0:0:0:
338,381,137472,2,0,P|285:383|241:338,1,100,8|0,0:0|0:0,0:0:0:0:
304,212,137926,1,2,0:3:0:0:
410,326,138154,1,2,0:3:0:0:
410,326,138267,1,2,0:3:0:0:
410,326,138381,1,2,0:3:0:0:
250,355,138608,1,8,0:0:0:0:
382,236,138835,6,0,P|383:189|354:147,2,75.0000028610231,4|0|8,0:0|0:0|0:0,0:0:0:0:
280,284,139517,1,0,0:0:0:0:
169,264,139744,1,2,0:0:0:0:
107,169,139972,1,0,0:0:0:0:
111,56,140199,1,8,0:0:0:0:
209,110,140426,6,0,P|243:122|288:113,1,75.0000028610231,0|2,0:0|0:0,0:0:0:0:
389,84,140881,2,0,P|417:58|429:19,1,75.0000028610231,0|8,0:0|0:0,0:0:0:0:
317,42,141335,2,0,L|361:197,1,150.000005722046,0|2,0:0|0:0,0:0:0:0:
454,245,142017,1,8,0:0:0:0:
355,299,142244,6,0,P|311:303|278:284,1,75.0000028610231,2|2,0:0|0:0,0:0:0:0:
194,220,142699,1,0,0:0:0:0:
81,212,142926,1,8,0:0:0:0:
54,321,143154,2,0,P|99:328|134:309,1,75.0000028610231,0|2,0:0|0:0,0:0:0:0:
194,220,143608,1,0,0:0:0:0:
194,220,143835,1,8,0:0:0:0:
142,119,144063,1,0,0:0:0:0:
243,70,144290,6,0,L|326:75,1,75.0000028610231,2|0,0:0|0:0,0:0:0:0:
410,138,144744,2,0,B|375:163|375:163|252:158,1,150.000005722046,8|2,0:0|0:0,0:0:0:0:
394,58,145426,1,2,0:0:0:0:
394,58,145654,1,8,0:0:0:0:
488,184,145881,6,0,L|481:261,1,75.0000028610231,0|2,0:0|0:0,0:0:0:0:
410,138,146335,1,0,0:0:0:0:
366,273,146563,2,0,L|377:355,1,75.0000028610231,8|0,0:0|0:0,0:0:0:0:
297,218,147017,1,2,0:0:0:0:
195,266,147244,1,0,0:0:0:0:
91,220,147472,1,8,0:0:0:0:
48,116,147699,6,0,P|82:103|128:118,1,75.0000028610231,0|2,0:0|0:0,0:0:0:0:
91,220,148154,2,0,P|57:233|10:218,1,75.0000028610231,0|8,0:0|0:0,0:0:0:0:
161,178,148608,2,0,P|174:222|155:268,1,75.0000028610231
48,116,149063,2,0,P|35:72|54:26,1,75.0000028610231,2|8,0:0|0:0,0:0:0:0:
150,18,149517,1,8,0:0:0:0:
237,88,149744,6,0,B|269:119|269:119|394:109,1,150.000005722046,4|0,0:0|0:0,0:0:0:0:
461,39,150426,2,0,P|488:100|461:185,1,150.000005722046,4|0,0:0|0:0,0:0:0:0:
362,219,151108,6,0,P|463:176|517:271,1,225.000008583069,4|0,0:0|0:0,0:0:0:0:
479,362,152017,1,8,0:0:0:0:
435,258,152244,1,0,0:0:0:0:
348,330,152472,2,0,P|308:344|260:324,1,75.0000028610231,8|0,0:0|0:0,0:0:0:0:
183,274,152926,1,2,0:0:0:0:
161,163,153154,1,0,0:0:0:0:
300,230,153381,5,4,0:0:0:0:
161,163,153608,1,2,0:0:0:0:
109,306,153835,1,8,0:0:0:0:
228,202,154063,5,2,0:0:0:0:
179,353,154290,1,2,0:3:0:0:
105,220,154517,1,2,0:0:0:0:
230,122,154744,5,8,0:0:0:0:
242,280,154972,1,2,0:0:0:0:
383,223,155199,1,2,0:3:0:0:
228,202,155426,5,2,0:0:0:0:
293,62,155654,1,8,0:0:0:0:
305,215,155881,1,2,0:0:0:0:
160,160,156108,5,2,0:3:0:0:
317,137,156335,1,2,0:0:0:0:
242,280,156563,1,8,0:0:0:0:
231,122,156790,6,0,P|187:82|78:146,1,200,2|2,0:0|0:0,0:0:0:0:
141,277,157472,1,8,0:0:0:0:
266,359,157699,2,0,P|350:354|398:250,1,200,2|2,0:0|0:0,0:0:0:0:
385,109,158381,1,8,0:0:0:0:
267,202,158608,2,0,P|193:201|143:98,1,200,2|2,0:0|0:0,0:0:0:0:
266,11,159290,1,8,0:0:0:0:
385,109,159517,2,0,B|413:172|413:172|400:316,1,200,2|2,0:0|0:0,0:0:0:0:
398,337,160085,1,2,0:3:0:0:
395,372,160199,1,8,0:0:0:0:
491,257,160426,1,8,0:0:0:0:
325,304,160654,6,0,P|241:323|161:245,1,200,4|8,0:0|0:0,0:0:0:0:
176,102,161335,2,0,P|262:66|401:202,1,300,2|8,0:0|0:0,0:0:0:0:
252,214,162244,2,0,P|263:113|455:71,1,300,2|8,0:0|0:0,0:0:0:0:
477,201,163154,2,0,P|489:292|410:373,1,200,2|0,0:0|0:0,0:0:0:0:
264,347,163835,1,8,0:0:0:0:
396,266,164063,1,0,0:0:0:0:
251,214,164290,5,2,0:3:0:0:
217,203,164404,1,2,0:0:0:0:
182,196,164517,1,2,0:0:0:0:
146,195,164631,1,2,0:0:0:0:
111,201,164744,1,8,0:0:0:0:
80,218,164858,1,2,0:0:0:0:
52,240,164972,1,2,0:3:0:0:
36,271,165085,1,2,0:3:0:0:
32,305,165199,5,0,0:0:0:0:
39,339,165313,1,2,0:0:0:0:
63,363,165426,1,2,0:3:0:0:
94,377,165540,1,2,0:0:0:0:
129,378,165654,1,8,0:0:0:0:
162,369,165767,1,2,0:0:0:0:
185,342,165881,1,2,0:0:0:0:
192,307,165994,1,2,0:0:0:0:
187,272,166108,5,2,0:3:0:0:
165,244,166222,2,0,P|153:200|166:137,1,100,2|2,0:3|0:3,0:0:0:0:
186,121,166563,2,0,L|218:112,8,25,10|2|2|2|2|2|2|2|2,0:0|0:0|0:0|0:0|0:0|0:0|0:0|0:0|0:3,0:0:0:0:
150,118,167131,2,0,P|111:104|79:53,1,100,2|2,0:3|0:3,0:0:0:0:
54,31,167472,2,0,L|51:4,8,25,10|2|2|2|2|2|2|2|2,0:0|0:0|0:0|0:0|0:0|0:0|0:0|0:0|0:0,0:0:0:0:
256,192,168040,12,4,169290,0:0:0:0:
256,191,169744,5,4,0:0:0:0:
161,74,177017,5,8,0:0:0:0:
351,310,177472,1,8,0:0:0:0:
272,41,177926,1,8,0:0:0:0:
239,342,178381,1,8,0:0:0:0:
374,97,178835,1,8,0:0:0:0:
138,287,179290,1,8,0:0:0:0:
406,208,179744,1,8,0:0:0:0:
105,175,180199,1,8,0:0:0:0:
352,310,180654,5,8,0:0:0:0:
239,342,180881,1,8,0:0:0:0:
138,287,181108,1,8,0:0:0:0:
105,175,181335,1,8,0:0:0:0:
161,74,181563,1,8,0:0:0:0:
272,41,181790,1,8,0:0:0:0:
374,97,182017,1,8,0:0:0:0:
406,208,182244,1,8,0:0:0:0:
244,210,182472,5,8,0:0:0:0:
235,198,182585,1,8,0:0:0:0:
236,183,182699,1,8,0:0:0:0:
246,172,182813,1,8,0:0:0:0:
261,170,182926,1,8,0:0:0:0:
273,179,183040,1,8,0:0:0:0:
277,193,183154,1,8,0:0:0:0:
271,206,183267,1,8,0:0:0:0:
259,214,183381,6,0,L|230:213,7,25,10|10|10|10|10|10|10|10,0:0|0:0|0:0|0:0|0:0|0:0|0:0|0:0,0:0:0:0:
196,214,183835,6,0,L|79:214,1,112.500004291535,4|0,0:0|0:0,0:0:0:0:
48,215,184290,5,4,0:0:0:0:
179,142,184517,1,2,0:0:0:0:
146,295,184744,1,8,0:0:0:0:
97,144,184972,5,2,0:0:0:0:
252,168,185199,1,2,0:3:0:0:
186,28,185426,1,2,0:0:0:0:
39,88,185654,5,8,0:0:0:0:
179,142,185881,1,2,0:0:0:0:
90,20,186108,1,2,0:3:0:0:
24,162,186335,5,2,0:0:0:0:
166,219,186563,1,8,0:0:0:0:
189,61,186790,2,0,P|137:69|104:104,1,100,2|2,0:0|0:3,0:0:0:0:
90,252,187244,1,2,0:0:0:0:
241,279,187472,1,8,0:0:0:0:
179,142,187699,1,2,0:0:0:0:
179,142,187926,5,2,0:3:0:0:
159,298,188154,1,2,0:0:0:0:
252,184,188381,1,8,0:0:0:0:
102,167,188608,1,2,0:0:0:0:
228,76,188835,1,2,0:3:0:0:
166,220,189063,1,2,0:0:0:0:
145,67,189290,1,8,0:0:0:0:
252,184,189517,1,2,0:0:0:0:
102,167,189744,6,0,P|50:180|25:226,1,100,2|2,0:3|0:0,0:0:0:0:
97,349,190199,1,8,0:0:0:0:
246,344,190426,2,0,L|345:340,1,100,2|2,0:0|0:3,0:0:0:0:
212,260,190881,1,0,0:0:0:0:
212,260,190994,1,0,0:0:0:0:
212,260,191108,1,12,0:0:0:0:
320,148,191335,1,2,0:3:0:0:
405,280,191563,6,0,P|424:318|417:375,1,100,4|2,0:0|0:0,0:0:0:0:
322,252,192017,1,8,0:0:0:0:
392,119,192244,2,0,P|433:96|499:117,2,100,2|2|2,0:0|0:3|0:0,0:0:0:0:
322,252,192926,1,8,0:0:0:0:
448,169,193154,1,2,0:0:0:0:
298,170,193381,6,0,P|250:202|239:257,1,100,2|2,0:3|0:0,0:0:0:0:
374,192,193835,1,8,0:0:0:0:
245,113,194063,2,0,P|229:68|246:13,1,100,2|2,0:0|0:3,0:0:0:0:
106,84,194517,2,0,P|58:95|11:76,1,100,2|8,0:0|0:0,0:0:0:0:
60,219,194972,6,0,P|68:273|48:320,1,100,2|2,0:0|0:3,0:0:0:0:
138,188,195426,2,0,L|164:146,2,50,2|2|8,0:0|0:0|0:0,0:0:0:0:
199,323,195881,2,0,L|226:381,2,50,2|2|2,0:0|0:0|0:3,0:0:0:0:
274,190,196335,2,0,L|300:148,2,50,2|2|8,0:0|0:0|0:0,0:0:0:0:
335,325,196790,2,0,L|362:383,2,50,2|2|2,0:0|0:0|0:3,0:0:0:0:
274,191,197244,5,2,0:3:0:0:
199,323,197472,1,8,0:0:0:0:
138,188,197699,1,2,0:3:0:0:
138,188,197813,1,2,0:3:0:0:
138,188,197926,1,8,0:0:0:0:
266,272,198154,1,2,0:3:0:0:
208,129,198381,1,12,0:0:0:0:
137,269,198608,1,2,0:3:0:0:
274,191,198835,6,0,P|319:175|374:197,1,100,8|0,0:0|0:0,0:0:0:0:
395,211,199176,1,8,0:0:0:0:
429,219,199290,1,2,0:3:0:0:
464,218,199404,1,2,0:3:0:0:
496,205,199517,1,2,0:3:0:0:
383,106,199744,5,4,0:0:0:0:
325,249,199972,1,2,0:0:0:0:
227,126,200199,1,8,0:0:0:0:
370,182,200426,5,2,0:0:0:0:
273,62,200654,1,2,0:3:0:0:
424,39,200881,1,2,0:0:0:0:
305,135,201108,5,8,0:0:0:0:
185,44,201335,1,2,0:0:0:0:
343,22,201563,1,2,0:3:0:0:
227,126,201790,5,2,0:0:0:0:
371,182,202017,1,8,0:0:0:0:
273,62,202244,1,2,0:0:0:0:
185,191,202472,5,2,0:3:0:0:
185,44,202699,1,2,0:0:0:0:
305,135,202926,1,8,0:0:0:0:
148,117,203154,6,0,P|103:156|98:200,1,100,2|2,0:0|0:3,0:0:0:0:
222,279,203608,1,2,0:0:0:0:
227,126,203835,1,8,0:0:0:0:
143,259,204063,2,0,P|92:276|41:252,1,100,2|2,0:0|0:3,0:0:0:0:
45,108,204517,1,2,0:0:0:0:
185,44,204744,1,8,0:0:0:0:
305,144,204972,6,0,P|278:191|220:202,1,100,2|2,0:0|0:3,0:0:0:0:
123,101,205426,1,2,0:0:0:0:
265,29,205654,1,8,0:0:0:0:
383,125,205881,1,2,0:0:0:0:
230,114,206108,1,2,0:3:0:0:
201,110,206222,1,2,0:0:0:0:
172,107,206335,1,2,0:0:0:0:
145,104,206449,1,2,0:0:0:0:
123,101,206563,6,0,L|133:188,1,75.0000028610231,8|2,0:0|0:0,0:0:0:0:
191,286,207017,2,0,P|157:304|111:295,1,75.0000028610231,8|0,0:0|0:0,0:0:0:0:
97,289,207358,1,8,0:0:0:0:
71,284,207472,1,2,0:3:0:0:
44,286,207585,1,2,0:3:0:0:
16,296,207699,1,2,0:3:0:0:
135,212,207926,5,4,0:0:0:0:
0,143,208154,1,2,0:0:0:0:
71,284,208381,1,8,0:0:0:0:
104,137,208608,5,2,0:0:0:0:
212,243,208835,1,2,0:3:0:0:
56,205,209063,1,2,0:0:0:0:
177,102,209290,5,8,0:0:0:0:
281,215,209517,1,2,0:0:0:0:
129,239,209744,1,2,0:3:0:0:
23,130,209972,5,2,0:0:0:0:
177,102,210199,1,8,0:0:0:0:
56,205,210426,1,2,0:0:0:0:
30,50,210654,5,2,0:3:0:0:
125,162,210881,1,2,0:0:0:0:
187,22,211108,1,8,0:0:0:0:
30,50,211335,5,2,0:0:0:0:
177,102,211563,1,2,0:3:0:0:
56,205,211790,1,2,0:0:0:0:
111,55,212017,5,8,0:0:0:0:
203,177,212244,1,2,0:0:0:0:
89,282,212472,6,2,P|40:289|-6:260,1,100,2|2,0:3|0:3,0:3:0:0:
155,240,212926,2,0,P|166:293|136:345,1,100,8|0,0:0|0:0,0:0:0:0:
124,168,213381,1,2,0:3:0:0:
158,161,213494,2,0,P|211:181|233:225,1,100,2|2,0:3|0:0,0:0:0:0:
252,245,213835,2,0,L|247:300,6,33.3333333333333,8|2|2|2|2|2|2,0:0|0:0|0:0|0:0|0:0|0:0|0:0,0:0:0:0:
277,220,214404,6,0,P|309:183|360:171,1,100,10|0,0:0|0:0,0:0:0:0:
391,177,214744,1,8,0:0:0:0:
343,333,214972,2,0,P|325:345|298:349,1,50,8|2,0:0|0:3,0:0:0:0:
68,193,215654,6,0,L|66:159,2,25,2|2|2,0:0|0:0|0:0,0:0:0:0:
