osu file format v13

[General]
AudioFilename: Uraomote Fortune.mp3
AudioLeadIn: 2000
PreviewTime: 38928
Countdown: 0
SampleSet: Soft
StackLeniency: 0.7
Mode: 0
LetterboxInBreaks: 0
WidescreenStoryboard: 0

[Editor]
DistanceSpacing: 0.6
BeatDivisor: 4
GridSize: 32
TimelineZoom: 1

[Metadata]
Title:URAOMOTE FORTUNE
TitleUnicode:ウラオモテ・フォーチュン
Artist:Sakura Chiyo (CV:Ozawa Ari)
ArtistUnicode:佐倉千代 (CV:小澤亜李)
Creator:KantoKun
Version:Insane
Source:GEKKAN SHOJO NOZAKI KUN
Tags:ura omote 月刊少女野崎くん Monthly Girls' Nozaki-kun ending koreapenguin No_Gu
BeatmapID:495285
BeatmapSetID:210574

[Difficulty]
HPDrainRate:6
CircleSize:4
OverallDifficulty:7
ApproachRate:8
SliderMultiplier:1.6
SliderTickRate:2

[Events]
//Background and Video events
0,0,"BG.jpg",0,0
Video,-500,"PV.avi"
//Break Periods
//Storyboard Layer 0 (Background)
//Storyboard Layer 1 (Fail)
//Storyboard Layer 2 (Pass)
//Storyboard Layer 3 (Foreground)
//Storyboard Sound Samples

[TimingPoints]
65,454.545454545455,4,2,1,30,1,0
974,-111.111111111111,4,2,1,80,0,0
1428,-111.111111111111,4,2,1,50,0,0
1883,-100,4,2,1,80,0,0
9155,-111.111111111111,4,2,1,80,0,0
9269,-111.111111111111,4,2,1,50,0,0
10065,-100,4,2,1,80,0,0
13587,-100,4,2,2,80,0,0
13815,-100,4,2,1,80,0,0
17337,-100,4,2,1,40,0,0
18246,-100,4,2,1,80,0,0
32792,-111.111111111111,4,2,1,60,0,0
33815,-111.111111111111,4,2,2,50,0,0
34042,-111.111111111111,4,2,1,60,0,0
36428,-100,4,2,1,70,0,0
38246,-100,4,2,1,20,0,0
38474,-100,4,2,1,30,0,0
38701,-100,4,2,1,40,0,0
38928,-100,4,2,1,45,0,0
39155,-100,4,2,1,50,0,0
39383,-100,4,2,1,55,0,0
39610,-83.3333333333333,4,2,1,80,0,0
40065,-95.2380952380952,4,2,1,80,0,1
42678,-95.2380952380952,4,2,2,60,0,1
42905,-95.2380952380952,4,2,1,80,0,1
52792,-95.2380952380952,4,2,1,50,0,1
53246,-95.2380952380952,4,2,1,80,0,1
53360,-95.2380952380952,4,2,1,50,0,1
54155,-83.3333333333333,4,2,1,80,0,0
54610,-95.2380952380951,4,2,1,80,0,1
57224,-95.2380952380951,4,2,2,60,0,1
57451,-95.2380952380951,4,2,1,80,0,1
68701,-83.3333333333333,4,2,1,90,0,1
69155,-100,4,2,1,90,0,0
69269,-100,4,2,1,50,0,0
70065,-100,4,2,1,70,0,0
77337,-111.111111111111,4,2,1,80,0,0
77451,-111.111111111111,4,2,1,50,0,0
78246,-100,4,2,1,80,0,0
82792,-133.333333333333,4,2,1,80,0,0
83587,-133.333333333333,4,2,1,10,0,0
83701,-100,4,2,1,70,0,0
85974,-100,4,2,1,30,0,0

[Colours]
Combo1 : 254,243,112
Combo2 : 251,134,175
Combo3 : 250,168,114
Combo4 : 77,244,173
Combo5 : 255,108,108

[HitObjects]
42,155,65,5,2,0:0:0:0:
63,159,519,1,2,0:0:0:0:
84,163,974,6,0,L|200:151,1,107.999996704102,2|0,0:1|1:0,0:0:0:0:
253,96,1428,2,0,L|296:101,1,35.9999989013672,8|4,0:3|0:3,0:0:0:0:
352,160,1655,2,0,L|395:155,1,35.9999989013672,4|0,0:3|0:0,0:0:0:0:
474,131,1883,6,0,L|482:219,1,80,4|2,3:2|0:0,0:0:0:0:
489,298,2337,1,8,0:0:0:0:
336,203,2565,6,0,L|403:259,1,80,2|0,0:0|3:0,0:0:0:0:
464,310,3019,1,2,0:0:0:0:
289,351,3246,6,0,L|377:343,1,80,8|2,0:0|0:0,0:0:0:0:
455,336,3700,1,0,3:0:0:0:
204,321,3928,6,0,P|154:305|126:265,1,80,2|8,0:0|0:0,0:0:0:0:
79,212,4383,1,2,0:0:0:0:
220,147,4610,6,0,L|211:233,1,80,0|2,3:0|0:0,0:0:0:0:
204,321,5065,1,8,0:0:0:0:
332,277,5292,2,0,L|418:286,1,80,2|0,0:0|3:0,0:0:0:0:
502,324,5746,6,0,P|510:282|501:237,1,80,2|8,0:0|0:0,0:0:0:0:
467,74,6201,2,0,P|461:113|469:152,1,80,2|0,0:0|3:0,0:0:0:0:
504,245,6655,1,2,0:0:0:0:
356,117,6883,1,8,0:0:0:0:
479,238,7110,1,2,0:0:0:0:
379,334,7337,6,0,L|299:325,1,80,0|2,3:0|0:0,0:0:0:0:
133,278,7792,2,0,L|212:269,1,80,8|0,0:0|0:0,0:0:0:0:
265,207,8133,1,2,0:0:0:0:
265,207,8246,2,0,P|271:162|262:121,1,80,0|2,3:0|0:3,0:0:0:0:
257,105,8587,1,0,0:0:0:0:
249,85,8701,2,0,L|244:37,1,40,8|0,0:0|0:0,0:0:0:0:
374,100,8928,2,0,L|369:148,1,40
358,242,9155,5,2,0:1:0:0:
499,158,9383,1,0,0:0:0:0:
499,158,9496,1,8,0:1:0:0:
498,331,9724,1,8,0:3:0:0:
498,331,9837,1,4,0:3:0:0:
358,242,10065,6,0,L|253:250,1,80,4|2,3:2|0:0,0:0:0:0:
187,258,10519,1,8,0:0:0:0:
312,125,10746,6,0,L|225:184,1,80,2|0,0:0|3:0,0:0:0:0:
172,224,11200,1,2,0:0:0:0:
216,45,11428,6,0,L|170:139,1,80,8|2,0:0|0:0,0:0:0:0:
144,200,11882,1,0,3:0:0:0:
95,20,12110,6,0,L|103:125,1,80,2|8,0:0|0:0,0:0:0:0:
109,189,12564,1,2,0:0:0:0:
43,259,12792,6,0,P|30:295|30:344,2,80,0|2|8,3:0|0:0|0:0,0:0:0:0:
135,321,13474,2,0,P|206:337|273:265,1,160,2|2,0:0|0:0,0:0:0:0:
352,339,14155,2,0,L|437:344,1,80,8|0,0:0|0:0,0:0:0:0:
496,294,14496,5,2,0:0:0:0:
496,294,14610,2,0,P|506:246|499:204,1,80,0|2,3:0|0:0,0:0:0:0:
419,145,15065,2,0,P|409:97|416:55,1,80,8|2,0:0|0:0,0:0:0:0:
386,74,15405,1,0,0:0:0:0:
361,81,15519,2,0,L|272:73,1,80,0|2,3:0|0:0,0:0:0:0:
203,153,15974,1,8,0:0:0:0:
124,76,16201,2,0,L|35:68,1,80,2|0,0:0|3:0,0:0:0:0:
28,204,16655,5,2,0:0:0:0:
28,204,16769,1,0,0:0:0:0:
28,204,16883,2,0,L|117:212,1,80,2|0,0:3|0:0,0:0:0:0:
183,310,17337,1,2,0:0:0:0:
205,317,17451,1,0,0:0:0:0:
228,320,17565,1,0,0:0:0:0:
251,318,17678,1,2,0:0:0:0:
274,310,17792,1,2,0:0:0:0:
295,299,17905,1,0,0:0:0:0:
313,283,18019,1,2,0:0:0:0:
327,263,18133,1,0,0:0:0:0:
335,240,18246,6,0,L|329:153,1,80,4|0,3:2|0:0,0:0:0:0:
449,160,18701,2,0,L|443:73,1,80,2|0,0:3|0:0,0:0:0:0:
442,57,19042,1,2,0:0:0:0:
441,35,19155,1,0,3:0:0:0:
324,86,19383,2,0,L|239:75,1,80,2|2,0:0|0:3,0:0:0:0:
161,20,19837,1,0,0:0:0:0:
87,166,20065,6,0,L|172:155,1,80,0|0,3:0|0:0,0:0:0:0:
232,204,20405,1,0,0:0:0:0:
232,204,20519,2,0,P|244:250|243:290,1,80,2|0,0:3|0:0,0:0:0:0:
233,361,20860,1,2,0:0:0:0:
233,361,20974,2,0,P|233:321|244:282,1,80,0|0,3:0|0:0,0:0:0:0:
341,194,21428,1,2,0:3:0:0:
364,196,21542,1,2,0:0:0:0:
387,198,21655,1,2,0:0:0:0:
410,200,21769,1,2,0:0:0:0:
433,202,21883,6,0,B|427:159|427:159|434:129|434:129|428:73,1,120,4|0,3:2|0:0,0:0:0:0:
424,62,22337,2,0,P|467:48|503:52,1,80,2|2,0:3|0:0,0:0:0:0:
335,89,22792,2,0,P|295:91|257:78,1,80,0|2,3:0|0:0,0:0:0:0:
171,37,23246,1,2,0:3:0:0:
89,86,23474,1,0,0:0:0:0:
89,86,23701,6,0,L|5:90,1,80,0|2,3:0|0:0,0:0:0:0:
61,187,24155,2,0,L|145:183,1,80,2|0,0:3|0:0,0:0:0:0:
167,182,24496,1,2,0:0:0:0:
194,182,24610,2,0,P|209:226|204:277,1,80,0|0,3:0|0:0,0:0:0:0:
134,366,25065,1,2,0:3:0:0:
159,350,25178,1,2,0:0:0:0:
190,342,25292,1,2,0:0:0:0:
219,342,25405,1,2,0:0:0:0:
250,351,25519,6,0,P|330:372|370:354,1,120,0|0,3:0|0:0,0:0:0:0:
387,341,25974,2,0,L|391:257,1,80,2|0,0:3|0:0,0:0:0:0:
459,188,26428,2,0,L|455:104,1,80,0|0,3:0|0:0,0:0:0:0:
447,85,26769,1,2,0:0:0:0:
434,65,26883,2,0,P|389:47|340:49,1,80,2|0,0:3|0:0,0:0:0:0:
245,98,27337,6,0,P|200:116|151:114,1,80,0|0,3:0|0:0,0:0:0:0:
56,84,27792,1,2,0:3:0:0:
61,107,27905,1,2,0:0:0:0:
66,130,28019,1,2,0:0:0:0:
71,153,28133,1,2,0:0:0:0:
76,176,28246,2,0,L|66:263,1,80,0|0,3:0|0:0,0:0:0:0:
26,355,28701,2,0,L|73:348,1,40,2|2,0:3|0:0,0:0:0:0:
141,290,28928,2,0,L|188:297,1,40,2|2,0:0|0:0,0:0:0:0:
266,342,29155,6,0,L|356:333,1,80,0|2,3:0|0:0,0:0:0:0:
366,318,29496,1,2,0:0:0:0:
387,328,29610,1,2,0:3:0:0:
410,334,29724,1,2,0:0:0:0:
433,335,29837,1,2,0:0:0:0:
457,333,29951,1,2,0:0:0:0:
479,325,30065,2,0,L|486:243,1,80,0|2,3:0|0:0,0:0:0:0:
422,175,30519,2,0,L|415:93,1,80,2|2,0:3|0:0,0:0:0:0:
492,20,30974,5,0,3:0:0:0:
415,95,31201,1,0,0:0:0:0:
318,53,31428,1,2,0:3:0:0:
318,53,31542,2,0,P|279:40|223:50,1,80,2|0,0:0|0:0,0:0:0:0:
218,50,31883,2,0,P|179:63|123:53,1,80,0|0,3:0|0:0,0:0:0:0:
41,43,32337,1,2,0:3:0:0:
51,69,32451,1,2,0:0:0:0:
56,96,32565,1,2,0:0:0:0:
51,123,32678,1,2,0:0:0:0:
38,148,32792,6,0,P|18:217|56:286,1,143.999995605469,4|8,3:2|0:0,0:0:0:0:
121,338,33474,1,2,0:0:0:0:
207,297,33701,2,0,L|361:314,1,143.999995605469,0|8,3:0|0:0,0:0:0:0:
428,228,34383,1,2,0:0:0:0:
333,215,34610,6,0,L|179:198,1,143.999995605469,0|8,3:0|0:0,0:0:0:0:
125,137,35292,1,2,0:0:0:0:
125,137,35519,2,0,P|122:85|136:53,1,71.9999978027344,0|0,3:0|3:0,0:0:0:0:
210,112,35974,2,0,P|213:164|199:196,1,71.9999978027344,8|8,0:0|0:0,0:0:0:0:
128,233,36428,6,0,L|44:224,2,80,4|0|0,3:2|0:0|1:0,0:0:0:0:
221,312,37110,2,0,L|305:303,2,80,4|0|0,3:2|0:0|1:0,0:0:0:0:
122,369,37792,2,0,P|95:318|118:254,1,120,4|0,3:2|0:0,0:0:0:0:
155,193,38246,6,0,L|155:158,22,20,0|0|0|0|0|0|0|0|0|0|0|0|0|0|0|0|0|0|0|0|0|0|0,3:0|3:0|3:0|3:0|3:0|3:0|3:0|3:0|3:0|3:0|3:0|3:0|3:0|3:0|3:0|3:0|3:0|3:0|3:0|3:0|3:0|3:0|3:0,0:0:0:0:
201,106,39610,6,0,P|263:115|331:69,1,143.999995605469,2|0,0:1|0:0,0:0:0:0:
340,59,40065,6,0,L|433:66,1,83.9999974365235,4|2,3:2|0:0,0:0:0:0:
512,20,40519,1,8,0:0:0:0:
448,197,40746,6,0,L|355:204,1,83.9999974365235,2|0,0:0|3:0,0:0:0:0:
273,164,41200,1,2,0:0:0:0:
340,332,41428,6,0,L|433:339,1,83.9999974365235,8|2,0:0|0:0,0:0:0:0:
512,287,41882,1,0,3:0:0:0:
366,238,42110,6,0,P|316:237|270:263,1,83.9999974365235,2|8,0:0|0:0,0:0:0:0:
186,320,42565,2,0,P|128:352|32:311,1,167.999994873047,2|2,0:0|0:0,0:0:0:0:
101,168,43246,2,0,P|111:213|111:257,1,83.9999974365235,8|2,0:0|0:0,0:0:0:0:
181,100,43701,6,0,P|182:53|190:18,1,83.9999974365235,0|0,3:0|0:0,0:0:0:0:
278,71,44155,1,8,0:0:0:0:
86,52,44383,2,0,P|46:38|-4:47,2,83.9999974365235,2|0|2,0:0|3:0|0:0,0:0:0:0:
278,71,45065,2,0,P|317:84|368:76,1,83.9999974365235,8|0,0:0|0:0,0:0:0:0:
441,58,45405,1,2,0:0:0:0:
441,58,45519,6,0,L|449:153,1,83.9999974365235,0|2,3:0|0:0,0:0:0:0:
384,312,45974,2,0,L|392:229,1,83.9999974365235,8|2,0:0|0:0,0:0:0:0:
380,206,46315,1,0,0:0:0:0:
359,191,46428,1,0,3:0:0:0:
334,184,46542,1,2,0:0:0:0:
309,185,46655,1,2,0:0:0:0:
285,192,46769,1,2,0:0:0:0:
264,206,46883,2,0,P|239:212|211:212,1,41.9999987182618,8|0,0:0|0:0,0:0:0:0:
190,290,47110,2,0,P|167:277|146:258,1,41.9999987182618
78,304,47337,6,0,P|69:256|80:218,1,83.9999974365235,4|2,3:2|0:0,0:0:0:0:
117,114,47792,2,0,P|126:66|115:28,1,83.9999974365235,8|0,0:0|0:0,0:0:0:0:
234,23,48246,2,0,L|331:32,1,83.9999974365235,0|0,3:0|0:0,0:0:0:0:
309,112,48587,1,2,0:0:0:0:
309,112,48701,2,0,L|212:103,1,83.9999974365235,8|0,0:0|0:0,0:0:0:0:
74,173,49155,6,0,L|171:182,1,83.9999974365235,0|0,3:0|0:0,0:0:0:0:
174,199,49496,1,2,0:0:0:0:
186,221,49610,2,0,P|193:268|186:309,1,83.9999974365235,8|2,0:0|0:0,0:0:0:0:
309,354,50065,2,0,P|303:312|310:271,1,83.9999974365235,0|0,3:0|0:0,0:0:0:0:
323,251,50405,1,2,0:0:0:0:
343,238,50519,2,0,L|427:244,1,83.9999974365235,8|2,0:0|0:0,0:0:0:0:
489,322,50974,6,0,P|519:282|496:169,1,167.999994873047,0|8,3:0|0:0,0:0:0:0:
433,96,51655,1,2,0:0:0:0:
338,137,51883,2,0,L|254:131,1,83.9999974365235,0|2,3:0|0:0,0:0:0:0:
175,77,52337,2,0,L|91:83,1,83.9999974365235,8|2,0:0|0:0,0:0:0:0:
42,217,52791,5,0,3:0:0:0:
67,215,52905,1,2,0:0:0:0:
92,213,53018,1,0,3:0:0:0:
117,211,53133,1,2,0:0:0:0:
142,209,53246,2,0,L|140:259,1,41.9999987182618,2|0,0:1|0:0,0:0:0:0:
240,305,53474,2,0,L|238:255,1,41.9999987182618,2|8,0:3|0:1,0:0:0:0:
231,166,53701,2,0,L|290:159,1,41.9999987182618,2|0,0:0|0:0,0:0:0:0:
383,240,53928,2,0,L|324:233,1,41.9999987182618,0|0,3:0|0:0,0:0:0:0:
464,161,54155,5,0,1:0:0:0:
450,333,54383,1,0,0:0:0:0:
436,158,54610,5,4,3:2:0:0:
336,145,54837,2,0,L|240:132,1,83.9999974365235,2|8,0:0|0:0,0:0:0:0:
86,45,55292,5,2,0:0:0:0:
186,32,55519,2,0,L|282:19,1,83.9999974365235,0|2,3:0|0:0,0:0:0:0:
380,257,55974,5,8,0:0:0:0:
280,244,56201,2,0,L|184:231,1,83.9999974365235,2|0,0:0|3:0,0:0:0:0:
103,219,56655,5,2,0:0:0:0:
251,137,56883,1,8,0:0:0:0:
317,338,57110,2,0,P|371:366|466:313,1,167.999994873047,2|2,0:0|0:0,0:0:0:0:
238,284,57792,2,0,P|221:332|226:370,1,83.9999974365235,8|2,0:0|0:0,0:0:0:0:
380,257,58246,6,0,L|371:165,1,83.9999974365235,0|2,3:0|0:0,0:0:0:0:
471,210,58701,1,8,0:0:0:0:
274,138,58928,1,2,0:0:0:0:
446,0,59155,2,0,L|455:92,1,83.9999974365235,0|0,3:0|0:0,0:0:0:0:
450,109,59496,1,2,0:0:0:0:
438,134,59609,2,0,P|396:157|352:157,1,83.9999974365235,8|0,0:0|0:0,0:0:0:0:
197,113,60065,6,0,P|238:116|274:137,1,83.9999974365235,0|2,3:0|0:0,0:0:0:0:
313,249,60519,2,0,L|304:341,1,83.9999974365235,8|2,0:0|0:0,0:0:0:0:
213,289,60974,1,0,3:0:0:0:
406,314,61201,1,2,0:0:0:0:
330,230,61428,2,0,L|321:138,1,83.9999974365235,0|0,1:0|0:0,0:0:0:0:
440,43,61883,6,0,L|449:135,1,83.9999974365235,4|2,3:2|0:0,0:0:0:0:
462,226,62337,1,8,0:0:0:0:
406,314,62565,2,0,P|363:329|316:327,1,83.9999974365235,2|0,0:0|3:0,0:0:0:0:
163,311,63019,2,0,P|190:343|227:364,1,83.9999974365235,2|8,0:0|0:0,0:0:0:0:
62,287,63473,2,0,P|54:242|64:196,1,83.9999974365235,2|0,0:0|3:0,0:0:0:0:
125,122,63928,5,2,0:0:0:0:
212,168,64155,2,0,L|300:161,1,83.9999974365235,8|2,0:0|0:0,0:0:0:0:
458,97,64610,2,0,L|370:90,1,83.9999974365235,0|2,3:0|0:0,0:0:0:0:
296,161,65065,1,8,0:0:0:0:
367,243,65292,1,0,0:0:0:0:
367,243,65405,1,2,0:0:0:0:
367,243,65519,6,0,L|362:334,1,83.9999974365235,0|0,3:0|0:0,0:0:0:0:
281,299,65860,1,2,0:0:0:0:
281,299,65974,2,0,P|239:287|192:294,1,83.9999974365235,8|2,0:0|0:0,0:0:0:0:
177,302,66315,1,0,0:0:0:0:
155,314,66428,2,0,L|148:356,1,41.9999987182618,0|0,3:0|0:0,0:0:0:0:
88,251,66655,2,0,L|95:209,1,41.9999987182618,2|0,0:0|0:0,0:0:0:0:
47,134,66883,1,8,0:0:0:0:
128,36,67110,6,0,P|170:33|225:27,1,83.9999974365235,2|0,0:0|0:0,0:0:0:0:
363,112,67565,2,0,P|321:107|279:104,1,83.9999974365235,2|8,0:0|0:0,0:0:0:0:
311,228,68019,1,2,0:3:0:0:
311,228,68133,1,2,0:3:0:0:
463,75,68360,1,8,0:3:0:0:
463,75,68474,1,4,0:3:0:0:
249,14,68701,6,0,P|202:51|200:146,1,143.999995605469,0|0,1:0|0:0,0:0:0:0:
206,155,69155,6,0,L|216:240,1,80,2|0,0:1|0:0,0:0:0:0:
220,260,69496,1,8,0:1:0:0:
224,285,69610,2,0,L|216:338,1,40,8|8,0:0|0:3,0:0:0:0:
317,267,69837,2,0,L|309:214,1,40,4|0,0:3|0:0,0:0:0:0:
396,312,70065,6,0,P|440:323|483:318,1,80,4|2,3:2|0:0,0:0:0:0:
446,228,70519,1,8,0:0:0:0:
303,143,70746,6,0,P|271:175|254:215,1,80,2|0,0:0|3:0,0:0:0:0:
351,229,71200,1,2,0:0:0:0:
501,146,71428,6,0,P|488:102|462:67,1,80,8|2,0:0|0:0,0:0:0:0:
351,229,71883,2,0,P|395:240|438:235,1,80,0|2,3:0|0:0,0:0:0:0:
352,64,72338,2,0,P|320:96|303:136,1,80,8|2,0:0|2:0,0:0:0:0:
402,144,72792,5,0,3:0:0:0:
330,61,73019,2,0,L|238:54,1,80,2|8,0:0|0:0,0:0:0:0:
91,134,73474,2,0,L|171:128,1,80,2|0,0:0|3:0,0:0:0:0:
120,40,73928,1,0,0:0:0:0:
144,224,74155,2,0,P|150:277|146:315,1,80,8|2,0:0|0:0,0:0:0:0:
9,351,74610,6,0,P|3:298|7:260,1,80,0|2,3:0|0:0,0:0:0:0:
91,134,75065,2,0,L|171:128,1,80,8|2,0:0|0:0,0:0:0:0:
255,193,75519,1,0,3:0:0:0:
349,146,75746,2,0,P|355:93|351:55,1,80,2|8,0:0|0:0,0:0:0:0:
163,238,76201,2,0,P|157:291|161:329,1,80,2|0,0:0|3:0,0:0:0:0:
288,291,76655,5,0,0:0:0:0:
288,291,76769,1,2,0:0:0:0:
288,291,76883,2,0,L|367:297,1,80,8|2,0:0|0:0,0:0:0:0:
476,338,77337,6,0,L|464:222,1,107.999996704102,2|0,0:1|1:0,0:0:0:0:
425,150,77792,2,0,L|436:104,1,35.9999989013672,8|4,0:3|0:3,0:0:0:0:
455,29,78019,1,4,0:3:0:0:
323,139,78246,5,4,3:2:0:0:
354,232,78474,1,2,0:0:0:0:
425,150,78701,1,8,0:0:0:0:
303,143,78928,5,2,0:0:0:0:
367,246,79156,1,0,3:0:0:0:
430,131,79383,1,2,0:0:0:0:
286,151,79611,5,8,0:0:0:0:
383,257,79837,1,2,0:0:0:0:
432,111,80066,1,0,3:0:0:0:
271,164,80291,5,2,0:0:0:0:
401,263,80519,1,8,0:0:0:0:
428,93,80746,1,2,0:0:0:0:
260,179,80974,5,0,3:0:0:0:
420,265,81202,1,2,0:0:0:0:
420,75,81429,1,8,0:0:0:0:
254,197,81655,5,2,0:0:0:0:
439,262,81883,1,0,3:0:0:0:
408,61,82110,1,2,0:0:0:0:
254,217,82337,5,8,0:0:0:0:
457,255,82565,1,2,0:0:0:0:
393,49,82792,6,0,B|175:36,1,210.000008010865,0|2,3:0|0:0,0:0:0:0:
102,15,83701,6,0,L|50:20,1,40,0|0,3:0|0:0,0:0:0:0:
28,114,83928,2,0,L|80:119,1,40,2|0,0:0|0:0,0:0:0:0:
119,212,84155,2,0,L|67:217,1,40,8|0,0:0|0:0,0:0:0:0:
36,310,84382,2,0,L|88:315,1,40,2|0,0:0|0:0,0:0:0:0:
158,357,84610,2,0,L|197:353,1,40,2|0,3:2|0:0,0:0:0:0:
276,298,84837,2,0,L|328:303,1,40,2|0,0:0|0:0,0:0:0:0:
392,358,85065,1,2,0:3:0:0:
415,355,85178,1,2,0:0:0:0:
439,353,85292,1,2,0:0:0:0:
462,351,85405,1,2,0:0:0:0:
485,349,85974,6,0,L|519:346,2,20,0|0|2,0:0|0:0|0:0,0:0:0:0:
