osu file format v13

[General]
AudioFilename: Uraomote Fortune.mp3
AudioLeadIn: 2000
PreviewTime: 38928
Countdown: 0
SampleSet: Soft
StackLeniency: 0.7
Mode: 0
LetterboxInBreaks: 0
WidescreenStoryboard: 0

[Editor]
DistanceSpacing: 0.5
BeatDivisor: 4
GridSize: 32
TimelineZoom: 1.2

[Metadata]
Title:URAOMOTE FORTUNE
TitleUnicode:ウラオモテ・フォーチュン
Artist:Sakura Chiyo (CV:Ozawa Ari)
ArtistUnicode:佐倉千代 (CV:小澤亜李)
Creator:KantoKun
Version:Hard
Source:GEKKAN SHOJO NOZAKI KUN
Tags:ura omote 月刊少女野崎くん Monthly Girls' Nozaki-kun ending koreapenguin No_Gu
BeatmapID:495297
BeatmapSetID:210574

[Difficulty]
HPDrainRate:5
CircleSize:4
OverallDifficulty:6
ApproachRate:7
SliderMultiplier:1.4
SliderTickRate:2

[Events]
//Background and Video events
0,0,"BG.jpg",0,0
Video,-500,"PV.avi"
//Break Periods
//Storyboard Layer 0 (Background)
//Storyboard Layer 1 (Fail)
//Storyboard Layer 2 (Pass)
//Storyboard Layer 3 (Foreground)
//Storyboard Sound Samples

[TimingPoints]
65,454.545454545455,4,2,1,30,1,0
974,-111.111111111111,4,2,1,80,0,0
1428,-111.111111111111,4,2,1,50,0,0
1883,-100,4,2,1,80,0,0
5405,-100,4,2,2,60,0,0
5633,-100,4,2,1,70,0,0
9155,-111.111111111111,4,2,1,80,0,0
9269,-111.111111111111,4,2,1,50,0,0
10065,-100,4,2,1,80,0,0
13587,-100,4,2,2,60,0,0
13815,-100,4,2,1,80,0,0
17337,-100,4,2,1,40,0,0
18246,-100,4,2,1,80,0,0
32792,-100,4,2,1,60,0,0
33815,-100,4,2,2,50,0,0
34042,-100,4,2,1,60,0,0
35633,-100,4,2,2,50,0,0
35860,-100,4,2,1,60,0,0
36428,-100,4,2,1,70,0,0
38246,-100,4,2,1,20,0,0
38474,-100,4,2,1,30,0,0
38701,-100,4,2,1,40,0,0
38928,-100,4,2,1,45,0,0
39155,-100,4,2,1,50,0,0
39383,-100,4,2,1,55,0,0
39610,-83.3333333333333,4,2,1,80,0,0
40065,-95.2380952380952,4,2,1,70,0,1
42678,-95.2380952380952,4,2,2,60,0,1
42905,-95.2380952380952,4,2,1,80,0,1
46542,-95.2380952380952,4,2,2,60,0,1
46769,-95.2380952380952,4,2,1,80,0,1
53246,-95.2380952380952,4,2,1,90,0,1
53360,-95.2380952380952,4,2,1,60,0,1
54155,-83.3333333333333,4,2,1,90,0,0
54610,-95.2380952380951,4,2,1,80,0,1
57224,-95.2380952380951,4,2,2,60,0,1
57451,-95.2380952380951,4,2,1,80,0,1
60860,-95.2380952380951,4,2,2,60,0,1
61087,-95.2380952380951,4,2,1,80,0,1
68701,-83.3333333333333,4,2,1,90,0,1
69155,-111.111111111111,4,2,1,90,0,0
69269,-111.111111111111,4,2,1,50,0,0
70065,-100,4,2,1,70,0,0
77337,-111.111111111111,4,2,1,80,0,0
77451,-111.111111111111,4,2,1,50,0,0
78246,-100,4,2,1,70,0,0
82792,-133.333333333333,4,2,1,70,0,0
83587,-133.333333333333,4,2,1,10,0,0
83701,-100,4,2,1,70,0,0
85974,-100,4,2,1,30,0,0

[Colours]
Combo1 : 254,243,112
Combo2 : 251,134,175
Combo3 : 250,168,114
Combo4 : 77,244,173
Combo5 : 255,108,108

[HitObjects]
432,91,65,5,2,0:0:0:0:
432,91,519,1,2,0:0:0:0:
432,91,974,6,0,L|446:193,1,94.499997116089,2|0,0:1|1:0,0:0:0:0:
439,213,1428,2,0,L|444:250,2,31.4999990386963,8|4|4,0:3|0:3|0:3,0:0:0:0:
415,333,1883,6,0,P|452:327|486:330,2,70,4|2|8,3:2|0:0|0:0,0:0:0:0:
326,350,2565,2,0,P|291:352|256:346,1,70,2|0,0:0|3:0,0:0:0:0:
183,300,3019,1,2,0:0:0:0:
107,339,3246,2,0,L|21:332,2,70,8|2|0,0:0|0:0|3:0,0:0:0:0:
183,300,3928,6,0,P|191:259|187:211,1,70,2|8,0:0|0:0,0:0:0:0:
128,172,4383,1,2,0:0:0:0:
72,108,4610,2,0,P|64:67|68:19,1,70,0|2,3:0|0:0,0:0:0:0:
156,64,5065,1,8,0:0:0:0:
156,64,5292,6,0,P|229:44|292:91,1,140,2|2,0:0|0:0,0:0:0:0:
360,112,5974,2,0,P|433:132|496:85,1,140,8|0,0:0|3:0,0:0:0:0:
420,40,6655,1,2,0:0:0:0:
360,112,6883,2,0,L|281:117,1,70,8|2,0:0|0:0,0:0:0:0:
240,45,7337,6,0,L|161:50,1,70,0|2,3:0|0:0,0:0:0:0:
89,85,7792,2,0,P|81:41|90:11,1,70,8|2,0:0|0:0,0:0:0:0:
164,140,8246,2,0,L|158:179,3,35,0|2|2|2,3:0|0:0|0:0|0:0,0:0:0:0:
172,201,8701,2,0,L|166:240,3,35,8|2|2|2,0:0|0:0|0:0|0:0,0:0:0:0:
180,262,9155,6,0,L|166:364,2,94.499997116089,2|8|4,0:1|0:1|0:3,0:0:0:0:
196,173,10065,6,0,L|266:167,1,70,4|2,3:2|0:0,0:0:0:0:
331,104,10519,1,8,0:0:0:0:
408,153,10746,2,0,P|416:197|414:229,1,70,2|0,0:0|3:0,0:0:0:0:
389,308,11201,5,2,0:0:0:0:
313,353,11428,2,0,L|243:359,1,70,8|2,0:0|0:0,0:0:0:0:
243,358,11883,1,0,3:0:0:0:
169,309,12110,2,0,L|99:303,1,70,2|8,0:0|0:0,0:0:0:0:
99,303,12565,1,2,0:0:0:0:
36,237,12792,6,0,P|30:198|35:163,1,70,0|2,3:0|0:0,0:0:0:0:
71,88,13246,1,8,0:0:0:0:
71,88,13474,2,0,P|138:98|200:57,1,140,2|2,0:0|0:0,0:0:0:0:
280,40,14155,2,0,P|347:30|409:71,1,140,8|0,0:0|3:0,0:0:0:0:
464,128,14837,5,2,0:0:0:0:
464,128,15065,2,0,L|458:206,1,70,8|0,0:0|0:0,0:0:0:0:
404,329,15519,2,0,L|398:251,1,70,0|0,3:0|0:0,0:0:0:0:
321,206,15974,1,8,0:0:0:0:
297,199,16087,1,2,0:0:0:0:
272,197,16201,1,2,0:0:0:0:
247,201,16315,1,2,0:0:0:0:
224,210,16428,6,0,L|182:204,3,35,0|0|2|0,3:0|0:0|0:0|0:0,0:0:0:0:
166,189,16883,2,0,L|124:195,3,35,2|0|0|0,0:3|0:0|3:0|0:0,0:0:0:0:
108,211,17337,6,0,L|114:159,7,35,2|2|2|2|2|2|2|2,0:0|0:0|0:0|0:0|0:0|0:0|0:0|0:0,0:0:0:0:
103,152,18246,6,0,L|111:75,1,70,4|2,3:2|0:0,0:0:0:0:
171,19,18701,2,0,P|206:30|258:31,1,70,2|2,0:3|0:0,0:0:0:0:
315,80,19155,2,0,P|350:69|402:68,1,70,0|2,3:0|0:0,0:0:0:0:
460,111,19610,2,0,L|467:180,1,70,2|2,0:3|0:0,0:0:0:0:
472,338,20065,6,0,L|465:269,1,70,0|2,3:0|0:0,0:0:0:0:
373,255,20519,2,0,P|338:244|286:243,1,70,2|2,0:3|0:0,0:0:0:0:
223,194,20974,2,0,P|192:213|157:252,1,70,0|2,3:0|0:0,0:0:0:0:
80,269,21428,2,0,P|75:305|83:356,1,70,2|2,0:3|0:0,0:0:0:0:
157,224,21883,6,0,P|121:188|23:200,2,140,4|2|0,3:2|0:3|3:0,0:0:0:0:
222,288,23019,1,2,0:0:0:0:
300,243,23246,2,0,L|371:251,1,70,2|2,0:3|0:0,0:0:0:0:
456,266,23701,6,0,L|448:195,1,70,0|2,3:0|0:0,0:0:0:0:
435,107,24155,2,0,P|446:68|469:40,1,70,2|0,0:3|0:0,0:0:0:0:
436,51,24496,1,2,0:0:0:0:
436,51,24610,2,0,L|365:43,1,70,0|2,3:0|0:0,0:0:0:0:
289,90,25065,2,0,L|218:82,1,70,2|0,0:3|0:0,0:0:0:0:
156,144,25519,6,0,P|134:108|166:13,2,140,0|2|0,3:0|0:3|3:0,0:0:0:0:
206,214,26655,2,0,L|201:289,1,70,2|2,0:0|0:3,0:0:0:0:
195,371,27110,1,2,0:0:0:0:
120,323,27337,6,0,P|79:317|46:323,1,70,0|2,3:0|0:0,0:0:0:0:
278,335,27792,2,0,P|312:339|346:333,1,70,2|0,0:3|0:0,0:0:0:0:
377,332,28133,1,2,0:0:0:0:
377,332,28246,2,0,P|411:327|445:333,1,70,0|2,3:0|0:0,0:0:0:0:
489,248,28701,2,0,L|494:200,3,35,2|2|2|2,0:3|0:0|0:0|0:0,0:0:0:0:
484,185,29155,6,0,L|498:60,1,105,0|2,3:0|0:0,0:0:0:0:
501,56,29610,2,0,L|429:63,1,70,2|2,0:3|0:0,0:0:0:0:
351,98,30065,2,0,P|343:63|349:29,1,70,0|2,3:0|0:0,0:0:0:0:
266,61,30519,2,0,P|231:69|197:63,1,70,2|0,0:3|0:0,0:0:0:0:
119,30,30974,6,0,P|63:14|0:79,1,140,0|2,3:0|0:3,0:0:0:0:
43,141,31655,1,0,0:0:0:0:
43,141,31769,1,2,0:0:0:0:
43,141,31883,2,0,L|38:223,1,70,0|0,3:0|0:0,0:0:0:0:
93,281,32337,1,2,0:3:0:0:
95,300,32451,1,2,0:0:0:0:
97,317,32565,1,2,0:0:0:0:
99,335,32678,1,2,0:0:0:0:
102,353,32792,6,0,B|142:338|142:338|245:356,1,140,4|8,3:2|0:0,0:0:0:0:
308,307,33474,1,2,0:0:0:0:
308,307,33701,2,0,B|403:323|403:323|443:308,1,140,0|8,3:0|0:0,0:0:0:0:
492,235,34383,1,2,0:0:0:0:
492,235,34610,6,0,L|483:78,1,140,0|8,3:0|0:0,0:0:0:0:
424,30,35292,1,2,0:0:0:0:
343,73,35519,2,0,B|274:85|275:39|201:51,1,140,0|8,3:0|0:0,0:0:0:0:
131,7,36201,1,8,0:0:0:0:
131,94,36428,6,0,L|53:87,2,70,4|0|0,3:2|0:0|1:0,0:0:0:0:
153,183,37110,2,0,L|92:233,2,70,4|0|0,3:2|0:0|1:0,0:0:0:0:
225,238,37792,2,0,L|214:343,1,105,4|0,3:2|0:0,0:0:0:0:
261,340,38246,6,0,L|292:343,24,17.5,0|0|0|0|0|0|0|0|0|0|0|0|0|0|0|0|0|0|0|0|0|0|0|0|2,3:0|3:0|3:0|3:0|3:0|3:0|3:0|3:0|3:0|3:0|3:0|3:0|3:0|3:0|3:0|3:0|3:0|3:0|3:0|3:0|3:0|3:0|3:0|3:0|0:1,0:0:0:0:
346,291,39837,1,0,0:0:0:0:
406,348,40065,6,0,P|447:343|490:352,2,73.4999977569581,4|2|8,3:2|0:0|0:0,0:0:0:0:
335,294,40746,2,0,P|298:299|262:294,2,73.4999977569581,2|0|2,0:0|3:0|0:0,0:0:0:0:
397,229,41428,2,0,L|401:148,1,73.4999977569581,8|2,0:0|0:0,0:0:0:0:
408,63,41883,5,0,3:0:0:0:
327,103,42110,2,0,L|246:99,1,73.4999977569581,2|8,0:0|0:0,0:0:0:0:
166,94,42565,2,0,B|113:94|84:51|84:51|67:68|83:104,1,146.999995513916,2|2,0:0|0:0,0:0:0:0:
105,181,43246,2,0,P|110:222|104:266,1,73.4999977569581,8|2,0:0|0:0,0:0:0:0:
80,341,43701,6,0,P|121:336|165:342,1,73.4999977569581,0|2,3:0|0:0,0:0:0:0:
238,358,44155,2,0,P|279:363|323:357,1,73.4999977569581,8|2,0:0|0:0,0:0:0:0:
370,295,44610,1,0,3:0:0:0:
451,333,44837,2,0,L|526:341,2,73.4999977569581,2|8|2,0:0|0:0|0:0,0:0:0:0:
370,295,45519,6,0,P|339:231|371:149,1,146.999995513916,0|8,3:0|0:0,0:0:0:0:
451,131,46201,1,2,0:0:0:0:
430,223,46428,2,0,P|366:254|284:222,1,146.999995513916,0|0,3:0|1:0,0:0:0:0:
216,193,47110,1,0,0:0:0:0:
216,193,47337,6,0,P|147:172|82:203,1,146.999995513916,4|8,3:2|0:0,0:0:0:0:
150,338,48019,2,0,L|155:257,1,73.4999977569581,2|0,0:0|3:0,0:0:0:0:
216,193,48474,2,0,L|211:112,1,73.4999977569581,2|8,0:0|0:0,0:0:0:0:
147,56,48928,1,2,0:0:0:0:
294,78,49155,6,0,P|332:83|369:75,1,73.4999977569581,0|2,3:0|0:0,0:0:0:0:
445,36,49610,2,0,P|484:32|517:43,1,73.4999977569581,8|2,0:0|0:0,0:0:0:0:
471,123,50065,2,0,P|460:157|464:194,1,73.4999977569581,0|2,3:0|0:0,0:0:0:0:
493,277,50519,6,0,L|485:355,1,73.4999977569581,8|2,0:0|0:0,0:0:0:0:
394,276,50974,2,0,L|333:325,1,73.4999977569581,0|2,3:0|0:0,0:0:0:0:
325,206,51428,2,0,L|246:198,1,73.4999977569581,8|2,0:0|0:0,0:0:0:0:
169,250,51883,1,0,3:0:0:0:
104,183,52110,2,0,P|99:140|107:108,1,73.4999977569581,2|8,0:0|0:0,0:0:0:0:
166,33,52565,6,0,L|80:26,2,73.4999977569581,2|0|0,0:0|3:0|3:0,0:0:0:0:
253,12,53246,1,2,0:1:0:0:
328,62,53474,1,0,3:0:0:0:
328,62,53587,2,0,L|406:56,1,73.4999977569581,8|8,3:1|0:3,0:0:0:0:
424,46,53928,1,4,0:3:0:0:
461,143,54155,6,0,P|433:193|446:257,1,125.999996154785,0|0,1:0|0:0,0:0:0:0:
461,279,54610,6,0,L|467:357,2,73.4999977569581,4|2|8,3:2|0:0|0:0,0:0:0:0:
372,257,55292,2,0,L|338:327,2,73.4999977569581,2|0|2,0:0|3:0|0:0,0:0:0:0:
305,193,55974,2,0,L|240:237,2,73.4999977569581,8|2|0,0:0|0:0|3:0,0:0:0:0:
278,104,56655,6,0,L|199:109,1,73.4999977569581,2|8,0:0|0:0,0:0:0:0:
128,156,57110,2,0,B|104:111|122:66|122:66|102:42|69:55,1,146.999995513916,2|2,0:0|0:0,0:0:0:0:
30,139,57792,1,8,0:0:0:0:
28,157,57906,1,0,0:0:0:0:
26,174,58020,1,0,0:0:0:0:
24,192,58133,1,0,0:0:0:0:
21,210,58246,6,0,L|26:288,1,73.4999977569581,0|2,3:0|0:0,0:0:0:0:
124,340,58701,2,0,L|119:262,1,73.4999977569581,8|2,0:0|0:0,0:0:0:0:
205,176,59155,2,0,L|210:254,1,73.4999977569581,0|2,3:0|0:0,0:0:0:0:
274,312,59610,2,0,P|312:317|352:312,1,73.4999977569581,8|2,0:0|0:0,0:0:0:0:
430,284,60065,6,0,P|468:279|508:284,1,73.4999977569581,0|2,3:0|0:0,0:0:0:0:
470,367,60519,1,8,0:0:0:0:
359,225,60746,2,0,P|337:188|361:83,1,146.999995513916,2|2,0:0|0:0,0:0:0:0:
415,24,61428,2,0,L|492:20,1,73.4999977569581,0|0,1:0|0:0,0:0:0:0:
428,159,61883,6,0,L|266:171,1,146.999995513916,4|8,3:2|0:0,0:0:0:0:
216,242,62565,1,2,0:0:0:0:
216,242,62792,2,0,P|194:205|218:100,1,146.999995513916,0|8,3:0|0:0,0:0:0:0:
156,41,63474,1,2,0:0:0:0:
156,41,63701,6,0,B|106:46|106:46|61:29|61:29|10:36,2,146.999995513916,0|8|0,3:0|0:0|3:0,0:0:0:0:
212,106,64837,2,0,L|292:98,1,73.4999977569581,2|8,0:0|0:0,0:0:0:0:
341,163,65292,1,2,0:0:0:0:
341,163,65519,6,0,L|421:155,1,73.4999977569581,0|0,3:0|0:0,0:0:0:0:
428,143,65860,1,2,0:0:0:0:
443,131,65974,2,0,L|448:169,3,36.749998878479,8|0|2|0,0:0|0:0|0:0|0:0,0:0:0:0:
467,210,66428,2,0,L|462:248,3,36.749998878479,0|2|0|2,3:0|0:0|3:0|0:0,0:0:0:0:
437,288,66883,2,0,L|442:326,3,36.749998878479,10|0|2|0,0:0|0:0|0:0|0:0,0:0:0:0:
424,358,67337,6,0,L|344:364,1,73.4999977569581,0|0,3:0|0:0,0:0:0:0:
328,366,67678,1,0,0:0:0:0:
306,368,67792,1,8,0:0:0:0:
232,316,68019,2,0,L|185:321,1,36.749998878479,2|2,0:3|0:3,0:0:0:0:
115,365,68360,2,0,L|71:361,1,36.749998878479,8|4,0:3|0:3,0:0:0:0:
16,291,68701,6,0,P|-2:253|24:169,1,125.999996154785,0|0,1:0|0:0,0:0:0:0:
37,151,69155,6,0,L|30:52,2,94.499997116089,2|8|4,0:1|0:1|0:3,0:0:0:0:
115,198,70065,6,0,L|195:188,1,70,4|2,3:2|0:0,0:0:0:0:
252,243,70519,1,8,0:0:0:0:
320,296,70746,2,0,L|400:286,1,70,2|0,0:0|3:0,0:0:0:0:
457,341,71201,5,2,0:0:0:0:
389,287,71428,2,0,P|383:239|391:203,1,70,8|2,0:0|0:0,0:0:0:0:
441,153,71883,1,0,3:0:0:0:
497,86,72110,2,0,P|503:37|495:1,1,70,2|8,0:0|0:0,0:0:0:0:
412,49,72565,1,2,0:0:0:0:
412,49,72792,6,0,L|342:40,1,70,0|2,3:0|0:0,0:0:0:0:
261,72,73246,2,0,L|191:63,1,70,8|2,0:0|0:0,0:0:0:0:
104,54,73701,2,0,L|112:123,1,70,0|2,3:0|0:0,0:0:0:0:
76,204,74155,2,0,L|84:273,1,70,8|2,0:0|0:0,0:0:0:0:
76,362,74610,6,0,P|111:350|150:348,1,70,0|2,3:0|0:0,0:0:0:0:
223,309,75065,2,0,P|258:321|297:323,1,70,8|2,0:0|0:0,0:0:0:0:
379,320,75519,6,0,L|462:305,2,70,0|2|8,3:0|0:0|0:0,0:0:0:0:
351,234,76201,2,0,L|415:179,2,70,2|0|2,0:0|3:0|0:0,0:0:0:0:
284,172,76883,2,0,L|312:92,1,70,8|0,0:0|0:0,0:0:0:0:
193,169,77337,6,0,L|172:49,2,94.499997116089,2|8|4,0:1|0:1|0:3,0:0:0:0:
127,229,78246,5,4,3:2:0:0:
127,229,78474,2,0,P|80:219|44:220,1,70,2|8,0:0|0:0,0:0:0:0:
171,309,78928,1,2,0:0:0:0:
171,309,79156,2,0,P|203:273|220:241,1,70,0|2,3:0|0:0,0:0:0:0:
78,307,79610,1,8,0:0:0:0:
78,307,79838,2,0,P|92:352|111:383,1,70,2|0,0:0|3:0,0:0:0:0:
171,309,80292,6,0,L|252:304,1,70,2|8,0:0|0:0,0:0:0:0:
325,299,80746,1,2,0:0:0:0:
452,199,80974,2,0,L|371:194,1,70,0|2,3:0|0:0,0:0:0:0:
298,189,81428,1,8,0:0:0:0:
171,89,81655,2,0,L|252:84,1,70,2|0,0:0|3:0,0:0:0:0:
325,79,82109,1,2,0:0:0:0:
410,76,82337,2,0,L|402:152,1,70,8|0,0:0|0:0,0:0:0:0:
390,233,82792,6,0,P|433:266|371:353,1,183.750007009506,0|0,3:0|0:0,0:0:0:0:
348,343,83701,6,0,L|309:347,3,35,0|2|0|0,3:0|0:0|0:0|0:0,0:0:0:0:
289,359,84155,2,0,L|250:355,3,35,10|0|0|0,0:0|0:0|0:0|0:0,0:0:0:0:
228,343,84610,2,0,L|189:347,3,35,0|0|2|0,3:0|0:0|0:0|0:0,0:0:0:0:
169,359,85064,2,0,L|130:355,3,35,2|2|2|2,0:3|0:0|0:0|0:0,0:0:0:0:
69,308,85974,6,0,L|39:313,2,17.5,0|0|2,0:0|0:0|0:0,0:0:0:0:
