osu file format v13

[General]
AudioFilename: Uraomote Fortune.mp3
AudioLeadIn: 2000
PreviewTime: 38928
Countdown: 0
SampleSet: Soft
StackLeniency: 0.7
Mode: 0
LetterboxInBreaks: 0
WidescreenStoryboard: 0

[Editor]
DistanceSpacing: 1
BeatDivisor: 4
GridSize: 32
TimelineZoom: 1.1

[Metadata]
Title:URAOMOTE FORTUNE
TitleUnicode:ウラオモテ・フォーチュン
Artist:Sakura Chiyo (CV:Ozawa Ari)
ArtistUnicode:佐倉千代 (CV:小澤亜李)
Creator:KantoKun
Version:Easy
Source:GEKKAN SHOJO NOZAKI KUN
Tags:ura omote 月刊少女野崎くん Monthly Girls' Nozaki-kun ending koreapenguin No_Gu
BeatmapID:495497
BeatmapSetID:210574

[Difficulty]
HPDrainRate:2
CircleSize:3
OverallDifficulty:3
ApproachRate:3
SliderMultiplier:0.9
SliderTickRate:1

[Events]
//Background and Video events
0,0,"BG.jpg",0,0
Video,-500,"PV.avi"
//Break Periods
//Storyboard Layer 0 (Background)
//Storyboard Layer 1 (Fail)
//Storyboard Layer 2 (Pass)
//Storyboard Layer 3 (Foreground)
//Storyboard Sound Samples

[TimingPoints]
65,454.545454545455,4,2,1,30,1,0
974,-100,4,2,1,80,0,0
1428,-100,4,2,1,50,0,0
1883,-100,4,2,1,70,0,0
5860,-100,4,2,3,70,0,0
6087,-100,4,2,1,70,0,0
9155,-100,4,2,1,80,0,0
9269,-100,4,2,1,50,0,0
10065,-100,4,2,1,70,0,0
15860,-100,4,2,3,70,0,0
16087,-100,4,2,1,70,0,0
22224,-100,4,2,4,60,0,0
22451,-100,4,2,1,70,0,0
23133,-100,4,2,4,60,0,0
23360,-100,4,2,1,70,0,0
32792,-100,4,2,1,60,0,0
33133,-100,4,2,3,50,0,0
33360,-100,4,2,1,60,0,0
34951,-100,4,2,3,50,0,0
35178,-100,4,2,1,60,0,0
36428,-100,4,2,1,70,0,0
40065,-100,4,2,1,80,0,1
44042,-100,4,2,3,60,0,1
44269,-100,4,2,1,80,0,1
44951,-100,4,2,3,60,0,1
45178,-100,4,2,1,80,0,1
49496,-100,4,2,3,60,0,1
49724,-100,4,2,1,80,0,1
51315,-100,4,2,3,60,0,1
51542,-100,4,2,1,80,0,1
53246,-100,4,2,1,90,0,1
53360,-100,4,2,1,60,0,1
54155,-100,4,2,1,90,0,0
54610,-100,4,2,1,80,0,1
57678,-100,4,2,3,70,0,1
57905,-100,4,2,1,80,0,1
62224,-100,4,2,3,70,0,1
62451,-100,4,2,1,80,0,1
68701,-100,4,2,1,90,0,1
69155,-100,4,2,1,90,0,0
69496,-100,4,2,4,50,0,0
69724,-100,4,2,1,60,0,0
70065,-100,4,2,1,70,0,0
76769,-100,4,2,3,60,0,0
76996,-100,4,2,1,70,0,0
77337,-100,4,2,1,90,0,0
77451,-100,4,2,1,60,0,0
78246,-100,4,2,1,80,0,0
82792,-100,4,2,1,80,0,0
85974,-100,4,2,1,40,0,0

[Colours]
Combo1 : 254,243,112
Combo2 : 251,134,175
Combo3 : 250,168,114
Combo4 : 77,244,173
Combo5 : 255,108,108

[HitObjects]
80,25,65,6,0,P|73:69|84:118,1,90,2|2,0:0|0:0,0:0:0:0:
124,192,974,2,0,P|131:236|120:285,1,90,2|4,0:1|0:3,0:0:0:0:
91,364,1883,6,0,L|192:358,1,90,4|8,3:2|0:0,0:0:0:0:
254,306,2792,1,0,3:0:0:0:
329,256,3246,2,0,L|430:250,1,90,8|0,0:0|3:0,0:0:0:0:
486,191,4155,2,0,P|492:141|482:93,1,90,8|0,0:0|3:0,0:0:0:0:
430,30,5065,1,8,0:0:0:0:
342,52,5519,6,0,B|287:45|287:45|221:71|221:71|155:64,1,180,0|0,3:0|3:0,0:0:0:0:
78,56,6883,1,8,0:0:0:0:
24,128,7337,2,0,P|14:179|28:230,1,90,0|8,3:0|0:0,0:0:0:0:
84,279,8246,2,0,L|178:288,1,90,0|8,3:0|0:0,0:0:0:0:
250,335,9155,6,0,L|337:343,2,67.5,2|8|4,0:1|0:1|0:3,0:0:0:0:
217,303,10065,6,0,P|209:253|217:207,1,90,4|8,3:2|0:0,0:0:0:0:
242,128,10974,2,0,P|250:78|242:32,1,90,0|8,3:0|0:0,0:0:0:0:
331,61,11883,2,0,L|434:53,1,90,0|8,3:0|0:0,0:0:0:0:
439,142,12792,2,0,L|336:150,1,90,0|8,3:0|0:0,0:0:0:0:
307,229,13701,5,0,3:0:0:0:
367,295,14155,2,0,L|470:287,2,90,8|0|8,0:0|3:0|0:0,0:0:0:0:
278,313,15519,2,0,P|205:335|121:257,1,180,0|0,3:0|3:0,0:0:0:0:
65,211,16883,2,0,P|138:189|222:267,1,180,8|0,0:0|0:0,0:0:0:0:
297,284,18246,6,0,L|398:276,1,90,4|2,3:2|0:3,0:0:0:0:
476,272,19155,1,0,3:0:0:0:
496,184,19610,1,2,0:3:0:0:
429,123,20065,2,0,P|418:75|428:20,1,90,0|2,3:0|0:3,0:0:0:0:
337,63,20974,2,0,L|241:58,1,90,0|2,3:0|0:3,0:0:0:0:
182,120,21883,6,0,B|88:135|100:84|7:99,2,180,4|0|0,3:2|3:0|3:0,0:0:0:0:
243,185,24155,1,2,0:3:0:0:
204,266,24610,2,0,P|197:323|208:363,1,90,0|2,3:0|0:3,0:0:0:0:
284,313,25519,6,0,L|379:322,1,90,0|2,3:0|0:3,0:0:0:0:
462,334,26428,2,0,L|453:239,1,90,0|2,3:0|0:3,0:0:0:0:
395,175,27337,2,0,L|404:80,1,90,0|2,3:0|0:3,0:0:0:0:
314,99,28246,2,0,P|268:103|212:88,1,90,0|2,3:0|0:3,0:0:0:0:
138,69,29155,6,0,P|92:65|36:80,1,90,0|2,3:0|0:3,0:0:0:0:
0,152,30065,1,0,3:0:0:0:
64,219,30519,2,0,P|110:223|166:208,1,90,2|0,0:3|3:0,0:0:0:0:
222,270,31428,2,0,L|324:266,1,90,2|0,0:3|3:0,0:0:0:0:
394,302,32337,1,8,0:0:0:0:
470,255,32792,6,0,P|501:207|465:93,1,180,4|0,3:2|3:0,0:0:0:0:
390,52,34155,1,8,0:0:0:0:
312,99,34610,2,0,P|281:147|317:261,1,180,0|0,3:0|3:0,0:0:0:0:
395,303,35974,6,0,L|496:295,2,90,8|4|8,0:0|3:2|0:0,0:0:0:0:
356,326,37110,2,0,P|294:337|225:287,1,135,4|4,3:2|3:2,0:0:0:0:
153,127,40065,6,0,L|145:24,1,90,4|8,3:2|0:0,0:0:0:0:
59,51,40974,2,0,L|67:154,1,90,0|8,3:0|0:0,0:0:0:0:
118,214,41883,2,0,P|161:204|206:210,1,90,0|8,3:0|0:0,0:0:0:0:
291,231,42792,2,0,P|325:237|386:225,1,90,0|8,3:0|0:0,0:0:0:0:
464,200,43701,6,0,P|430:268|471:366,2,180,0|0|0,3:0|3:0|3:0,0:0:0:0:
499,117,45974,2,0,P|509:70|497:14,1,90,8|0,0:0|3:0,0:0:0:0:
423,71,46883,1,8,0:0:0:0:
344,114,47337,6,0,L|242:103,1,90,4|8,3:2|0:0,0:0:0:0:
187,44,48246,2,0,L|85:55,1,90,0|8,3:0|0:0,0:0:0:0:
8,40,49155,2,0,B|27:96|27:96|11:227,1,180,0|0,3:0|3:0,0:0:0:0:
75,281,50519,1,8,0:0:0:0:
159,255,50974,6,0,B|219:277|268:239|268:239|311:234|322:283,1,180,0|0,3:0|3:0,0:0:0:0:
389,324,52337,1,8,0:0:0:0:
472,288,52792,2,0,L|479:201,2,67.5,0|0|0,3:0|1:0|0:0,0:0:0:0:
478,336,53701,2,0,L|387:324,1,90,0|0,3:0|1:0,0:0:0:0:
308,279,54610,6,0,L|217:291,1,90,4|8,3:2|0:0,0:0:0:0:
139,340,55519,2,0,P|126:286|136:246,1,90,0|8,3:0|0:0,0:0:0:0:
154,164,56428,2,0,P|167:110|157:70,1,90,0|8,3:0|0:0,0:0:0:0:
80,119,57337,2,0,L|260:137,1,180,0|0,3:0|3:0,0:0:0:0:
332,85,58701,6,0,L|428:93,1,90,8|0,0:0|3:0,0:0:0:0:
478,163,59610,1,8,0:0:0:0:
426,236,60065,2,0,P|418:276|426:333,1,90,0|8,3:0|0:0,0:0:0:0:
333,315,60974,2,0,L|243:306,1,90,0|8,3:0|0:0,0:0:0:0:
171,361,61883,6,0,L|23:346,1,135,4|0,3:2|0:0,0:0:0:0:
65,312,62792,2,0,P|79:267|77:214,1,90,0|8,3:0|0:0,0:0:0:0:
58,136,63701,2,0,P|44:91|46:38,1,90,0|8,3:0|0:0,0:0:0:0:
128,80,64610,2,0,L|222:73,1,90,0|8,3:0|0:0,0:0:0:0:
299,110,65519,6,0,L|393:103,1,90,0|8,3:0|0:0,0:0:0:0:
478,97,66428,1,0,3:0:0:0:
438,178,66883,1,10,0:0:0:0:
477,258,67337,2,0,P|484:303|476:352,1,90,0|8,3:0|0:0,0:0:0:0:
393,306,68246,2,0,P|348:299|304:306,1,90,0|8,3:0|0:0,0:0:0:0:
219,340,69155,6,0,P|164:355|81:269,1,180,2|4,0:1|3:2,0:0:0:0:
33,201,70519,1,8,0:0:0:0:
88,124,70974,2,0,L|88:32,1,90,0|8,3:0|0:0,0:0:0:0:
177,64,71883,2,0,P|226:76|277:67,1,90,0|8,3:0|0:0,0:0:0:0:
352,52,72792,6,0,P|401:40|452:49,1,90,0|8,3:0|0:0,0:0:0:0:
503,108,73701,2,0,L|498:197,1,90,0|8,3:0|0:0,0:0:0:0:
423,247,74610,1,0,3:0:0:0:
341,208,75065,1,8,0:0:0:0:
265,257,75519,6,0,L|170:262,1,90,0|8,3:0|0:0,0:0:0:0:
96,306,76428,2,0,B|86:247|86:247|101:197|101:197|89:114,1,180,0|2,3:0|3:1,0:0:0:0:
74,42,77792,1,8,0:1:0:0:
160,66,78246,6,0,L|262:56,1,90,4|8,3:2|0:0,0:0:0:0:
329,98,79155,2,0,L|431:88,1,90,0|8,3:0|0:0,0:0:0:0:
492,141,80065,2,0,P|499:184|493:238,1,90,0|8,3:0|0:0,0:0:0:0:
446,305,80974,1,0,3:0:0:0:
356,311,81428,1,8,0:0:0:0:
287,252,81883,6,0,P|243:248|192:262,1,90,0|8,3:0|0:0,0:0:0:0:
153,336,82792,2,0,P|114:288|151:182,1,180,0|0,3:0|3:0,0:0:0:0:
226,140,84155,2,0,P|235:87|227:40,1,90,8|0,0:0|3:0,0:0:0:0:
319,64,85065,6,0,B|392:84|422:32|511:58,1,180,8|2,0:0|0:0,0:0:0:0:
