osu file format v14

[General]
AudioFilename: Sako Tomohisa - Getta Banban Anime Size ver..mp3
AudioLeadIn: 2000
PreviewTime: 47746
Countdown: 0
SampleSet: Soft
StackLeniency: 0.3
Mode: 0
LetterboxInBreaks: 0
WidescreenStoryboard: 0

[Editor]
Bookmarks: 591,86279
DistanceSpacing: 1.1
BeatDivisor: 4
GridSize: 4
TimelineZoom: 1.1

[Metadata]
Title:Getta Banban Anime Size ver.
TitleUnicode:ゲッタバンバン アニメサイズver.
Artist:Sako Tomohisa
ArtistUnicode:佐香 智久
Creator:Gero
Version:Hard
Source:ポケットモンスター XY
Tags:Lanturn pkhg ポケモン☆ゲット Pokemon☆Getto Pokémon☆Getto Getto 小川 智之 Ogawa Tomoyuki Getter Bangbang Bang Bang Mad-Paced Getter Mad Paced Opening 3 Pokémon the Series: XY Pokemon Pocket Monsters XY エックスワイ (エックスワイ) (ExWye) Nintendo GAME FREAK J-Pop Jpop ジェイポップ
BeatmapID:747336
BeatmapSetID:337318

[Difficulty]
HPDrainRate:7
CircleSize:4
OverallDifficulty:7
ApproachRate:8
SliderMultiplier:1.6
SliderTickRate:2

[Events]
//Background and Video events
Video,-120,"Video.avi"
0,0,"BG.jpg",0,0
//Break Periods
//Storyboard Layer 0 (Background)
//Storyboard Layer 1 (Fail)
//Storyboard Layer 2 (Pass)
//Storyboard Layer 3 (Foreground)
//Storyboard Sound Samples

[TimingPoints]
591,359.281437125748,4,2,1,60,1,0
3285,-100,4,2,1,80,0,0
47836,-100,4,1,1,90,0,1
59243,-100,4,1,1,90,0,0
59333,-100,4,1,1,90,0,1
72177,-100,4,1,1,90,0,0
72267,-100,4,1,1,90,0,1
72357,-100,4,1,1,90,0,0
75321,-100,4,1,1,90,0,1
86010,-100,4,1,1,90,0,0
86099,-100,4,1,1,90,0,1
86189,-100,4,1,1,90,0,0

[Colours]
Combo1 : 157,133,203
Combo2 : 233,72,54
Combo3 : 226,219,82
Combo4 : 114,157,222
Combo5 : 153,200,119

[HitObjects]
100,288,591,6,0,B|92:249|92:249|100:210,1,80,2|8,0:3|0:3,0:0:0:0:
184,177,950,2,0,P|214:249|184:321,1,160,4|8,0:0|0:3,0:0:0:0:
112,373,1489,2,0,P|184:343|256:373,1,160,4|8,0:0|0:3,0:0:0:0:
318,310,2028,6,0,L|354:329,4,40,8|8|8|8|8,0:3|0:3|0:3|0:3|0:3,0:0:0:0:
192,80,2926,5,0,0:0:0:0:
256,20,3105,1,0,0:0:0:0:
320,80,3285,2,0,B|320:120|349:152|349:152|320:184|320:224,1,160,4|0,0:0|0:0,0:0:0:0:
256,284,3824,1,2,0:3:0:0:
192,224,4004,2,0,B|192:184|163:152|163:152|192:120|192:80,1,160,0|0,0:0|0:0,0:0:0:0:
256,20,4543,5,2,0:3:0:0:
320,80,4722,2,0,B|380:140,1,80,0|2,0:0|0:3,0:0:0:0:
192,80,5082,2,0,B|132:140,1,80,0|2,0:0|0:3,0:0:0:0:
68,192,5441,1,0,0:0:0:0:
68,192,5620,2,0,P|97:120|67:48,1,160,2|2,0:3|0:3,0:0:0:0:
16,120,6159,6,0,P|-14:192|16:264,1,160,0|0,0:0|0:0,0:0:0:0:
68,332,6698,1,2,0:3:0:0:
124,264,6878,2,0,P|163:256|201:264,1,80,0|2,0:0|0:3,0:0:0:0:
333,191,7237,2,0,P|294:200|256:192,1,80,0|2,0:0|0:3,0:0:0:0:
296,112,7596,6,0,L|368:256,1,160,0|0,0:0|0:0,0:0:0:0:
429,317,8135,1,2,0:3:0:0:
491,254,8315,1,0,0:0:0:0:
428,191,8495,2,0,P|419:152|427:113,1,80,2|0,0:3|0:0,0:0:0:0:
435,104,8764,1,0,0:0:0:0:
443,95,8854,1,2,0:3:0:0:
505,32,9034,1,0,0:0:0:0:
420,12,9213,6,0,P|348:42|275:13,1,160,2|2,0:3|0:3,0:0:0:0:
213,75,9752,1,0,0:0:0:0:
275,137,9932,2,0,L|237:292,1,160,2|2,0:3|0:3,0:0:0:0:
299,354,10471,1,0,0:0:0:0:
237,292,10650,6,0,P|199:284|159:292,1,80,2|0,0:3|0:0,0:0:0:0:
299,229,11010,2,0,P|337:237|376:230,1,80,2|0,0:3|0:0,0:0:0:0:
428,156,11369,2,0,P|398:227|427:299,1,160,2|2,0:3|0:3,0:0:0:0:
490,362,11908,1,0,0:0:0:0:
499,353,11997,1,0,0:0:0:0:
508,344,12088,6,0,L|344:344,1,160,2|2,0:3|0:3,0:0:0:0:
285,281,12626,1,0,0:0:0:0:
347,218,12806,2,0,B|347:170|375:146|375:146|347:122|347:74,1,160,2|2,0:3|0:3,0:0:0:0:
284,11,13345,1,0,0:0:0:0:
347,74,13525,6,0,P|385:82|425:74,1,80,2|0,0:3|0:0,0:0:0:0:
284,11,13884,2,0,P|246:3|206:11,1,80,2|0,0:3|0:0,0:0:0:0:
143,73,14243,1,8,1:0:0:0:
134,81,14333,1,8,1:0:0:0:
125,89,14423,1,8,1:0:0:0:
116,97,14513,1,8,1:0:0:0:
107,105,14602,1,8,1:0:0:0:
98,113,14692,1,8,1:0:0:0:
89,121,14782,6,0,L|161:265,1,160,12|0,1:0|0:0,0:0:0:0:
98,326,15321,1,8,1:0:0:0:
160,264,15501,2,0,B|224:264|224:264|280:264|304:308,1,160,0|0,0:0|0:0,0:0:0:0:
366,370,16040,1,8,1:0:0:0:
428,307,16219,6,0,B|420:268|420:268|428:229,1,80,4|0,0:0|0:0,0:0:0:0:
365,87,16579,2,0,B|373:126|373:126|365:165,2,80,0|8|0,0:0|1:0|0:0,0:0:0:0:
288,124,17117,2,0,L|448:124,1,160,0|8,0:0|1:0,0:0:0:0:
364,40,17656,2,0,L|200:40,1,160,0|0,0:0|0:0,0:0:0:0:
124,72,18195,5,8,1:0:0:0:
43,107,18375,2,0,P|35:69|44:30,1,80,0|0,0:0|0:0,0:0:0:0:
119,153,18734,2,0,P|127:192|119:231,1,80,0|8,0:0|1:0,0:0:0:0:
48,283,19093,6,0,P|119:253|191:283,1,160,4|0,0:0|0:0,0:0:0:0:
395,218,19632,2,0,P|321:244|249:213,1,160,8|0,1:0|0:0,0:0:0:0:
191,283,20171,1,0,0:0:0:0:
249,213,20351,2,0,L|306:156,1,80,8|0,1:0|0:0,0:0:0:0:
384,112,20710,6,0,B|356:68|300:68|300:68|236:68,1,160,4|8,0:0|1:0,0:0:0:0:
160,28,21249,1,0,0:0:0:0:
160,28,21429,2,0,P|151:66|159:105,1,80,0|0,0:0|0:0,0:0:0:0:
84,230,21788,2,0,P|92:191|84:153,1,80,8|0,1:0|0:0,0:0:0:0:
4,192,22147,6,0,L|104:320,1,160,0|8,0:0|1:0,0:0:0:0:
168,376,22686,1,0,0:0:0:0:
312,292,22866,2,0,P|256:244|200:292,1,160,0|8,0:0|1:0,0:0:0:0:
344,376,23405,1,0,0:0:0:0:
409,318,23585,6,0,L|508:192,1,160,4|8,0:0|1:0,0:0:0:0:
448,128,24123,1,0,0:0:0:0:
382,67,24303,2,0,P|343:58|305:66,1,80,4|0,0:0|0:0,0:0:0:0:
178,140,24662,2,0,P|217:148|255:140,1,80,8|0,1:0|0:0,0:0:0:0:
116,68,25022,6,0,P|86:140|116:212,1,160,4|8,0:0|1:0,0:0:0:0:
181,272,25561,1,0,0:0:0:0:
116,332,25740,2,0,L|33:332,2,80,8|2|8,0:3|0:3|0:3,0:0:0:0:
181,272,26279,6,0,B|248:272|248:272|256:268|256:268|256:276|256:276|264:272|264:272|332:272,2,160,4|4|4,0:0|0:0|0:0,0:0:0:0:
116,332,27177,1,2,0:3:0:0:
52,272,27357,1,2,0:3:0:0:
115,208,27537,5,8,1:0:0:0:
123,199,27626,1,8,1:0:0:0:
131,190,27716,1,8,1:0:0:0:
139,181,27806,1,8,1:0:0:0:
147,172,27896,1,12,1:0:0:0:
200,104,28076,1,0,0:0:0:0:
256,36,28255,6,0,B|336:36|336:36|392:92,1,160,8|4,1:0|0:3,0:0:0:0:
320,143,28794,2,0,P|392:113|463:143,2,160,4|4|4,0:3|0:3|0:3,0:0:0:0:
248,192,29692,1,4,1:3:0:0:
320,240,29872,6,0,P|392:270|464:240,1,160,0|0,0:0|0:0,0:0:0:0:
392,192,30411,1,8,1:0:0:0:
463,143,30590,1,0,0:0:0:0:
463,143,30680,1,0,0:0:0:0:
463,143,30770,2,0,L|488:68,1,80,2|0,0:3|0:0,0:0:0:0:
425,4,31129,1,8,1:0:0:0:
362,66,31309,6,0,B|290:66|290:66|274:62|274:62|198:62,1,160,0|0,0:0|0:0,0:0:0:0:
124,100,31848,1,8,1:0:0:0:
44,136,32028,2,0,P|36:98|45:59,1,80,0|2,0:0|0:3,0:0:0:0:
120,182,32387,2,0,P|128:221|120:259,1,80,0|8,0:0|1:0,0:0:0:0:
49,312,32746,6,0,P|120:282|192:312,1,160,0|0,0:0|0:0,0:0:0:0:
256,376,33285,1,8,1:0:0:0:
320,312,33465,1,0,0:0:0:0:
320,312,33555,1,0,0:0:0:0:
320,312,33644,2,0,B|380:252,1,80,4|0,0:0|0:0,0:0:0:0:
440,192,34004,6,0,B|440:148|475:124|475:124|440:100|440:56,1,160,8|4,1:0|0:3,0:0:0:0:
360,24,34543,2,0,L|519:24,2,160,4|4|4,0:3|0:3|0:3,0:0:0:0:
304,92,35441,1,4,1:3:0:0:
304,92,35620,6,0,B|272:108|256:153|256:153|240:108|208:92,1,160,0|0,0:0|0:0,0:0:0:0:
256,20,36159,1,8,1:0:0:0:
324,204,36339,1,0,0:0:0:0:
324,204,36429,1,0,0:0:0:0:
324,204,36519,2,0,P|256:240|188:204,1,160,2|8,0:3|1:0,0:0:0:0:
124,144,37058,2,0,L|167:297,1,160,0|0,0:0|0:0,0:0:0:0:
105,360,37596,1,8,1:0:0:0:
256,304,37776,6,0,B|324:304|324:304|376:304|404:344,1,160,4|0,0:0|0:0,0:0:0:0:
444,264,38315,2,0,B|468:228|478:192|478:192|468:156|444:120,1,160,8|2,1:0|0:3,0:0:0:0:
403,41,38854,1,0,0:0:0:0:
444,120,39034,1,8,1:0:0:0:
403,41,39213,6,0,B|376:80|324:80|324:80|256:80,1,160,4|0,0:0|0:0,0:0:0:0:
122,142,39752,2,0,B|149:142|149:142|157:138|157:138|157:146|157:146|165:142|165:142|193:142,1,80,8|0,1:0|0:0,0:0:0:0:
268,192,40111,1,2,0:3:0:0:
193,242,40291,2,0,B|165:242|165:242|157:238|157:238|157:246|157:246|149:242|149:242|122:242,1,80,0|8,0:0|1:0,0:0:0:0:
268,280,40650,6,0,B|335:280|335:280|343:276|343:276|343:284|343:284|351:280|351:280|419:280,1,160,4|0,0:0|0:0,0:0:0:0:
488,228,41189,2,0,B|492:208|504:192|504:192|492:176|488:156,1,80,8|0,1:0|0:0,0:0:0:0:
418,32,41549,1,2,0:3:0:0:
418,32,41728,2,0,B|414:52|402:68|402:68|414:84|418:104,1,80,0|8,0:0|1:0,0:0:0:0:
500,68,42088,6,0,L|340:68,1,160,4|0,0:0|0:0,0:0:0:0:
197,130,42626,2,0,L|277:130,1,80,8|0,1:0|0:0,0:0:0:0:
419,192,42986,2,0,L|339:192,1,80,4|0,0:0|0:0,0:0:0:0:
197,254,43345,2,0,L|277:254,1,80,8|0,1:0|0:0,0:0:0:0:
128,320,43704,6,0,B|96:300|84:256|84:256|96:212|128:192,1,160,8|8,1:0|1:0,0:0:0:0:
197,130,44243,1,0,0:0:0:0:
197,130,44423,2,0,P|125:160|53:130,1,160,8|8,1:0|1:0,0:0:0:0:
125,76,44962,1,0,0:0:0:0:
200,28,45141,5,8,1:0:0:0:
200,28,45321,1,8,1:0:0:0:
256,192,45680,1,8,1:0:0:0:
256,192,45860,1,8,1:0:0:0:
312,28,46219,1,8,1:0:0:0:
312,28,46399,1,8,1:0:0:0:
168,132,46758,1,8,1:0:0:0:
168,132,46938,1,8,1:0:0:0:
344,132,47297,6,0,L|368:124,11,20,2|0|0|0|0|0|0|0|0|0|0|0,0:0|0:0|0:0|0:0|0:0|0:0|0:0|0:0|0:0|0:0|0:0|0:0,0:0:0:0:
384,116,47836,6,0,P|406:192|384:268,1,160,4|0,0:0|0:0,0:0:0:0:
336,340,48375,2,0,B|369:293|425:293|425:293|479:293,1,160,8|2,0:0|0:2,0:0:0:0:
276,264,48914,2,0,L|220:320,1,80,0|8,0:0|0:0,0:0:0:0:
128,268,49273,6,0,P|106:192|128:116,1,160,4|0,0:0|0:0,0:0:0:0:
176,44,49812,2,0,B|143:91|87:91|87:91|32:91,1,160,8|2,0:0|0:2,0:0:0:0:
236,120,50351,2,0,L|292:64,1,80,0|8,0:0|0:0,0:0:0:0:
384,116,50710,6,0,P|406:192|384:268,1,160,4|0,0:0|0:0,0:0:0:0:
336,340,51249,2,0,B|369:293|425:293|425:293|479:293,1,160,8|2,0:0|0:2,0:0:0:0:
276,264,51788,2,0,L|220:320,1,80,0|8,0:0|0:0,0:0:0:0:
126,266,52147,6,0,P|106:190|128:115,1,160,4|0,0:0|0:0,0:0:0:0:
196,60,52686,1,8,0:0:0:0:
128,115,52866,1,0,0:0:0:0:
196,60,53046,2,0,L|276:60,1,80,2|0,0:2|0:0,0:0:0:0:
128,115,53405,2,0,L|48:115,1,80,8|0,0:0|0:0,0:0:0:0:
4,192,53764,6,0,P|-24:264|5:336,1,160,4|8,0:0|0:0,0:0:0:0:
68,272,54303,1,0,0:0:0:0:
130,336,54483,2,0,P|160:264|132:192,1,160,2|8,0:2|0:0,0:0:0:0:
68,128,55022,6,0,L|220:176,1,160,4|0,0:0|0:0,0:0:0:0:
273,105,55561,2,0,L|425:153,1,160,8|2,0:0|0:2,0:0:0:0:
487,91,56099,1,0,0:0:0:0:
425,153,56279,2,0,P|416:191|425:230,1,80,8|0,0:0|0:0,0:0:0:0:
487,293,56638,6,0,B|452:252|400:252|400:252|340:252,1,160,4|8,0:0|0:0,0:0:0:0:
277,314,57177,1,0,0:0:0:0:
339,252,57357,2,0,L|397:194,1,80,2|0,0:2|0:0,0:0:0:0:
324,144,57716,1,8,0:0:0:0:
324,144,57896,2,0,P|256:108|188:144,1,160,8|8,0:0|0:0,0:0:0:0:
116,196,58435,2,0,L|172:252,1,80,0|8,0:0|0:0,0:0:0:0:
235,314,58794,5,8,0:0:0:0:
243,322,58884,1,8,0:0:0:0:
251,330,58974,1,8,0:0:0:0:
259,338,59064,1,8,0:0:0:0:
267,346,59153,1,8,0:0:0:0:
275,354,59243,1,8,0:0:0:0:
283,362,59333,6,0,P|359:362|400:296,1,160,12|0,0:0|0:0,0:0:0:0:
337,234,59872,2,0,L|485:294,1,160,8|2,0:0|0:2,0:0:0:0:
368,152,60411,2,0,L|293:121,1,80,0|8,0:0|0:0,0:0:0:0:
229,22,60770,6,0,P|153:22|112:88,1,160,4|0,0:0|0:0,0:0:0:0:
175,150,61309,2,0,L|26:89,1,160,8|2,0:0|0:2,0:0:0:0:
144,232,61848,2,0,L|218:262,1,80,0|8,0:0|0:0,0:0:0:0:
283,362,62207,6,0,P|359:362|400:296,1,160,4|0,0:0|0:0,0:0:0:0:
337,234,62746,2,0,L|485:294,1,160,8|2,0:0|0:2,0:0:0:0:
368,152,63285,2,0,L|293:121,1,80,0|8,0:0|0:0,0:0:0:0:
229,22,63644,6,0,B|176:22|176:22|116:22|88:72,1,160,4|0,0:0|0:0,0:0:0:0:
48,152,64183,2,0,P|86:160|125:151,1,80,8|0,0:0|0:0,0:0:0:0:
265,212,64543,2,0,P|226:204|188:213,1,80,2|0,0:2|0:0,0:0:0:0:
47,275,64902,2,0,P|86:283|125:275,1,80,8|0,0:0|0:0,0:0:0:0:
0,212,65261,6,0,L|60:364,1,160,4|8,0:0|0:0,0:0:0:0:
84,204,65800,1,0,0:0:0:0:
84,204,65980,2,0,L|25:55,1,160,2|8,0:2|0:0,0:0:0:0:
108,20,66519,6,0,P|184:20|208:92,1,160,4|0,0:0|0:0,0:0:0:0:
404,20,67058,2,0,P|328:20|304:92,1,160,8|2,0:0|0:2,0:0:0:0:
256,164,67596,1,0,0:0:0:0:
218,244,67776,2,0,B|256:256|256:256|294:244,1,80,8|0,0:0|0:0,0:0:0:0:
328,324,68135,6,0,P|256:354|184:324,1,160,4|8,0:0|0:0,0:0:0:0:
124,260,68674,1,0,0:0:0:0:
72,192,68854,2,0,L|84:140,5,40,8|8|8|8|8|8,0:0|0:0|0:0|0:0|0:0|0:0,0:0:0:0:
48,124,69393,6,0,B|128:124|128:124|152:88|196:88,1,160,12|0,0:0|0:0,0:0:0:0:
256,24,69932,2,0,L|200:174,1,160,8|8,0:0|0:0,0:0:0:0:
284,200,70471,2,0,L|256:274,1,80,0|8,0:0|0:0,0:0:0:0:
184,328,70830,6,0,P|255:298|327:328,1,160,4|0,0:0|0:0,0:0:0:0:
407,292,71369,2,0,P|415:330|408:369,1,80,8|8,0:0|0:0,0:0:0:0:
343,230,71728,2,0,P|336:191|344:153,1,80,8|8,0:0|0:0,0:0:0:0:
408,92,72088,1,8,0:0:0:0:
408,92,72267,6,0,L|168:124,1,240,12|8,0:0|0:0,0:0:0:0:
107,61,72986,1,8,0:0:0:0:
44,123,73165,2,0,P|80:176|80:272,1,160,8|8,0:0|0:0,0:0:0:0:
8,320,73704,2,0,B|48:320|80:291|80:291|112:320|152:320,1,160,12|8,0:0|0:0,0:0:0:0:
292,260,74243,2,0,B|256:243|256:243|220:260,1,80,8|8,0:0|0:0,0:0:0:0:
359,320,74602,6,0,L|396:284,3,40,8|8|8|8,0:0|0:0|0:0|0:0,0:0:0:0:
380,248,74962,2,0,L|416:211,3,40,8|8|8|8,0:0|0:0|0:0|0:0,0:0:0:0:
440,192,75321,6,0,L|360:176,1,80,12|0,0:0|0:0,0:0:0:0:
361,88,75680,2,0,L|281:104,1,80,8|0,0:0|0:0,0:0:0:0:
282,15,76040,2,0,L|147:101,1,160,8|8,0:0|0:0,0:0:0:0:
92,168,76579,6,0,B|64:140|52:100|52:100|64:60|92:32,1,160,0|0,0:0|0:0,0:0:0:0:
147,101,77117,2,0,B|175:129|187:169|187:169|175:209|147:237,1,160,8|8,0:0|0:0,0:0:0:0:
92,308,77656,1,0,0:0:0:0:
92,308,77836,2,0,L|12:308,1,80,8|0,0:0|0:0,0:0:0:0:
148,376,78195,6,0,L|308:376,1,160,12|8,0:0|0:0,0:0:0:0:
352,300,78734,1,0,0:0:0:0:
391,220,78914,2,0,P|352:212|313:220,2,80,8|0|8,0:0|0:0|0:0,0:0:0:0:
352,300,79453,6,0,L|452:80,1,240,0|8,0:0|0:0,0:0:0:0:
388,19,80171,1,0,0:0:0:0:
323,80,80351,2,0,P|255:115|188:80,1,160,8|8,0:0|0:0,0:0:0:0:
178,69,80800,1,8,0:0:0:0:
169,60,80890,1,8,0:0:0:0:
160,51,80980,1,8,0:0:0:0:
151,42,81070,6,0,L|37:156,1,160,12|8,0:0|0:0,0:0:0:0:
99,217,81608,1,0,0:0:0:0:
161,279,81788,2,0,B|165:299|178:315|178:315|165:331|161:351,1,80,8|0,0:0|0:0,0:0:0:0:
80,314,82147,1,8,0:0:0:0:
80,314,82327,6,0,L|240:314,1,160,0|0,0:0|0:0,0:0:0:0:
302,376,82866,1,8,0:0:0:0:
364,313,83046,2,0,P|393:241|363:169,1,160,0|0,0:0|0:0,0:0:0:0:
426,106,83585,1,8,0:0:0:0:
363,43,83764,1,0,0:0:0:0:
363,43,83944,6,0,B|339:87|283:87|283:87|219:87,1,160,12|8,0:0|0:0,0:0:0:0:
157,24,84483,1,0,0:0:0:0:
94,86,84662,1,12,0:0:0:0:
156,148,84842,6,0,B|156:188|185:220|185:220|156:252|156:292,2,160,0|12|8,0:0|0:0|0:0,0:0:0:0:
94,86,85740,1,8,0:0:0:0:
157,24,85919,1,8,0:0:0:0:
219,87,86099,1,12,0:0:0:0:
156,148,86279,1,12,0:0:0:0:
